osu file format v14

[General]
AudioFilename: audio.mp3
AudioLeadIn: 0
PreviewTime: 44592
Countdown: 0
SampleSet: Normal
StackLeniency: 0.7
Mode: 2
LetterboxInBreaks: 0
WidescreenStoryboard: 0

[Editor]
Bookmarks: 11344,34021
DistanceSpacing: 1.7
BeatDivisor: 4
GridSize: 4
TimelineZoom: 3.699999

[Metadata]
Title:XY&Z
TitleUnicode:XY&Z
Artist:Satoshi (CV:Matsumoto Rica)
ArtistUnicode:サトシ(CV:松本 梨香)
Creator:rew0825
Version:Nely's Overdose
Source:ポケットモンスターXY&Z
Tags:xy and z xerneas yveltal zygarde opening tv size ash ketchum pokemon pokémon pocket monsters ジガルデ rika 佐香智久 xyz tomohisa Xinely Greninja
BeatmapID:1032326
BeatmapSetID:442618

[Difficulty]
HPDrainRate:6
CircleSize:4
OverallDifficulty:9.6
ApproachRate:9.6
SliderMultiplier:1.6
SliderTickRate:2

[Events]
//Background and Video events
0,0,"BG.jpg",0,0
//Break Periods
//Storyboard Layer 0 (Background)
//Storyboard Layer 1 (Fail)
//Storyboard Layer 2 (Pass)
//Storyboard Layer 3 (Foreground)
//Storyboard Sound Samples

[TimingPoints]
478,236.220472440945,4,1,1,50,1,0
832,-90.9090909090909,4,1,1,50,0,0
1186,-83.3333333333333,4,1,1,50,0,0
1540,-76.9230769230769,4,1,1,50,0,0
1895,-100,4,1,1,50,0,0
2722,-90.9090909090909,4,1,1,50,0,0
3076,-100,4,1,1,50,0,0
3312,-133.333333333333,4,1,1,50,0,0
3785,236.220472440945,4,1,1,60,1,0
11344,-125,4,1,1,50,0,0
15123,-100,4,1,1,40,0,0
18903,-100,4,1,1,50,0,0
22682,-166.666666666667,4,1,1,40,0,0
26462,-125,4,1,1,40,0,0
32131,-100,4,1,1,40,0,0
34021,-100,4,1,1,50,0,0
41580,-100,4,1,1,60,0,0
44769,-166.666666666667,4,2,1,60,0,0
45359,-83.3333333333333,4,1,1,70,0,1
60477,-83.3333333333333,4,1,1,60,0,0
68036,-83.3333333333333,4,1,1,70,0,1
86698,-83.3333333333333,4,1,1,60,0,0
87407,-100,4,1,1,10,0,0

[Colours]
Combo1 : 255,128,128
Combo2 : 60,157,255
Combo3 : 0,80,176
Combo4 : 255,72,164

[HitObjects]
128,256,477,6,0,P|184:288|248:232,1,160,4|8,0:0|0:2,0:0:0:0:
436,148,832,2,0,B|388:104|388:104|296:172,1,176.000005371094,4|8,0:0|0:2,0:0:0:0:
64,120,1186,2,0,B|64:312,1,191.999994140625,4|8,0:0|0:2,0:0:0:0:
392,68,1540,6,0,L|416:276,1,207.999990478516,4|8,0:0|0:2,0:0:0:0:
40,96,1895,2,0,L|200:168,1,160,4|8,0:0|0:2,0:0:0:0:
288,152,2249,1,0,0:0:0:0:
48,232,2367,6,0,L|160:116,1,160,4|8,0:0|0:2,0:0:0:0:
388,160,2722,2,0,P|316:120|236:160,1,176.000005371094,4|8,0:0|0:2,0:0:0:0:
52,216,3076,1,4,0:0:0:0:
136,224,3194,1,0,0:0:0:0:
348,312,3312,1,4,0:0:0:0:
256,336,3785,6,0,P|184:344|120:272,1,160,4|8,0:0|0:0,0:0:0:0:
232,256,4139,1,0,0:0:0:0:
88,256,4257,2,0,L|-16:256,2,80,8|0|8,0:2|0:0|0:0,0:0:0:0:
408,176,4611,6,0,P|352:136|248:144,1,160,4|0,0:0|0:0,0:0:0:0:
12,168,4966,2,0,L|52:264,1,80,8|0,0:0|0:0,0:0:0:0:
172,240,5202,2,0,L|276:240,1,80,8|0,0:2|0:0,0:0:0:0:
480,296,5438,2,0,L|400:296,1,80,8|0,0:0|0:0,0:0:0:0:
93,236,5674,6,0,P|113:160|208:168,1,160,4|8,0:0|0:0,0:0:0:0:
288,160,6029,1,0,0:0:0:0:
392,176,6147,2,0,L|496:176,2,80,8|0|8,0:2|0:0|0:0,0:0:0:0:
48,224,6501,6,0,B|16:176|16:176|144:128,1,160,4|0,0:0|0:0,0:0:0:0:
232,144,6855,2,0,L|316:144,1,80,8|0,0:0|0:0,0:0:0:0:
432,128,7092,2,0,L|328:128,1,80,8|0,0:2|0:0,0:0:0:0:
264,128,7328,1,8,0:0:0:0:
152,120,7446,1,0,0:0:0:0:
440,248,7564,6,0,L|272:208,1,160,4|8,0:0|0:0,0:0:0:0:
168,224,7918,1,0,0:0:0:0:
56,248,8036,2,0,L|16:136,2,80,8|0|8,0:2|0:0|0:0,0:0:0:0:
280,304,8391,6,0,P|352:312|416:248,1,160,4|0,0:0|0:0,0:0:0:0:
152,256,8745,1,8,0:0:0:0:
56,248,8863,1,0,0:0:0:0:
288,192,8981,1,8,0:2:0:0:
368,168,9099,1,0,0:0:0:0:
440,216,9218,1,8,0:0:0:0:
204,120,9454,6,0,L|92:128,1,80,4|0,0:0|0:0,0:0:0:0:
44,136,9690,1,8,0:0:0:0:
304,192,9808,2,0,L|192:200,1,80,4|0,0:0|0:0,0:0:0:0:
144,208,10044,1,8,0:0:0:0:
440,264,10162,2,0,L|328:272,1,80,4|0,0:0|0:0,0:0:0:0:
280,280,10399,1,8,0:0:0:0:
72,280,10517,5,4,0:0:0:0:
20,228,10635,1,0,0:0:0:0:
68,176,10753,1,8,0:0:0:0:
324,144,10871,1,4,0:0:0:0:
428,144,10989,1,0,0:0:0:0:
184,144,11107,1,8,0:0:0:0:
84,144,11225,1,8,0:0:0:0:
360,84,11344,6,0,P|417:111|488:80,2,128,4|8|8,0:0|0:0|0:2,0:0:0:0:
208,180,12052,1,8,0:0:0:0:
344,312,12288,6,0,P|288:304|240:232,1,128,8|8,0:2|0:0,0:0:0:0:
136,168,12643,1,0,0:0:0:0:
224,184,12761,2,0,L|312:192,1,64,8|0,0:2|0:0,0:0:0:0:
408,144,12997,2,0,L|328:120,1,64,8|0,0:0|0:0,0:0:0:0:
72,104,13233,6,0,P|32:132|80:184,1,128,8|8,0:2|0:0,0:0:0:0:
224,184,13706,2,0,P|284:156|300:88,1,128,8|8,0:2|0:0,0:0:0:0:
128,272,14178,6,0,L|40:168,1,128,8|8,0:2|0:0,0:0:0:0:
232,112,14651,2,0,P|287:80|350:73,1,128,8|8,0:2|0:0,0:0:0:0:
424,112,15005,1,0,0:0:0:0:
192,176,15123,6,0,L|112:28,1,160,4|8,0:0|0:0,0:0:0:0:
324,240,15596,2,0,L|396:92,1,160,8|8,0:2|0:0,0:0:0:0:
176,136,16068,6,0,P|120:144|96:248,1,160,8|8,0:2|0:0,0:0:0:0:
232,180,16422,2,0,P|212:104|116:104,1,160,8|0,0:2|0:0,0:0:0:0:
320,88,16777,2,0,L|416:80,1,80,8|0,0:0|0:0,0:0:0:0:
328,192,17013,5,8,0:2:0:0:
184,200,17249,1,8,0:0:0:0:
392,196,17485,1,8,0:2:0:0:
256,208,17722,1,8,0:0:0:0:
112,280,17958,6,0,L|32:272,1,80,8|0,0:2|0:0,0:0:0:0:
136,200,18194,2,0,L|216:208,1,80,8|0,0:0|0:0,0:0:0:0:
464,168,18430,2,0,L|436:84,1,80,8|8,0:0|0:0,0:0:0:0:
150,114,18666,2,0,L|168:192,1,80,8|8,0:0|0:0,0:0:0:0:
464,168,18903,6,0,P|412:108|329:150,1,160,4|8,0:0|0:0,0:0:0:0:
240,160,19257,1,0,0:0:0:0:
112,128,19375,2,0,L|16:136,1,80,8|0,0:2|0:0,0:0:0:0:
320,248,19611,2,0,L|400:240,1,80,8|0,0:0|0:0,0:0:0:0:
84,256,19847,6,0,B|48:236|48:236|92:200,1,80,8|0,0:2|0:0,0:0:0:0:
160,120,20084,1,8,0:0:0:0:
88,80,20202,1,0,0:0:0:0:
16,120,20320,1,8,0:2:0:0:
304,96,20438,2,0,L|408:128,2,80,0|8|0,0:0|0:0|0:0,0:0:0:0:
56,208,20792,6,0,L|224:248,1,160,8|8,0:2|0:0,0:0:0:0:
320,264,21147,1,0,0:0:0:0:
88,312,21265,2,0,L|64:200,1,80,8|0,0:2|0:0,0:0:0:0:
340,312,21501,2,0,L|363:235,1,80,8|0,0:0|0:0,0:0:0:0:
88,312,21737,6,0,L|64:216,1,80,8|0,0:2|0:0,0:0:0:0:
200,232,21973,2,0,L|280:232,1,80,8|0,0:0|0:0,0:0:0:0:
464,304,22210,2,0,L|488:208,1,80,8|0,0:2|0:0,0:0:0:0:
296,224,22446,2,0,L|216:224,1,80,8|0,0:0|0:0,0:0:0:0:
16,216,22682,5,4,0:0:0:0:
104,224,22800,1,0,0:0:0:0:
432,112,22918,2,0,L|336:104,1,95.9999970703126,8|8,0:0|0:2,0:0:0:0:
256,96,23273,1,0,0:0:0:0:
168,112,23391,1,8,0:0:0:0:
76,104,23509,1,0,0:0:0:0:
312,160,23627,6,0,L|416:176,1,95.9999970703126,8|8,0:2|0:0,0:0:0:0:
288,168,23981,2,0,L|184:208,1,95.9999970703126,8|0,0:2|0:0,0:0:0:0:
412,244,24336,2,0,L|458:255,1,47.9999985351563,8|0,0:0|0:0,0:0:0:0:
352,276,24572,6,0,L|256:276,1,95.9999970703126,8|8,0:2|0:0,0:0:0:0:
96,192,25044,2,0,L|190:206,1,95.9999970703126,8|8,0:2|0:0,0:0:0:0:
32,220,25517,5,8,0:2:0:0:
252,260,25635,1,8,0:3:0:0:
268,236,25694,1,8,0:3:0:0:
244,212,25753,1,8,0:3:0:0:
148,220,25871,1,8,0:3:0:0:
364,192,25989,2,0,L|428:196,1,47.9999985351563
216,160,26225,2,0,L|156:160,1,47.9999985351563
480,240,26462,6,0,P|448:200|360:148,1,128,4|8,0:0|0:0,0:0:0:0:
188,152,26816,1,0,0:0:0:0:
108,140,26934,1,8,0:2:0:0:
96,220,27052,1,0,0:0:0:0:
176,228,27170,1,8,0:0:0:0:
468,168,27288,6,0,L|392:48,1,128
296,88,27643,2,0,L|208:116,1,64,8|0,0:0|0:0,0:0:0:0:
52,144,27879,2,0,L|-8:80,1,64,8|0,0:2|0:0,0:0:0:0:
232,128,28115,2,0,L|312:136,1,64,8|0,0:0|0:0,0:0:0:0:
484,240,28351,6,0,P|448:212|356:212,1,128,8|8,0:2|0:0,0:0:0:0:
264,236,28706,1,0,0:0:0:0:
156,228,28824,2,0,P|88:184|44:132,1,128,8|8,0:2|0:0,0:0:0:0:
168,136,29178,1,0,0:0:0:0:
308,264,29296,6,0,L|367:241,2,64,8|0|8,0:2|0:0|0:0,0:0:0:0:
24,296,29651,1,0,0:0:0:0:
108,312,29769,2,0,L|171:321,1,64,8|0,0:2|0:0,0:0:0:0:
404,280,30005,2,0,L|340:280,1,64,8|0,0:0|0:0,0:0:0:0:
104,192,30241,6,0,P|167:182|230:190,1,128,4|8,0:0|0:0,0:0:0:0:
320,236,30596,1,0,0:0:0:0:
236,228,30714,1,8,0:2:0:0:
160,196,30832,1,0,0:0:0:0:
240,212,30950,1,8,0:0:0:0:
464,160,31068,6,0,P|420:116|364:68,1,128
248,92,31422,2,0,L|176:88,1,64,8|0,0:0|0:0,0:0:0:0:
80,108,31659,2,0,L|4:108,1,64,8|0,0:2|0:0,0:0:0:0:
120,176,31895,2,0,L|184:124,1,64,8|0,0:0|0:0,0:0:0:0:
384,232,32131,6,0,L|420:144,1,80,4|0,0:0|0:0,0:0:0:0:
480,220,32367,1,8,0:0:0:0:
232,188,32485,2,0,L|268:100,1,80,4|0,0:0|0:0,0:0:0:0:
328,176,32721,1,8,0:0:0:0:
60,136,32840,2,0,L|96:48,1,80,4|0,0:0|0:0,0:0:0:0:
156,124,33076,5,8,0:0:0:0:
264,120,33194,1,8,0:3:0:0:
140,168,33312,1,8,0:3:0:0:
280,160,33430,1,0,0:0:0:0:
48,172,33548,5,8,0:2:0:0:
112,224,33666,1,0,0:0:0:0:
408,172,33785,1,8,0:0:0:0:
340,204,33903,1,0,0:0:0:0:
36,224,34021,6,0,P|40:152|120:116,1,160,4|8,0:0|0:0,0:0:0:0:
216,116,34375,1,0,0:0:0:0:
408,116,34493,2,0,L|500:112,1,80,8|0,0:2|0:0,0:0:0:0:
360,188,34729,2,0,L|280:188,1,80,8|0,0:0|0:0,0:0:0:0:
80,296,34966,6,0,P|32:264|84:184,1,160,8|8,0:2|0:0,0:0:0:0:
180,176,35320,1,0,0:0:0:0:
316,184,35438,2,0,L|300:288,1,80,8|0,0:2|0:0,0:0:0:0:
69,185,35674,2,0,L|89:289,1,80,8|0,0:0|0:0,0:0:0:0:
448,140,35910,6,0,L|416:320,1,160,4|8,0:0|0:0,0:0:0:0:
312,320,36265,1,0,0:0:0:0:
224,276,36383,2,0,L|136:276,1,80,8|0,0:2|0:0,0:0:0:0:
40,184,36619,2,0,L|120:184,1,80,8|0,0:0|0:0,0:0:0:0:
368,96,36855,6,0,L|176:96,1,160,8|8,0:2|0:0,0:0:0:0:
108,100,37210,1,0,0:0:0:0:
244,116,37328,2,0,L|332:116,1,80,8|0,0:2|0:0,0:0:0:0:
96,152,37564,2,0,L|8:152,1,80,8|0,0:0|0:0,0:0:0:0:
308,260,37800,6,0,P|352:208|296:136,1,160,4|8,0:0|0:0,0:0:0:0:
78,134,38155,2,0,P|35:195|80:256,1,160,4|8,0:0|0:0,0:0:0:0:
276,320,38509,1,4,0:2:0:0:
208,320,38627,1,0,0:2:0:0:
208,260,38745,5,8,0:2:0:0:
272,260,38863,1,0,0:2:0:0:
472,240,38981,2,0,L|496:144,1,80,12|0,0:0|0:0,0:0:0:0:
276,240,39218,2,0,P|237:226|188:228,1,80,8|0,0:2|0:0,0:0:0:0:
20,240,39454,2,0,L|-4:144,1,80,12|0,0:0|0:0,0:0:0:0:
413,125,39690,6,0,L|392:284,1,160,4|8,0:0|0:0,0:0:0:0:
100,128,40044,2,0,L|133:284,1,160,4|8,0:0|0:0,0:0:0:0:
228,312,40399,2,0,L|328:316,1,80,8|0,0:0|0:0,0:0:0:0:
484,116,40635,6,0,L|447:215,1,80,8|0,0:2|0:0,0:0:0:0:
228,104,40871,2,0,L|252:200,1,80,8|0,0:0|0:0,0:0:0:0:
376,104,41107,2,0,L|356:200,1,80,8|0,0:0|0:0,0:0:0:0:
256,168,41344,1,8,0:0:0:0:
368,168,41462,1,8,0:0:0:0:
96,168,41580,6,0,L|256:168,1,160,4|8,0:0|0:0,0:0:0:0:
452,240,41934,2,0,L|292:233,1,160,4|8,0:0|0:0,0:0:0:0:
28,260,42288,2,0,L|187:253,1,160,4|8,0:0|0:0,0:0:0:0:
440,248,42643,6,0,L|360:228,1,80,4|0,0:0|0:0,0:0:0:0:
448,328,42879,2,0,L|356:304,1,80,2|8,2:0|0:0,0:0:0:0:
120,244,43115,2,0,L|16:240,2,80,2|8|0,2:0|0:0|0:0,0:0:0:0:
384,252,43470,5,4,0:0:0:0:
408,224,43529,1,0,0:0:0:0:
404,192,43588,1,8,0:0:0:0:
376,168,43647,1,8,0:0:0:0:
76,252,43706,2,0,L|32:248,1,40,8|8,0:3|0:3,0:0:0:0:
208,248,43824,2,0,L|276:248,1,40,8|8,0:3|0:3,0:0:0:0:
404,76,43942,5,8,0:2:0:0:
432,96,44001,1,8,0:2:0:0:
428,128,44060,1,8,0:2:0:0:
400,144,44119,1,8,0:2:0:0:
260,96,44178,2,0,L|192:88,1,40,8|8,0:2|0:2,0:0:0:0:
76,144,44296,2,0,L|12:144,1,40,8|8,0:2|0:2,0:0:0:0:
248,152,44414,5,8,0:0:0:0:
368,184,44651,1,0,0:0:0:0:
240,252,44887,2,0,B|156:232|156:232|176:204|216:208,1,143.999995605469,0|0,0:2|0:0,0:0:0:0:
472,152,45359,6,0,L|480:36,1,95.9999970703126,4|0,0:0|0:0,0:0:0:0:
232,136,45596,2,0,L|225:40,1,95.9999970703126,8|0,0:0|0:0,0:0:0:0:
352,48,45832,2,0,L|464:52,1,95.9999970703126,8|0,0:2|0:0,0:0:0:0:
144,132,46068,2,0,L|12:128,1,95.9999970703126,8|0,0:0|0:0,0:0:0:0:
292,236,46304,6,0,L|408:240,1,95.9999970703126,8|0,0:2|0:0,0:0:0:0:
280,144,46540,1,8,0:0:0:0:
400,144,46659,1,0,0:0:0:0:
132,224,46777,6,0,L|16:228,1,95.9999970703126,8|0,0:2|0:0,0:0:0:0:
144,132,47013,1,8,0:0:0:0:
24,132,47132,1,0,0:0:0:0:
340,104,47249,6,0,P|420:92|448:108,2,95.9999970703126,8|0|8,0:2|0:0|0:0,0:0:0:0:
56,204,47603,2,0,L|12:100,1,95.9999970703126,0|8,0:0|0:2,0:0:0:0:
220,208,47840,2,0,L|236:100,1,95.9999970703126,0|8,0:0|0:0,0:0:0:0:
492,200,48076,6,0,P|432:264|344:224,1,191.999994140625
116,184,48430,2,0,L|20:184,1,95.9999970703126,8|0,0:0|0:0,0:0:0:0:
334,92,48666,1,8,0:2:0:0:
430,96,48785,1,0,0:0:0:0:
148,108,48903,1,8,0:0:0:0:
44,100,49021,1,0,0:0:0:0:
384,244,49139,6,0,P|440:236|364:184,1,191.999994140625,4|8,0:0|0:0,0:0:0:0:
272,160,49493,1,0,0:0:0:0:
160,160,49611,2,0,P|92:203|161:243,1,191.999994140625,8|8,0:2|0:0,0:0:0:0:
272,252,49966,1,0,0:0:0:0:
40,204,50084,6,0,L|60:92,1,95.9999970703126,8|0,0:2|0:0,0:0:0:0:
200,136,50320,2,0,L|192:236,1,95.9999970703126,8|0,0:0|0:0,0:0:0:0:
400,184,50556,2,0,L|388:68,1,95.9999970703126,8|0,0:2|0:0,0:0:0:0:
180,72,50792,2,0,L|272:28,1,95.9999970703126,8|0,0:0|0:0,0:0:0:0:
480,192,51029,6,0,L|484:80,1,95.9999970703126,4|0,0:0|0:0,0:0:0:0:
348,152,51265,1,8,0:0:0:0:
28,288,51383,2,0,L|28:176,1,95.9999970703126,4|0,0:0|0:0,0:0:0:0:
160,264,51619,1,8,0:0:0:0:
484,288,51737,2,0,L|492:176,1,95.9999970703126,4|0,0:0|0:0,0:0:0:0:
292,280,51973,5,8,0:0:0:0:
192,252,52092,1,8,0:0:0:0:
272,184,52210,1,0,0:0:0:0:
376,216,52328,1,0,0:0:0:0:
260,240,52446,1,8,0:0:0:0:
220,220,52505,1,0,0:0:0:0:
176,192,52564,6,0,L|252:176,1,47.9999985351563,8|0,0:2|0:0,0:0:0:0:
380,196,52682,2,0,L|320:168,1,47.9999985351563,8|0,0:0|0:0,0:0:0:0:
180,216,52800,2,0,L|248:196,1,47.9999985351563,8|0,0:2|0:0,0:0:0:0:
380,196,52918,6,0,P|420:132|372:28,1,191.999994140625,4|8,0:0|0:0,0:0:0:0:
224,184,53391,2,0,P|168:236|72:184,1,191.999994140625,8|8,0:2|0:0,0:0:0:0:
156,132,53745,1,0,0:0:0:0:
372,104,53863,6,0,L|440:324,1,191.999994140625,8|8,0:2|0:0,0:0:0:0:
304,300,54218,1,0,0:0:0:0:
72,104,54336,2,0,L|4:324,1,191.999994140625,8|8,0:2|0:0,0:0:0:0:
136,296,54690,1,0,0:0:0:0:
468,248,54808,6,0,L|272:248,1,191.999994140625,8|8,0:2|0:0,0:0:0:0:
176,244,55162,1,0,0:0:0:0:
488,160,55281,2,0,L|292:160,1,191.999994140625,8|8,0:2|0:0,0:0:0:0:
208,156,55635,1,0,0:0:0:0:
16,96,55753,6,0,L|212:96,1,191.999994140625,8|8,0:2|0:0,0:0:0:0:
308,92,56107,1,0,0:0:0:0:
176,96,56225,2,0,P|112:96|20:196,1,191.999994140625,8|8,0:2|0:0,0:0:0:0:
148,248,56580,1,0,0:0:0:0:
448,160,56698,6,0,P|388:152|332:176,2,95.9999970703126,4|0|8,0:0|0:0|0:0,0:0:0:0:
144,196,57052,2,0,P|100:172|160:60,1,191.999994140625
256,60,57407,1,8,0:0:0:0:
472,196,57525,6,0,P|356:224|296:168,1,191.999994140625,4|0,0:0|0:0,0:0:0:0:
156,104,57879,1,8,0:0:0:0:
264,104,57997,1,0,0:0:0:0:
156,104,58115,1,0,0:0:0:0:
60,104,58233,1,0,0:0:0:0:
200,140,58351,2,0,L|92:140,1,95.9999970703126,8|0,0:0|0:0,0:0:0:0:
448,248,58588,5,4,0:0:0:0:
264,188,58706,1,8,0:2:0:0:
440,248,58942,1,4,0:0:0:0:
216,200,59060,1,8,0:2:0:0:
332,228,59296,1,4,0:0:0:0:
144,176,59414,1,8,0:2:0:0:
184,248,59533,5,8,0:2:0:0:
260,288,59651,1,0,0:0:0:0:
204,224,59769,1,8,0:0:0:0:
116,232,59887,1,0,0:0:0:0:
412,256,60005,5,8,0:3:0:0:
444,220,60084,1,8,0:3:0:0:
412,180,60162,1,8,0:3:0:0:
124,216,60241,1,8,0:2:0:0:
92,188,60320,1,8,0:2:0:0:
120,152,60399,1,8,0:2:0:0:
456,152,60477,6,0,L|464:36,1,95.9999970703126,4|0,0:0|0:0,0:0:0:0:
344,40,60714,2,0,L|244:40,1,95.9999970703126,8|0,0:0|0:0,0:0:0:0:
132,56,60950,2,0,L|244:60,1,95.9999970703126,8|0,0:2|0:0,0:0:0:0:
360,104,61186,2,0,L|348:212,1,95.9999970703126,8|0,0:0|0:0,0:0:0:0:
60,236,61422,6,0,L|84:112,1,95.9999970703126,8|0,0:2|0:0,0:0:0:0:
172,128,61658,1,8,0:0:0:0:
268,156,61777,1,0,0:0:0:0:
64,256,61895,2,0,L|36:136,1,95.9999970703126,8|0,0:2|0:0,0:0:0:0:
152,168,62131,1,8,0:0:0:0:
32,156,62249,1,0,0:0:0:0:
340,104,62367,6,0,P|420:92|448:108,2,95.9999970703126,8|0|8,0:2|0:0|0:0,0:0:0:0:
56,204,62721,2,0,L|176:208,1,95.9999970703126,0|8,0:0|0:2,0:0:0:0:
220,208,62958,2,0,L|104:208,1,95.9999970703126,0|8,0:0|0:0,0:0:0:0:
346,228,63194,6,0,P|429:264|492:200,1,191.999994140625
344,160,63548,2,0,L|232:160,1,95.9999970703126,8|0,0:0|0:0,0:0:0:0:
28,100,63784,1,8,0:2:0:0:
136,88,63903,1,0,0:0:0:0:
456,112,64021,1,8,0:0:0:0:
352,96,64139,1,0,0:0:0:0:
80,124,64257,6,0,P|12:167|81:206,1,191.999994140625,4|8,0:0|0:0,0:0:0:0:
192,176,64611,1,0,0:0:0:0:
385,161,64729,2,0,P|453:204|384:244,1,191.999994140625,8|8,0:2|0:0,0:0:0:0:
272,252,65084,1,0,0:0:0:0:
36,200,65202,6,0,L|12:92,1,95.9999970703126,8|0,0:2|0:0,0:0:0:0:
208,180,65438,2,0,L|296:128,1,95.9999970703126,8|0,0:0|0:0,0:0:0:0:
480,192,65674,2,0,L|508:80,1,95.9999970703126,8|0,0:2|0:0,0:0:0:0:
328,72,65910,2,0,L|236:124,1,95.9999970703126,8|0,0:0|0:0,0:0:0:0:
28,140,66147,6,0,B|148:236|148:236|280:132,2,287.999991210938,4|4|4,0:0|0:0|0:0,0:0:0:0:
448,96,67328,2,0,L|336:116,1,95.9999970703126,8|0,0:0|0:2,0:0:0:0:
168,88,67564,1,8,0:0:0:0:
264,164,67682,1,8,0:0:0:0:
160,152,67800,1,8,0:0:0:0:
272,92,67918,1,8,0:0:0:0:
36,200,68036,6,0,P|77:274|144:222,1,191.999994140625,4|8,0:0|0:0,0:0:0:0:
244,188,68391,1,0,0:0:0:0:
136,136,68509,2,0,L|8:148,1,95.9999970703126,8|0,0:2|0:0,0:0:0:0:
328,92,68745,2,0,L|423:83,1,95.9999970703126,8|0,0:0|0:0,0:0:0:0:
184,120,68981,6,0,L|252:340,1,191.999994140625,8|8,0:2|0:0,0:0:0:0:
340,296,69336,1,0,0:0:0:0:
16,144,69454,2,0,L|76:336,1,191.999994140625,8|8,0:2|0:0,0:0:0:0:
168,304,69808,1,0,0:0:0:0:
468,248,69926,6,0,L|272:248,1,191.999994140625,4|8,0:0|0:0,0:0:0:0:
368,176,70280,1,0,0:0:0:0:
24,248,70399,2,0,L|216:248,1,191.999994140625,8|8,0:2|0:0,0:0:0:0:
312,180,70753,1,0,0:0:0:0:
16,96,70871,6,0,L|212:96,1,191.999994140625,4|8,0:0|0:0,0:0:0:0:
308,92,71225,1,0,0:0:0:0:
176,96,71344,2,0,P|116:112|176:188,1,191.999994140625,8|8,0:2|0:0,0:0:0:0:
268,224,71698,1,0,0:0:0:0:
448,160,71816,6,0,P|388:152|332:176,2,95.9999970703126,4|0|8,0:0|0:0|0:0,0:0:0:0:
144,196,72170,2,0,P|100:172|160:60,1,191.999994140625
256,60,72525,1,8,0:0:0:0:
472,196,72643,6,0,P|356:224|296:168,1,191.999994140625
184,144,72997,2,0,L|164:240,1,95.9999970703126,8|0,0:0|0:0,0:0:0:0:
276,132,73233,2,0,L|304:252,1,95.9999970703126,8|0,0:2|0:0,0:0:0:0:
64,136,73469,2,0,L|32:256,1,95.9999970703126,8|0,0:0|0:0,0:0:0:0:
392,292,73706,6,0,P|428:232|368:128,1,191.999994140625,4|8,0:0|0:0,0:0:0:0:
112,132,74060,2,0,P|59:207|96:292,1,191.999994140625,4|8,0:0|0:0,0:0:0:0:
436,248,74414,6,0,L|224:248,1,191.999994140625,4|8,0:0|0:0,0:0:0:0:
32,160,74769,2,0,L|240:156,1,191.999994140625,4|0,0:0|0:0,0:0:0:0:
360,152,75123,2,0,L|380:56,1,95.9999970703126,8|0,0:0|0:0,0:0:0:0:
223,156,75359,2,0,L|192:56,1,95.9999970703126,8|0,0:0|0:0,0:0:0:0:
436,136,75596,6,0,P|488:211|451:296,1,191.999994140625,4|8,0:0|0:0,0:0:0:0:
96,292,75950,2,0,P|59:207|111:131,1,191.999994140625,4|8,0:0|0:0,0:0:0:0:
368,228,76304,6,0,L|168:216,1,191.999994140625,4|8,0:0|0:2,0:0:0:0:
300,140,76659,2,0,L|412:148,1,95.9999970703126,0|8,0:0|0:0,0:0:0:0:
208,140,77013,2,0,L|120:80,1,95.9999970703126,8|0,0:0|0:0,0:0:0:0:
352,132,77249,2,0,L|448:80,1,95.9999970703126,8|0,0:0|0:0,0:0:0:0:
96,192,77485,6,0,P|144:244|256:196,2,191.999994140625,4|8|8,0:0|0:0|0:2,0:0:0:0:
12,168,78076,1,0,0:0:0:0:
132,108,78194,2,0,L|244:116,1,95.9999970703126,8|0,0:0|0:0,0:0:0:0:
480,168,78430,6,0,P|388:176|300:220,1,191.999994140625,4|8,0:0|0:0,0:0:0:0:
136,232,78785,2,0,L|28:228,2,95.9999970703126,4|8|0,0:0|0:2|0:0,0:0:0:0:
256,236,79139,1,8,0:0:0:0:
496,120,79257,6,0,B|424:88|424:88|328:148,1,191.999994140625,8|0,0:0|0:0,0:0:0:0:
112,144,79611,2,0,L|16:112,1,95.9999970703126,8|0,0:0|0:0,0:0:0:0:
200,220,79847,2,0,L|105:217,1,95.9999970703126,8|0,0:0|0:0,0:0:0:0:
292,320,80084,2,0,L|196:308,1,95.9999970703126,8|0,0:0|0:0,0:0:0:0:
400,140,80320,6,0,P|447:131|494:135,1,95.9999970703126,8|0,0:0|0:0,0:0:0:0:
300,212,80556,2,0,P|347:207|394:216,1,95.9999970703126,8|0,0:0|0:0,0:0:0:0:
176,276,80792,2,0,B|266:326|266:326|350:298,1,191.999994140625,8|8,0:0|0:0,0:0:0:0:
468,256,81147,1,8,0:0:0:0:
440,252,81206,1,8,0:0:0:0:
312,240,81265,6,0,L|160:360,2,191.999994140625,4|8|8,0:0|0:0|0:2,0:0:0:0:
232,228,81855,1,0,0:0:0:0:
28,224,81973,1,8,0:0:0:0:
108,268,82092,1,0,0:0:0:0:
352,320,82210,6,0,P|412:308|336:260,1,191.999994140625,4|8,0:0|0:0,0:0:0:0:
161,243,82564,2,0,P|91:280|160:320,1,191.999994140625
256,340,82918,1,8,0:0:0:0:
52,248,83036,6,0,B|24:204|24:204|196:168,1,191.999994140625,4|0,0:0|0:0,0:0:0:0:
272,168,83391,2,0,P|321:160|376:172,1,95.9999970703126,8|0,0:0|0:0,0:0:0:0:
240,212,83627,2,0,L|108:212,2,95.9999970703126,8|0|8,0:2|0:0|0:0,0:0:0:0:
472,170,83981,6,0,P|413:98|320:96,1,191.999994140625,4|0,0:0|0:0,0:0:0:0:
216,104,84336,2,0,L|116:104,1,95.9999970703126,8|0,0:0|0:0,0:0:0:0:
172,192,84572,2,0,L|284:200,1,95.9999970703126,8|8,0:2|0:2,0:0:0:0:
472,170,84808,6,0,B|520:144|520:144|356:128,1,191.999994140625,4|0,0:0|0:0,0:0:0:0:
280,136,85162,1,0,0:0:0:0:
156,132,85281,2,0,L|144:12,1,95.9999970703126,8|0,0:0|0:0,0:0:0:0:
374,173,85517,2,0,L|396:80,1,95.9999970703126,8|0,0:2|0:0,0:0:0:0:
187,286,85753,2,0,L|172:192,1,95.9999970703126,8|0,0:0|0:0,0:0:0:0:
456,324,85989,5,8,0:0:0:0:
360,328,86107,1,0,0:0:0:0:
72,288,86225,1,8,0:0:0:0:
160,288,86344,1,0,0:0:0:0:
360,160,86462,1,8,0:0:0:0:
256,160,86580,1,0,0:0:0:0:
484,160,86698,1,4,0:0:0:0:
256,192,86816,12,0,87407,0:0:0:0:
