osu file format v14

[General]
AudioFilename: audio.mp3
AudioLeadIn: 0
PreviewTime: 44532
Countdown: 0
SampleSet: Soft
StackLeniency: 0.3
Mode: 0
LetterboxInBreaks: 0
WidescreenStoryboard: 1

[Editor]
Bookmarks: 3784,11343,18902,26461,34020,37799,45358,60476,68035,77484,86697
DistanceSpacing: 0.8
BeatDivisor: 2
GridSize: 32
TimelineZoom: 1.6

[Metadata]
Title:XY&Z
TitleUnicode:XY&Z
Artist:Satoshi (CV:Matsumoto Rica)
ArtistUnicode:サトシ(CV:松本 梨香)
Creator:Hobbes2
Version:pkhg's Normal
Source:ポケットモンスターXY&Z
Tags:XYZ Ash Ketchum Pokemon Pokémon Pocket Monsters ジガルデ XYZ Tomohisa Sako Saku Zygarde Puni-chan cartoon tv size Gero Sotarks bite you death fieryrage pkhg Akitoshi
BeatmapID:1498876
BeatmapSetID:698151

[Difficulty]
HPDrainRate:4
CircleSize:3
OverallDifficulty:4
ApproachRate:5.5
SliderMultiplier:0.95
SliderTickRate:1

[Events]
//Background and Video events
0,0,"serena.jpg",0,0
Video,406,"xyz op.avi"
//Break Periods
//Storyboard Layer 0 (Background)
//Storyboard Layer 1 (Fail)
//Storyboard Layer 2 (Pass)
//Storyboard Layer 3 (Foreground)
//Storyboard Sound Samples

[TimingPoints]
477,236.220472440945,4,2,0,70,1,0
3784,236.220472440945,4,2,0,70,1,0
10371,-100,4,2,0,70,0,0
11343,-100,4,2,0,70,0,0
45358,-100,4,2,0,80,0,1
45535,-100,4,2,0,5,0,1
45595,-100,4,2,0,80,0,1
47425,-100,4,2,0,5,0,1
47484,-100,4,2,0,80,0,1
48252,-100,4,2,0,5,0,1
48311,-100,4,2,0,80,0,1
49315,-100,4,2,0,5,0,1
49374,-100,4,2,0,80,0,1
51205,-100,4,2,0,5,0,1
51264,-100,4,2,0,80,0,1
53095,-100,4,2,0,5,0,1
53154,-100,4,2,0,80,0,1
56874,-100,4,2,0,5,0,1
56933,-100,4,2,0,80,0,1
57701,-100,4,2,0,5,0,1
57760,-100,4,2,0,80,0,1
60476,-100,4,2,0,70,0,0
60654,-100,4,2,0,5,0,0
60713,-100,4,2,0,70,0,0
62543,-100,4,2,0,5,0,0
62602,-100,4,2,0,70,0,0
64433,-100,4,2,0,5,0,0
64492,-100,4,2,0,70,0,0
66146,-100,4,2,0,60,0,0
66500,-100,4,2,0,45,0,0
66854,-100,4,2,0,30,0,0
67328,-100,4,2,0,30,0,0
67563,-100,4,2,0,70,0,0
68035,-100,4,2,0,80,0,1
68213,-100,4,2,0,5,0,1
68272,-100,4,2,0,80,0,1
71992,-100,4,2,0,5,0,1
72051,-100,4,2,0,80,0,1
72819,-100,4,2,0,5,0,1
72878,-100,4,2,0,80,0,1
73882,-100,4,2,0,5,0,1
73941,-100,4,2,0,80,0,1
74236,-100,4,2,0,5,0,1
74295,-100,4,2,0,80,0,1
74591,-100,4,2,0,5,0,1
74650,-100,4,2,0,80,0,1
75772,-100,4,2,0,5,0,1
75831,-100,4,2,0,80,0,1
76126,-100,4,2,0,5,0,1
76185,-100,4,2,0,80,0,1
76480,-100,4,2,0,5,0,1
76539,-100,4,2,0,80,0,1
77484,-100,4,2,0,70,0,0
84158,-100,4,2,0,5,0,0
84217,-100,4,2,0,70,0,0
87406,-100,4,2,0,5,0,0

[Colours]
Combo1 : 22,187,241
Combo2 : 238,217,96
Combo3 : 233,3,44

[HitObjects]
83,40,476,6,0,P|145:71|212:54,1,142.5,0|0,1:0|1:0,0:0:0:0:
342,112,1185,2,0,P|404:80|471:97,2,142.5,0|0|0,1:0|1:0|1:0,0:0:0:0:
287,190,2130,1,0,1:0:0:0:
360,251,2366,2,0,P|427:268|489:236,2,142.5,0|0|0,1:0|1:0|1:0,0:0:0:0:
287,190,3311,1,0,1:0:0:0:
148,57,3784,6,0,P|101:52|59:72,1,95,4|0,0:0|1:0,0:0:0:0:
10,154,4256,2,0,P|5:200|25:242,1,95,4|0,0:3|1:0,0:0:0:0:
66,268,4610,2,0,B|120:248|120:248|203:268,1,142.5,4|0,0:3|1:0,0:0:0:0:
273,332,5201,2,0,L|283:378,2,47.5,4|4|0,0:3|0:3|1:0,0:0:0:0:
340,264,5673,6,0,P|344:217|324:175,1,95,4|0,0:0|1:0,0:0:0:0:
253,112,6146,2,0,P|248:65|268:23,1,95,4|0,0:3|1:0,0:0:0:0:
310,0,6500,2,0,P|376:15|407:78,1,142.5,4|0,0:3|1:0,0:0:0:0:
464,157,7091,2,0,P|487:153|510:146,2,47.5,4|4|0,0:3|0:3|1:0,0:0:0:0:
385,209,7563,6,0,P|338:204|296:224,2,95,4|0|4,0:0|1:0|0:3,0:0:0:0:
420,303,8272,1,0,1:0:0:0:
420,303,8390,2,0,P|363:342|296:325,1,142.5,4|0,0:3|1:0,0:0:0:0:
213,274,8980,2,0,P|166:269|124:289,1,95,4|0,0:3|1:0,0:0:0:0:
37,249,9453,6,0,P|20:181|59:124,1,142.5,4|0,1:2|1:0,0:0:0:0:
196,82,10161,2,0,L|342:94,2,142.5,4|0|0,1:2|3:0|1:0,0:0:0:0:
108,42,11106,1,0,0:0:0:0:
59,124,11343,1,4,1:2:0:0:
203,365,12051,5,0,1:0:0:0:
242,278,12287,2,0,P|299:239|366:256,1,142.5,2|2,0:0|0:0,0:0:0:0:
440,319,12878,1,0,0:0:0:0:
511,254,13114,2,0,L|492:112,1,142.5,2|0,0:0|1:0,0:0:0:0:
431,40,13705,2,0,P|388:19|342:23,1,95,2|0,0:0|1:0,0:0:0:0:
281,96,14177,2,0,P|216:160|130:133,1,190,2|2,0:0|0:0,0:0:0:0:
83,51,14886,2,0,L|89:-1,2,47.5,0|0|4,1:0|1:0|1:2,0:0:0:0:
3,103,15358,5,2,1:2:0:0:
53,184,15595,2,0,P|73:226|68:273,1,95,2|0,0:0|1:0,0:0:0:0:
130,343,16067,2,0,P|199:356|259:319,2,142.5,2|0|2,0:0|0:0|1:2,0:0:0:0:
162,156,17248,5,2,1:2:0:0:
207,72,17484,2,0,P|249:51|296:56,1,95,2|0,0:0|1:0,0:0:0:0:
353,133,17957,2,0,P|332:175|337:222,1,95,2|0,0:0|1:0,0:0:0:0:
406,286,18429,2,0,P|429:281|452:274,2,47.5,0|0|0,1:0|1:0|1:0,0:0:0:0:
336,350,18902,6,0,P|271:286|185:312,1,190,4|0,0:0|0:0,0:0:0:0:
110,370,19610,1,2,0:0:0:0:
49,296,19846,2,0,L|32:153,1,142.5,2|2,0:0|0:0,0:0:0:0:
58,63,20437,1,2,0:0:0:0:
172,148,20791,6,0,P|192:190|187:237,1,95,2|0,0:0|1:0,0:0:0:0:
218,328,21264,2,0,P|260:348|307:343,1,95,2|0,0:0|1:0,0:0:0:0:
396,308,21736,2,0,P|442:302|485:322,2,95,2|0|2,0:0|1:0|0:0,0:0:0:0:
324,250,22445,5,0,1:0:0:0:
324,250,22563,2,0,P|325:182|383:148,1,142.5,4|0,0:0|0:0,0:0:0:0:
333,68,23154,2,0,P|290:47|243:52,1,95,2|0,0:0|1:0,0:0:0:0:
178,120,23626,2,0,P|110:138|51:101,1,142.5,2|0,0:0|0:0,0:0:0:0:
0,234,24335,2,0,L|187:263,1,190,2|0,0:0|1:0,0:0:0:0:
264,320,25043,2,0,L|357:305,1,95,2|0,0:0|1:0,0:0:0:0:
418,231,25516,2,0,L|511:245,2,95,2|0|2,0:0|1:0|0:0,0:0:0:0:
328,62,26461,6,0,P|260:47|202:86,1,142.5,4|2,0:0|0:0,0:0:0:0:
141,155,27051,1,0,0:0:0:0:
196,232,27287,2,0,P|301:272|387:198,1,237.5,2|0,0:0|1:0,0:0:0:0:
413,107,28114,1,2,0:0:0:0:
479,176,28350,6,0,P|455:267|388:333,1,190,2|0,0:0|1:0,0:0:0:0:
298,364,29059,1,2,0:0:0:0:
204,351,29295,2,0,P|134:344|64:372,2,142.5,2|2|2,0:0|0:0|0:0,0:0:0:0:
260,273,30240,6,0,P|268:202|243:136,1,142.5,4|2,0:0|0:0,0:0:0:0:
171,75,30831,1,0,0:0:0:0:
117,153,31067,2,0,P|110:223|138:293,1,142.5,2|0,0:0|0:0,0:0:0:0:
204,351,31658,1,2,0:0:0:0:
279,292,31894,1,0,0:0:0:0:
373,314,32130,2,0,P|442:301|502:338,2,142.5,4|2|4,1:2|0:0|0:0,0:0:0:0:
187,98,33547,6,0,P|146:121|123:163,1,95,2|2,0:0|0:0,0:0:0:0:
190,230,34020,2,0,P|102:257|34:197,2,190,4|2|0,0:0|0:0|0:0,0:0:0:0:
256,53,35437,1,0,0:0:0:0:
321,230,35909,2,0,P|409:257|477:197,2,190,2|0|2,0:0|0:0|0:0,0:0:0:0:
256,53,37327,1,2,0:0:0:0:
63,97,37799,6,0,P|39:162|65:227,1,142.5,4|0,0:0|0:0,0:0:0:0:
72,369,38508,2,0,P|147:315|237:336,1,190,4|0,0:0|0:0,0:0:0:0:
325,373,39217,2,0,L|429:355,1,95,4|0,0:0|0:0,0:0:0:0:
473,279,39689,6,0,P|496:213|470:148,1,142.5,4|0,0:0|0:0,0:0:0:0:
464,7,40398,2,0,P|388:60|298:39,1,190,4|0,0:0|0:0,0:0:0:0:
211,3,41107,2,0,L|107:21,1,95,4|0,0:0|0:0,0:0:0:0:
63,97,41579,6,0,L|44:238,1,142.5,4|4,0:0|0:0,0:0:0:0:
182,282,42287,2,0,L|206:93,1,190,4|0,0:0|0:0,0:0:0:0:
287,156,42996,2,0,L|274:250,1,95,4|0,0:0|0:0,0:0:0:0:
359,287,43469,2,0,L|377:145,2,142.5,4|2|4,0:0|0:0|0:0,0:0:0:0:
196,382,44650,5,2,0:0:0:0:
139,306,44886,2,0,B|107:262|107:262|172:213|172:213|139:169,1,190,2|4,0:0|0:0,0:0:0:0:
385,34,46067,5,2,0:0:0:0:
466,81,46303,2,0,P|486:123|483:169,1,95,2|0,0:0|1:0,0:0:0:0:
411,235,46776,2,0,P|364:238|322:217,1,95,2|0,0:0|1:0,0:0:0:0:
248,156,47248,2,0,P|204:137|158:144,1,95,2|0,0:0|1:0,0:0:0:0:
121,173,47602,1,2,0:0:0:0:
73,255,47839,1,2,0:0:0:0:
144,318,48075,2,0,P|210:336|270:300,1,142.5,2|0,0:0|1:0,0:0:0:0:
322,217,48665,2,0,L|303:24,1,190,2|4,0:0|0:0,0:0:0:0:
126,99,49610,6,0,P|105:142|110:189,1,95,2|0,0:0|1:0,0:0:0:0:
179,256,50083,2,0,P|225:260|267:239,1,95,2|0,0:0|1:0,0:0:0:0:
343,180,50555,2,0,P|389:175|431:196,1,95,2|0,0:0|1:0,0:0:0:0:
462,288,51028,2,0,P|414:338|344:338,2,142.5,4|2|4,0:0|0:0|0:0,0:0:0:0:
274,259,52209,5,2,0:0:0:0:
217,183,52445,2,0,B|185:139|185:139|250:90|250:90|217:46,1,190,2|4,0:0|0:0,0:0:0:0:
28,261,53626,5,2,0:0:0:0:
103,321,53862,2,0,P|149:325|191:304,1,95,2|0,0:0|1:0,0:0:0:0:
246,226,54335,2,0,P|250:180|229:138,1,95,2|0,0:0|1:0,0:0:0:0:
153,77,54807,2,0,P|107:73|65:94,1,95,2|0,0:0|1:0,0:0:0:0:
10,172,55280,2,0,P|6:218|27:260,1,95,2|0,0:0|1:0,0:0:0:0:
103,321,55752,2,0,L|296:331,1,190,2|0,0:0|0:0,0:0:0:0:
388,324,56461,1,2,0:0:0:0:
443,246,56697,6,0,P|461:202|454:156,1,95,4|0,0:0|1:0,0:0:0:0:
425,119,57051,1,2,0:0:0:0:
343,75,57287,1,0,0:0:0:0:
273,141,57524,2,0,L|126:126,1,142.5,4|0,0:0|1:0,0:0:0:0:
56,187,58114,1,2,0:0:0:0:
56,187,58232,2,0,P|34:228|38:275,1,95,2|0,0:0|0:0,0:0:0:0:
66,315,58587,6,0,P|133:332|192:296,1,142.5,4|4,0:0|0:0,0:0:0:0:
261,169,59295,2,0,P|320:132|387:149,1,142.5,4|0,0:0|0:0,0:0:0:0:
418,185,59768,1,2,0:0:0:0:
464,268,60004,2,0,L|514:272,2,47.5,0|0|0,1:0|1:0|1:0,0:0:0:0:
403,341,60476,6,0,L|213:360,1,190,4|0,0:0|1:0,0:0:0:0:
128,331,61185,1,0,0:0:0:0:
128,331,61303,2,0,P|88:274|105:207,1,142.5,0|2,1:0|0:0,0:0:0:0:
183,151,61894,2,0,L|277:141,1,95,0|2,1:0|0:0,0:0:0:0:
343,69,62366,6,0,P|423:53|413:134,1,190,4|0,0:0|1:0,0:0:0:0:
356,214,63075,1,0,0:0:0:0:
356,213,63193,2,0,P|316:270|334:337,1,142.5,0|2,1:0|0:0,0:0:0:0:
423,368,63784,2,0,P|487:305|453:222,1,190,2|4,0:0|0:0,0:0:0:0:
306,98,64728,6,0,P|260:93|218:113,1,95,0|0,1:0|0:0,0:0:0:0:
152,180,65201,2,0,L|56:159,1,95,2|0,0:0|0:0,0:0:0:0:
0,233,65673,2,0,P|-3:279|17:321,1,95,2|2,0:0|0:0,0:0:0:0:
107,357,66146,2,0,L|254:342,2,142.5,4|2|2,0:0|0:0|0:0,0:0:0:0:
157,174,67327,5,2,0:0:0:0:
202,89,67563,2,0,L|193:42,2,47.5,0|0|0,1:0|1:0|1:0,0:0:0:0:
282,140,68035,2,0,B|363:191|363:191|406:100,1,190,4|0,0:0|0:0,0:0:0:0:
477,44,68744,1,2,0:0:0:0:
512,133,68980,6,0,L|499:229,1,95,2|0,0:0|1:0,0:0:0:0:
434,298,69453,2,0,L|338:311,1,95,2|0,0:0|1:0,0:0:0:0:
277,240,69925,2,0,P|234:219|188:224,1,95,4|0,0:0|1:0,0:0:0:0:
122,292,70398,2,0,P|75:296|33:276,1,95,4|0,0:0|1:0,0:0:0:0:
2,184,70870,2,0,P|39:110|141:104,1,190,4|0,0:0|0:0,0:0:0:0:
222,57,71579,6,0,L|230:0,2,47.5,2|2|4,0:0|0:0|1:2,0:0:0:0:
281,132,72051,1,2,0:0:0:0:
281,132,72169,2,0,L|376:122,1,95,4|0,0:0|0:0,0:0:0:0:
411,211,72642,2,0,L|264:226,1,142.5,4|0,0:0|1:0,0:0:0:0:
187,175,73232,1,2,0:0:0:0:
138,256,73469,1,0,1:0:0:0:
219,307,73705,6,0,P|150:298|99:344,1,142.5,4|4,1:2|0:0,0:0:0:0:
37,217,74413,2,0,P|109:159|200:173,1,190,4|0,0:0|1:0,0:0:0:0:
258,98,75122,2,0,L|250:37,2,47.5,0|0|0,1:2|1:2|1:2,0:0:0:0:
334,160,75595,6,0,L|475:174,1,142.5,4|4,1:2|0:0,0:0:0:0:
486,317,76303,2,0,L|296:297,1,190,4|0,0:0|1:0,0:0:0:0:
211,337,77012,2,0,L|203:394,2,47.5,0|0|0,1:0|1:0|1:0,0:0:0:0:
163,257,77484,6,0,B|139:209|163:165|163:165|186:122|163:74,1,190,4|0,0:0|0:0,0:0:0:0:
75,38,78193,1,0,1:2:0:0:
18,114,78429,2,0,P|13:160|33:202,1,95,2|0,0:0|1:0,0:0:0:0:
71,231,78784,2,0,P|76:277|56:319,1,95,2|2,0:0|0:0,0:0:0:0:
141,360,79256,6,0,L|282:346,1,142.5,4|0,0:0|1:0,0:0:0:0:
331,263,79846,2,0,P|374:284|420:279,1,95,4|0,0:0|1:2,0:0:0:0:
484,210,80319,2,0,P|488:163|467:121,1,95,4|0,0:0|1:0,0:0:0:0:
392,64,80791,2,0,L|400:3,2,47.5,0|0|4,1:0|3:0|0:3,0:0:0:0:
320,126,81264,6,0,B|272:149|229:126|229:126|185:102|137:126,1,190,4|0,0:0|0:0,0:0:0:0:
81,202,81972,1,2,1:2:0:0:
150,267,82209,2,0,P|196:262|238:282,1,95,6|0,0:0|1:0,0:0:0:0:
264,323,82563,1,2,0:0:0:0:
345,370,82799,1,2,0:0:0:0:
410,299,83035,6,0,L|424:158,1,142.5,4|0,0:0|0:0,0:0:0:0:
472,74,83626,1,2,1:2:0:0:
382,47,83862,1,0,0:0:0:0:
382,47,83980,2,0,P|323:84|256:67,1,142.5,6|0,1:2|0:0,0:0:0:0:
188,0,84571,1,2,0:0:0:0:
116,64,84807,6,0,B|92:112|116:156|116:156|139:199|116:247,1,190,4|0,0:0|0:0,0:0:0:0:
50,313,85516,1,2,1:2:0:0:
148,347,85752,1,0,0:0:0:0:
148,347,85870,2,0,L|289:333,1,142.5,6|0,1:2|0:0,0:0:0:0:
357,265,86461,2,0,L|415:274,1,47.5,0|4,3:0|0:3,0:0:0:0:
451,279,86697,1,4,0:0:0:0:
