osu file format v14

[General]
AudioFilename: audio.mp3
AudioLeadIn: 0
PreviewTime: 44532
Countdown: 0
SampleSet: Soft
StackLeniency: 0.3
Mode: 0
LetterboxInBreaks: 0
WidescreenStoryboard: 1

[Editor]
Bookmarks: 3784,11343,18902,26461,34020,37799,45358,60476,68035,77484,86697
DistanceSpacing: 0.8
BeatDivisor: 4
GridSize: 32
TimelineZoom: 2.799999

[Metadata]
Title:XY&Z
TitleUnicode:XY&Z
Artist:Satoshi (CV:Matsumoto Rica)
ArtistUnicode:サトシ(CV:松本 梨香)
Creator:Hobbes2
Version:byd's Insane
Source:ポケットモンスターXY&Z
Tags:XYZ Ash Ketchum Pokemon Pokémon Pocket Monsters ジガルデ XYZ Tomohisa Sako Saku Zygarde Puni-chan cartoon tv size Gero Sotarks bite you death fieryrage pkhg Akitoshi
BeatmapID:1480954
BeatmapSetID:698151

[Difficulty]
HPDrainRate:5
CircleSize:4
OverallDifficulty:8
ApproachRate:9.2
SliderMultiplier:1.5
SliderTickRate:1

[Events]
//Background and Video events
0,0,"yveltal lol.jpg",0,0
Video,406,"xyz op.avi"
//Break Periods
//Storyboard Layer 0 (Background)
//Storyboard Layer 1 (Fail)
//Storyboard Layer 2 (Pass)
//Storyboard Layer 3 (Foreground)
//Storyboard Sound Samples

[TimingPoints]
477,236.220472440945,4,2,1,70,1,0
3784,236.220472440945,4,2,1,70,1,0
3784,-90.9090909090909,4,2,1,70,0,0
10870,-100,4,2,1,40,0,0
10988,-100,4,2,1,55,0,0
11106,-100,4,2,1,70,0,0
11224,-100,4,2,1,85,0,0
11343,-133.333333333333,4,2,1,50,0,0
15122,-90.9090909090909,4,2,1,50,0,0
15358,-133.333333333333,4,2,1,50,0,0
18311,-133.333333333333,4,2,1,30,0,0
18429,-111.111111111111,4,2,1,40,0,0
18547,-111.111111111111,4,2,1,50,0,0
18665,-86.9565217391303,4,2,1,65,0,0
18784,-86.9565217391303,4,2,1,80,0,0
18902,-105.263157894737,4,2,1,60,0,0
26461,-133.333333333333,4,2,1,50,0,0
32130,-117.647058823529,4,2,1,60,0,0
34020,-105.263157894737,4,2,1,70,0,0
34197,-105.263157894737,4,2,1,5,0,0
34256,-105.263157894737,4,2,1,70,0,0
36087,-105.263157894737,4,2,1,5,0,0
36146,-105.263157894737,4,2,1,70,0,0
37976,-105.263157894737,4,2,1,5,0,0
38035,-105.263157894737,4,2,1,70,0,0
38331,-105.263157894737,4,2,1,5,0,0
38390,-105.263157894737,4,2,1,70,0,0
39689,-86.9565217391304,4,2,1,70,0,0
39866,-86.9565217391304,4,2,1,5,0,0
39925,-86.9565217391304,4,2,1,70,0,0
40221,-86.9565217391304,4,2,1,5,0,0
40280,-86.9565217391304,4,2,1,70,0,0
40575,-86.9565217391304,4,2,1,5,0,0
40634,-86.9565217391304,4,2,1,70,0,0
41579,-80,4,2,1,70,0,0
44886,-200,4,2,1,70,0,0
45358,-76.9230769230769,4,2,1,80,0,1
45535,-76.9230769230769,4,2,1,5,0,1
45595,-76.9230769230769,4,2,1,80,0,1
47425,-76.9230769230769,4,2,1,5,0,1
47484,-76.9230769230769,4,2,1,80,0,1
49315,-76.9230769230769,4,2,1,5,0,1
49374,-76.9230769230769,4,2,1,80,0,1
51205,-76.9230769230769,4,2,1,5,0,1
51264,-76.9230769230769,4,2,1,80,0,1
53095,-76.9230769230769,4,2,1,5,0,1
53154,-76.9230769230769,4,2,1,80,0,1
54807,-71.4285714285714,4,2,1,80,0,1
55280,-66.6666666666667,4,2,1,80,0,1
55752,-76.9230769230769,4,2,1,80,0,1
56874,-76.9230769230769,4,2,1,5,0,1
56933,-76.9230769230769,4,2,1,80,0,1
57701,-76.9230769230769,4,2,1,5,0,1
57760,-76.9230769230769,4,2,1,80,0,1
60476,-90.9090909090909,4,2,1,70,0,0
60654,-90.9090909090909,4,2,1,5,0,0
60713,-90.9090909090909,4,2,1,70,0,0
62543,-90.9090909090909,4,2,1,5,0,0
62602,-90.9090909090909,4,2,1,70,0,0
64433,-90.9090909090909,4,2,1,5,0,0
64492,-90.9090909090909,4,2,1,70,0,0
66146,-133.333333333333,4,2,1,60,0,0
66500,-133.333333333333,4,2,1,45,0,0
66854,-266.666666666667,4,2,1,30,0,0
67327,-100,4,2,1,30,0,0
67563,-266.666666666667,4,2,1,70,0,0
68035,-76.9230769230769,4,2,1,80,0,1
68213,-76.9230769230769,4,2,1,5,0,1
68272,-76.9230769230769,4,2,1,80,0,1
71992,-76.9230769230769,4,2,1,5,0,1
72051,-76.9230769230769,4,2,1,80,0,1
72819,-76.9230769230769,4,2,1,5,0,1
72878,-76.9230769230769,4,2,1,80,0,1
73882,-76.9230769230769,4,2,1,5,0,1
73941,-76.9230769230769,4,2,1,80,0,1
74236,-76.9230769230769,4,2,1,5,0,1
74295,-76.9230769230769,4,2,1,80,0,1
74591,-76.9230769230769,4,2,1,5,0,1
74650,-76.9230769230769,4,2,1,80,0,1
75772,-76.9230769230769,4,2,1,5,0,1
75831,-76.9230769230769,4,2,1,80,0,1
76126,-76.9230769230769,4,2,1,5,0,1
76185,-76.9230769230769,4,2,1,80,0,1
76480,-76.9230769230769,4,2,1,5,0,1
76539,-76.9230769230769,4,2,1,80,0,1
77484,-83.3333333333333,4,2,1,70,0,0
83035,-133.333333333333,4,2,1,70,0,0
84571,-100,4,2,1,70,0,0
84807,-133.333333333333,4,2,1,70,0,0
86697,-200,4,2,1,70,0,0
87406,-200,4,2,1,5,0,0

[Colours]
Combo1 : 255,190,94
Combo2 : 253,145,207
Combo3 : 0,114,227
Combo4 : 251,40,151

[HitObjects]
162,152,476,6,0,B|273:165|273:165|231:191,1,150,4|8,3:2|0:0,0:0:0:0:
391,259,831,2,0,B|280:246|280:246|322:220,1,150,4|8,3:2|0:0,0:0:0:0:
412,161,1185,1,4,3:2:0:0:
417,341,1421,5,8,0:0:0:0:
417,341,1539,2,0,B|253:322,1,150,4|8,3:2|0:0,0:0:0:0:
182,349,1894,2,0,P|192:313|185:276,1,75,4|0,3:2|0:0,0:0:0:0:
43,263,2130,1,8,0:0:0:0:
114,309,2248,1,8,0:0:0:0:
19,240,2366,6,0,P|16:207|12:165,1,75,6|0,3:2|3:0,0:0:0:0:
152,113,2603,1,8,0:0:0:0:
114,211,2721,2,0,B|171:227|171:227|216:207|283:191,1,150,4|8,3:2|0:0,0:0:0:0:
366,292,3075,2,0,P|331:283|289:276,1,75,4|0,3:2|3:0,0:0:0:0:
370,161,3311,5,8,0:0:0:0:
370,161,3784,6,0,B|399:211|399:211|430:75,1,165.000005035401,4|8,3:2|0:0,0:0:0:0:
315,4,4138,1,0,0:0:0:0:
315,4,4256,2,0,L|332:96,2,82.5000025177003,0|0|8,3:0|3:0|0:0,0:0:0:0:
208,159,4610,6,0,B|300:130|288:191|389:154,1,165.000005035401,4|0,3:2|3:0,0:0:0:0:
455,260,4965,2,0,P|416:251|352:244,1,82.5000025177003,8|0,0:0|0:0,0:0:0:0:
260,349,5201,2,0,P|300:343|341:334,1,82.5000025177003,0|0,3:0|3:0,0:0:0:0:
256,231,5437,1,8,0:0:0:0:
33,281,5673,6,0,B|94:296|94:296|132:284|132:284|215:295,1,165.000005035401,4|8,3:2|0:0,0:0:0:0:
105,135,6028,1,0,0:0:0:0:
105,135,6146,2,0,L|93:216,2,82.5000025177003,0|0|8,3:0|3:0|0:0,0:0:0:0:
132,14,6500,5,4,3:2:0:0:
132,14,6736,1,0,3:0:0:0:
267,103,6854,2,0,L|185:93,1,82.5000025177003,8|0,0:0|0:0,0:0:0:0:
92,216,7091,1,0,3:0:0:0:
92,216,7209,1,0,3:0:0:0:
92,216,7327,2,0,L|195:204,1,82.5000025177003,8|0,0:0|0:0,0:0:0:0:
285,307,7563,6,0,P|275:249|354:173,1,165.000005035401,4|8,3:2|0:0,0:0:0:0:
445,274,7917,1,0,0:0:0:0:
445,274,8035,2,0,L|348:262,2,82.5000025177003,0|0|8,3:0|3:0|0:0,0:0:0:0:
285,307,8390,5,4,3:2:0:0:
285,307,8626,1,0,3:0:0:0:
185,231,8744,2,0,L|197:328,1,82.5000025177003,8|0,0:0|0:0,0:0:0:0:
239,151,8980,1,0,3:0:0:0:
239,151,9098,1,0,3:0:0:0:
239,151,9217,2,0,P|169:138|127:155,1,82.5000025177003,8|0,0:0|0:0,0:0:0:0:
94,258,9453,5,4,3:2:0:0:
159,140,9571,1,0,3:0:0:0:
67,166,9689,1,8,0:0:0:0:
185,231,9807,6,0,B|241:243|241:243|289:229|289:229|369:245,1,165.000005035401,4|8,3:2|0:0,0:0:0:0:
443,316,10161,6,0,P|427:272|447:224,1,82.5000025177003,4|0,3:2|3:0,0:0:0:0:
497,119,10398,1,8,0:0:0:0:
497,119,10516,6,0,P|430:144|324:94,1,165.000005035401,4|8,3:2|0:0,0:0:0:0:
233,219,10870,5,8,3:2:0:0:
345,240,10988,1,8,3:0:0:0:
210,247,11106,5,8,3:0:0:0:
322,212,11224,1,8,3:0:0:0:
187,275,11343,6,0,P|202:214|172:147,1,112.500004291535,6|0,3:2|0:0,0:0:0:0:
193,280,11815,2,0,P|211:219|184:151,1,112.500004291535,0|2,0:0|0:0,0:0:0:0:
134,352,12287,2,0,P|195:370|263:343,1,112.500004291535,2|0,0:0|0:0,0:0:0:0:
347,364,12642,2,0,P|286:346|218:373,1,112.500004291535,2|2,0:0|0:0,0:0:0:0:
182,111,13114,6,0,P|187:187|194:298,1,168.750006437302,2|2,0:0|0:0,0:0:0:0:
277,118,13705,1,2,0:0:0:0:
99,206,13941,1,2,0:0:0:0:
288,256,14177,6,0,P|344:245|402:238,1,112.500004291535,2|2,0:0|0:0,0:0:0:0:
277,118,14650,1,2,0:0:0:0:
218,320,14886,1,2,0:0:0:0:
218,320,15004,1,0,0:0:0:0:
218,320,15122,6,0,B|206:252|206:252|216:219|216:219|205:142,1,165.000005035401,6|2,0:0|0:0,0:0:0:0:
280,11,15595,2,0,P|294:69|266:129,1,112.500004291535,2|2,0:0|0:0,0:0:0:0:
50,66,16067,2,0,B|146:39|128:89|224:62,1,168.750006437302,2|2,0:0|0:0,0:0:0:0:
412,200,16776,6,0,B|330:183|330:183|280:200|280:200|191:177,1,225.000008583069,2|2,0:0|0:0,0:0:0:0:
100,147,17484,1,2,0:0:0:0:
276,117,17720,1,2,0:0:0:0:
197,307,17957,2,0,P|185:251|177:190,1,112.500004291535,2|0,3:2|0:0,0:0:0:0:
288,51,18311,1,0,0:0:0:0:
288,51,18429,6,0,P|284:88|271:128,1,67.4999979400635,0|0,3:0|3:0,0:0:0:0:
412,200,18665,2,0,P|399:166|401:106,1,86.2500016450882,8|8,0:0|0:0,0:0:0:0:
354,287,18902,6,0,P|398:254|509:264,1,142.49999619484,6|8,3:2|0:0,0:0:0:0:
380,370,19256,1,0,0:0:0:0:
380,370,19374,2,0,L|294:361,1,71.2499980974198,0|0,3:0|0:0,0:0:0:0:
201,282,19610,2,0,P|239:275|285:265,1,71.2499980974198,10|0,0:0|0:0,0:0:0:0:
132,347,19846,6,0,P|155:281|121:190,1,142.49999619484,2|10,3:2|0:0,0:0:0:0:
27,130,20201,2,0,B|109:157|97:111|186:137,1,142.49999619484,2|2,0:0|0:2,0:0:0:0:
299,176,20555,2,0,P|261:183|215:193,1,71.2499980974198,8|0,0:0|0:0,0:0:0:0:
390,82,20791,6,0,P|375:123|376:160,1,71.2499980974198,2|0,3:2|0:0,0:0:0:0:
487,206,21028,2,0,P|484:170|471:137,1,71.2499980974198,10|0,0:0|0:0,0:0:0:0:
351,270,21264,2,0,P|389:264|426:261,1,71.2499980974198,2|0,3:2|0:0,0:0:0:0:
218,335,21500,2,0,P|256:340|293:344,1,71.2499980974198,10|0,0:0|0:0,0:0:0:0:
155,200,21736,6,0,P|170:242|167:274,1,71.2499980974198,2|0,3:2|0:0,0:0:0:0:
83,151,21972,2,0,P|68:193|71:225,1,71.2499980974198,10|0,0:0|0:0,0:0:0:0:
161,113,22209,2,0,L|250:118,1,71.2499980974198,2|0,3:2|0:0,0:0:0:0:
341,184,22445,1,10,0:0:0:0:
341,184,22563,2,0,P|313:127|337:41,1,142.49999619484
483,121,22917,6,0,L|406:112,1,71.2499980974198,10|0,0:0|0:0,0:0:0:0:
338,213,23154,2,0,L|415:204,1,71.2499980974198,2|0,3:2|0:0,0:0:0:0:
483,305,23390,2,0,L|406:296,1,71.2499980974198,10|0,0:0|0:0,0:0:0:0:
299,369,23626,6,0,P|340:308|321:218,1,142.49999619484,2|8,3:2|0:0,0:0:0:0:
206,158,23980,2,0,P|201:227|242:285,1,142.49999619484,2|0,3:2|3:0,0:0:0:0:
285,115,24335,6,0,B|206:130|206:130|147:110|147:110|64:126,1,213.749994292259,10|0,0:0|0:0,0:0:0:0:
38,230,24807,2,0,L|116:215,1,71.2499980974198,10|0,0:0|0:0,0:0:0:0:
241,284,25043,2,0,L|163:269,1,71.2499980974198,2|0,3:2|0:0,0:0:0:0:
38,338,25280,2,0,L|116:323,1,71.2499980974198,10|0,0:0|0:0,0:0:0:0:
197,369,25516,5,2,3:2:0:0:
257,262,25634,2,0,L|251:210,2,35.6249990487099,8|8|8,0:0|0:0|0:0,0:0:0:0:
323,315,25870,1,8,0:0:0:0:
408,319,25988,5,8,0:3:0:0:
484,281,26106,1,8,0:3:0:0:
508,206,26224,1,0,0:0:0:0:
491,136,26343,1,0,0:0:0:0:
491,136,26461,6,0,P|457:112|366:127,1,112.500004291535,6|2,3:2|3:2,0:0:0:0:
285,136,26815,2,0,P|340:141|387:113,1,112.500004291535,2|2,0:0|0:0,0:0:0:0:
216,33,27287,6,0,P|247:114|222:199,1,168.750006437302,2|2,3:2|0:0,0:0:0:0:
124,308,27878,2,0,P|185:294|248:290,1,112.500004291535,10|2,0:0|0:0,0:0:0:0:
330,340,28232,1,0,0:0:0:0:
330,340,28350,6,0,P|306:282|322:223,1,112.500004291535,2|2,0:0|3:2,0:0:0:0:
413,111,28823,2,0,P|421:165|398:216,1,112.500004291535,10|2,0:0|3:2,0:0:0:0:
281,161,29177,1,8,3:0:0:0:
281,161,29295,6,0,P|310:156|347:155,2,56.2500021457673,2|8|2,3:2|0:0|0:0,0:0:0:0:
226,228,29650,2,0,L|98:219,1,112.500004291535,2|0,3:2|0:0,0:0:0:0:
11,232,30004,2,0,P|14:196|24:170,1,56.2500021457673,2|0,3:2|3:0,0:0:0:0:
110,29,30240,6,0,B|124:63|124:63|99:144,1,112.500004291535,6|2,3:2|3:2,0:0:0:0:
11,232,30595,2,0,P|65:208|121:225,1,112.500004291535,2|10,0:0|0:3,0:0:0:0:
302,322,31067,6,0,B|248:298|248:298|196:330|138:295,1,168.750006437302,2|6,3:2|3:0,0:0:0:0:
209,126,31658,2,0,B|218:168|218:168|195:240,1,112.500004291535,10|6,0:0|0:3,0:0:0:0:
153,64,32012,1,4,0:3:0:0:
153,64,32130,6,0,P|200:46|276:75,1,127.50000243187,4|0,3:2|0:0,0:0:0:0:
388,75,32484,6,0,P|341:93|265:64,1,127.50000243187,4|0,3:2|0:0,0:0:0:0:
332,3,32839,6,0,L|339:200,1,191.250003647804,4|8,3:2|0:0,0:0:0:0:
293,277,33311,1,0,0:0:0:0:
293,277,33429,1,0,3:0:0:0:
293,277,33547,2,0,P|333:251|422:260,1,127.50000243187,8|8,3:0|0:0,0:0:0:0:
300,356,33902,1,8,0:0:0:0:
300,356,34020,6,0,B|267:359|242:340|242:340|224:352|224:352|198:334|143:337,1,142.49999619484,4|8,3:2|0:0,0:0:0:0:
60,246,34374,1,0,0:0:0:0:
60,246,34492,2,0,P|97:243|134:236,1,71.2499980974198,0|0,3:0|3:0,0:0:0:0:
214,128,34728,1,8,0:0:0:0:
214,128,34846,1,0,0:0:0:0:
214,128,34965,6,0,B|192:205|238:194|213:280,1,142.49999619484,0|8,3:0|0:0,0:0:0:0:
365,150,35319,1,0,0:0:0:0:
365,150,35437,2,0,P|328:153|291:160,1,71.2499980974198,0|0,3:0|3:0,0:0:0:0:
187,49,35673,2,0,P|227:48|261:59,1,71.2499980974198,8|0,0:0|0:0,0:0:0:0:
99,151,35909,6,0,B|120:112|120:112|99:13,1,142.49999619484,0|8,3:0|0:0,0:0:0:0:
19,123,36264,1,0,0:0:0:0:
19,123,36382,2,0,P|23:163|26:204,1,71.2499980974198,0|0,3:0|3:0,0:0:0:0:
104,325,36618,2,0,P|106:289|110:254,1,71.2499980974198,8|0,0:0|0:0,0:0:0:0:
226,181,36854,6,0,P|184:192|93:141,1,142.49999619484,0|8,3:0|0:0,0:0:0:0:
222,99,37209,1,0,0:0:0:0:
222,99,37327,2,0,L|310:103,1,71.2499980974198,0|0,3:0|3:0,0:0:0:0:
413,147,37563,1,8,0:0:0:0:
413,147,37681,1,0,0:0:0:0:
413,147,37799,6,0,P|375:89|394:4,1,142.49999619484,4|8,3:2|0:0,0:0:0:0:
496,98,38154,2,0,P|506:167|468:226,1,142.49999619484,0|0,3:0|3:0,0:0:0:0:
307,172,38508,6,0,B|268:117|268:117|412:146,1,213.749994292259,8|0,0:0|0:0,0:0:0:0:
324,251,38980,2,0,P|286:249|244:227,1,71.2499980974198,8|0,0:0|3:0,0:0:0:0:
155,319,39217,1,0,3:0:0:0:
155,319,39335,1,0,3:0:0:0:
155,319,39453,2,0,P|193:309|229:306,1,71.2499980974198,8|8,0:0|0:0,0:0:0:0:
68,212,39689,6,0,B|80:275|80:275|68:315|68:315|84:379,1,172.500003290176,4|8,3:2|0:0,0:0:0:0:
137,159,40043,2,0,P|95:131|-10:181,1,172.500003290176,0|0,3:0|3:0,0:0:0:0:
153,238,40398,2,0,L|267:228,1,86.2500016450882,8|0,0:0|0:0,0:0:0:0:
366,305,40634,6,0,P|318:314|254:279,1,86.2500016450882,0|0,3:0|3:0,0:0:0:0:
284,156,40870,2,0,P|316:192|318:265,1,86.2500016450882,8|0,0:0|0:0,0:0:0:0:
199,153,41106,2,0,P|214:107|276:69,1,86.2500016450882,0|0,3:0|3:0,0:0:0:0:
459,159,41343,1,8,0:0:0:0:
459,159,41461,1,8,0:0:0:0:
459,159,41579,6,0,B|387:190|387:190|257:147,1,187.5,4|8,3:2|0:0,0:0:0:0:
65,78,41933,6,0,B|137:47|137:47|267:90,1,187.5,4|8,3:2|0:0,0:0:0:0:
110,342,42288,1,4,3:2:0:0:
124,316,42406,6,0,B|156:215|101:228|144:120,1,187.5,0|4,3:0|3:2,0:0:0:0:
222,235,42760,2,0,P|221:293|210:337,1,93.75,0|0,3:0|3:0,0:0:0:0:
39,200,42996,2,0,P|45:142|59:99,1,93.75,8|8,0:0|0:0,0:0:0:0:
166,9,43232,1,8,0:0:0:0:
139,131,43350,1,8,0:0:0:0:
166,9,43469,6,0,L|153:72,5,46.875,4|0|8|8|8|0,3:2|0:0|0:0|0:0|0:0|0:0,0:0:0:0:
250,127,43823,6,0,L|237:64,5,46.875,8|8|8|8|8|0,0:3|0:3|0:3|0:3|0:3|0:0,0:0:0:0:
334,9,44177,6,0,L|321:72,4,46.875,8|8|8|8|0,0:3|0:3|0:3|0:3|3:0,0:0:0:0:
418,127,44650,5,0,0:0:0:0:
418,127,44886,2,0,L|403:242,1,112.5,0|0,0:0|0:0,0:0:0:0:
252,305,45358,6,0,B|358:270|342:351|461:312,1,194.999991073609,6|8,3:2|0:0,0:0:0:0:
255,227,45713,1,0,0:0:0:0:
186,263,45831,2,0,P|133:255|69:246,1,97.4999955368044,0|0,3:0|3:0,0:0:0:0:
6,354,46067,2,0,P|59:346|123:337,1,97.4999955368044,10|0,0:0|0:0,0:0:0:0:
199,171,46303,6,0,P|181:206|188:269,1,97.4999955368044,2|0,3:2|0:0,0:0:0:0:
311,282,46539,2,0,P|329:247|322:184,1,97.4999955368044,10|0,0:0|0:0,0:0:0:0:
208,24,46776,1,2,3:2:0:0:
179,96,46894,1,0,0:0:0:0:
199,171,47012,2,0,L|302:157,1,97.4999955368044,8|0,0:0|0:0,0:0:0:0:
464,225,47248,6,0,P|401:205|309:287,1,194.999991073609,2|10,3:2|0:0,0:0:0:0:
370,359,47602,2,0,B|256:400|282:326|142:377,1,194.999991073609,2|2,0:0|3:2,0:0:0:0:
43,334,47957,1,8,0:0:0:0:
92,273,48075,6,0,B|158:240|225:286|225:286|176:287|135:302,1,194.999991073609,2|0,3:2|3:0,0:0:0:0:
43,334,48429,5,8,0:0:0:0:
14,261,48547,1,0,0:0:0:0:
121,200,48665,5,0,3:0:0:0:
92,273,48784,1,0,3:0:0:0:
77,133,48902,2,0,P|128:123|176:142,1,97.4999955368044,8|0,0:0|0:0,0:0:0:0:
307,168,49138,6,0,B|170:138|170:138|233:114,1,194.999991073609,6|8,3:2|0:0,0:0:0:0:
327,76,49492,1,0,0:0:0:0:
384,133,49610,2,0,P|387:188|364:231,1,97.4999955368044,2|0,3:2|0:0,0:0:0:0:
293,361,49846,2,0,P|273:316|277:268,1,97.4999955368044,10|0,0:0|0:0,0:0:0:0:
449,281,50083,6,0,B|354:302,1,97.4999955368044,2|0,3:2|0:0,0:0:0:0:
211,147,50319,2,0,B|307:168,1,97.4999955368044,10|0,0:0|0:0,0:0:0:0:
175,248,50555,2,0,B|38:218|38:218|101:194,1,194.999991073609,2|10,3:2|0:0,0:0:0:0:
211,147,50909,1,8,0:0:0:0:
276,268,51028,6,0,B|305:316|305:316|347:173,1,194.999991073609,6|8,3:2|0:0,0:0:0:0:
412,97,51382,6,0,B|383:49|383:49|341:192,1,194.999991073609,6|0,3:2|3:0,0:0:0:0:
465,160,51736,2,0,P|490:119|492:71,1,97.4999955368044,8|8,0:0|0:0,0:0:0:0:
304,36,51972,5,8,3:0:0:0:
235,76,52091,2,0,B|277:117|277:117|411:96,1,194.999991073609,8|8,3:0|0:0,0:0:0:0:
464,243,52445,6,0,L|417:233,7,48.7499977684022,8|8|8|8|0|8|8|0,0:3|0:3|0:3|0:3|0:0|0:0|0:0|0:0,0:0:0:0:
287,237,52917,6,0,B|343:277|343:277|498:234,1,194.999991073609,6|8,3:2|0:0,0:0:0:0:
293,156,53272,1,0,0:0:0:0:
221,191,53390,2,0,P|207:243|233:295,1,97.4999955368044,0|0,3:0|3:0,0:0:0:0:
356,200,53626,2,0,P|370:148|344:96,1,97.4999955368044,10|0,0:0|0:0,0:0:0:0:
207,87,53862,6,0,B|159:116|159:116|302:158,1,194.999991073609,2|8,3:2|0:0,0:0:0:0:
450,222,54217,1,0,0:0:0:0:
450,222,54335,2,0,P|402:209|355:199,1,97.4999955368044,2|0,3:2|3:0,0:0:0:0:
219,283,54571,2,0,P|267:275|315:269,1,97.4999955368044,8|0,0:0|0:0,0:0:0:0:
98,307,54807,6,0,P|165:292|271:389,1,209.999993591309,2|8,3:2|0:0,0:0:0:0:
75,381,55162,1,0,0:0:0:0:
21,323,55280,6,0,B|8:157|8:157|59:202,1,225.000008583069,2|8,3:2|0:0,0:0:0:0:
176,299,55634,1,0,0:0:0:0:
129,235,55752,6,0,P|137:182|146:118,1,97.4999955368044,2|0,3:2|0:0,0:0:0:0:
249,29,55988,2,0,P|257:77|263:125,1,97.4999955368044,8|0,0:0|0:0,0:0:0:0:
413,200,56224,2,0,B|307:165|323:246|204:207,1,194.999991073609,0|10,3:0|0:0,0:0:0:0:
400,108,56579,1,0,0:0:0:0:
472,138,56697,6,0,P|494:192|476:256,1,97.4999955368044,6|0,3:2|0:0,0:0:0:0:
392,374,56933,1,8,0:0:0:0:
398,296,57051,2,0,P|404:248|412:200,1,97.4999955368044,2|0,0:0|3:0,0:0:0:0:
263,125,57287,2,0,P|271:173|277:221,1,97.4999955368044,2|8,3:2|0:0,0:0:0:0:
137,324,57524,6,0,B|209:314|209:314|260:341|260:341|339:330,1,194.999991073609,2|0,3:2|3:0,0:0:0:0:
74,277,57878,2,0,P|60:331|74:372,1,97.4999955368044,10|0,0:0|0:0,0:0:0:0:
146,246,58114,1,2,3:2:0:0:
183,177,58232,2,0,B|173:40|173:40|137:96,1,194.999991073609,2|0,3:2|0:0,0:0:0:0:
221,248,58587,6,0,L|432:226,1,194.999991073609,4|8,3:2|0:0,0:0:0:0:
330,344,58941,6,0,L|119:322,1,194.999991073609,4|8,3:2|0:0,0:0:0:0:
11,230,59295,5,12,0:0:0:0:
84,198,59413,1,0,3:0:0:0:
0,309,59532,1,8,0:0:0:0:
23,152,59650,1,8,0:0:0:0:
146,246,59768,2,0,P|196:236|266:230,1,97.4999955368044,0|8,3:0|0:0,0:0:0:0:
411,225,60004,6,0,P|403:256|386:283,2,64.9999970245363,8|8|8,0:3|0:3|0:3,0:0:0:0:
330,344,60240,2,0,P|312:316|305:285,2,64.9999970245363,8|8|8,0:3|0:3|0:3,0:0:0:0:
323,203,60476,5,4,3:2:0:0:
252,66,60713,1,0,3:0:0:0:
252,66,60831,1,0,3:0:0:0:
252,66,60949,2,0,P|248:145|241:239,1,165.000005035401,8|0,0:0|3:0,0:0:0:0:
130,327,61303,6,0,P|137:280|149:230,1,82.5000025177003,8|0,0:0|0:0,0:0:0:0:
19,165,61539,1,8,0:0:0:0:
19,165,61658,2,0,P|32:210|42:260,1,82.5000025177003,0|0,3:0|3:0,0:0:0:0:
93,82,61894,1,8,0:0:0:0:
93,82,62130,2,0,L|175:68,1,82.5000025177003,0|0,3:0|3:0,0:0:0:0:
348,101,62366,6,0,P|258:101|207:192,1,165.000005035401,4|0,3:2|3:0,0:0:0:0:
316,265,62721,1,0,3:0:0:0:
316,265,62839,2,0,L|302:172,2,82.5000025177003,8|0|0,0:0|0:0|3:0,0:0:0:0:
444,347,63193,6,0,B|348:315|364:375|256:344,1,165.000005035401,8|8,0:0|0:0,0:0:0:0:
150,308,63547,2,0,P|192:297|235:282,1,82.5000025177003,0|0,3:0|0:0,0:0:0:0:
109,374,63784,2,0,P|120:322|56:217,1,165.000005035401,8|8,0:0|3:0,0:0:0:0:
156,108,64138,1,8,3:0:0:0:
156,108,64256,6,0,B|171:225|171:225|203:176,1,165.000005035401,4|0,3:2|3:0,0:0:0:0:
185,31,64610,1,0,3:0:0:0:
185,31,64728,2,0,P|132:31|90:53,1,82.5000025177003,8|0,0:0|0:0,0:0:0:0:
237,94,64965,1,0,3:0:0:0:
237,94,65083,6,0,B|295:98|295:98|337:83|337:83|419:94,1,165.000005035401,8|8,0:0|0:0,0:0:0:0:
452,184,65437,2,0,L|349:170,1,82.5000025177003,0|0,3:0|3:0,0:0:0:0:
231,269,65673,2,0,B|347:246|347:246|305:304,1,165.000005035401,8|0,0:0|3:0,0:0:0:0:
196,349,66028,1,0,3:0:0:0:
196,349,66146,6,0,B|121:325|46:352|46:352|101:267|166:224|166:224|99:239|33:207,1,450.000017166138,2|0,3:2|0:0,0:0:0:0:
47,213,67327,6,0,P|44:173|41:129,1,75,0|0,3:0|0:0,0:0:0:0:
150,1,67563,5,8,0:0:0:0:
118,145,67681,1,8,0:0:0:0:
252,70,67799,5,8,0:0:0:0:
166,224,67917,1,8,0:0:0:0:
392,156,68035,6,0,B|288:121|300:187|188:145,1,194.999991073609,6|8,3:2|0:0,0:0:0:0:
422,84,68390,1,0,0:0:0:0:
469,146,68508,2,0,L|458:254,1,97.4999955368044,0|0,3:0|3:0,0:0:0:0:
348,325,68744,2,0,L|337:217,1,97.4999955368044,10|0,0:0|0:0,0:0:0:0:
239,100,68980,6,0,P|231:205|219:308,1,194.999991073609,2|8,3:2|0:0,0:0:0:0:
122,80,69335,1,0,0:0:0:0:
182,30,69453,2,0,B|249:19|249:19|301:42|301:42|399:27,1,194.999991073609,2|8,3:2|0:0,0:0:0:0:
469,146,69807,1,0,0:0:0:0:
411,199,69925,6,0,B|364:224|364:224|204:194,1,194.999991073609,6|8,3:2|0:0,0:0:0:0:
23,334,70280,1,0,0:0:0:0:
81,281,70398,2,0,B|128:256|128:256|288:286,1,194.999991073609,2|8,3:2|0:0,0:0:0:0:
97,357,70752,1,0,0:0:0:0:
23,334,70870,6,0,P|7:301|17:234,1,97.4999955368044,2|0,3:2|0:0,0:0:0:0:
71,107,71106,2,0,P|87:140|77:207,1,97.4999955368044,8|0,0:0|0:0,0:0:0:0:
126,48,71343,2,0,P|174:53|222:61,1,97.4999955368044,0|0,3:0|3:0,0:0:0:0:
364,182,71579,1,8,0:0:0:0:
364,182,71697,1,8,0:0:0:0:
269,163,71815,6,0,P|329:92|423:103,1,194.999991073609,6|8,3:2|0:0,0:0:0:0:
379,279,72169,2,0,P|370:226|364:171,1,97.4999955368044,2|0,0:0|3:0,0:0:0:0:
512,62,72406,2,0,P|506:110|497:158,1,97.4999955368044,2|8,3:2|0:0,0:0:0:0:
426,353,72642,6,0,B|332:384|341:316|231:363,1,194.999991073609,2|0,3:2|3:0,0:0:0:0:
130,252,72996,2,8,P|180:265|231:272,1,97.4999955368044,10|0,0:0|0:0,0:0:0:0:
51,118,73232,2,0,P|44:169|37:226,1,97.4999955368044,2|0,3:2|0:0,0:0:0:0:
148,79,73469,2,0,P|154:130|161:187,1,97.4999955368044,10|0,0:0|0:0,0:0:0:0:
58,14,73705,6,0,B|118:48|118:48|254:26,1,194.999991073609,6|8,3:2|0:0,0:0:0:0:
390,135,74059,2,0,B|330:101|330:101|194:123,1,194.999991073609,6|0,3:2|3:0,0:0:0:0:
327,281,74413,2,0,L|316:178,1,97.4999955368044,14|0,0:0|0:0,0:0:0:0:
254,318,74650,5,0,3:0:0:0:
314,367,74768,2,0,P|370:348|443:345,1,97.4999955368044,0|8,3:0|0:0,0:0:0:0:
241,241,75004,1,0,0:0:0:0:
181,355,75122,5,0,3:0:0:0:
327,281,75240,1,0,3:0:0:0:
166,210,75358,5,8,0:0:0:0:
254,318,75476,1,8,0:0:0:0:
226,157,75595,6,0,B|178:129|178:129|39:157,1,194.999991073609,6|8,3:2|0:0,0:0:0:0:
241,241,75949,2,0,P|249:151|270:37,1,194.999991073609,6|0,3:2|3:0,0:0:0:0:
327,281,76303,1,14,0:2:0:0:
254,318,76421,1,0,0:0:0:0:
181,355,76539,6,0,P|130:346|50:336,1,97.4999955368044,0|0,3:0|3:0,0:0:0:0:
20,217,76776,2,0,P|68:210|116:201,1,97.4999955368044,8|0,0:0|0:0,0:0:0:0:
304,131,77012,1,0,3:0:0:0:
241,241,77130,1,0,3:0:0:0:
208,55,77248,5,8,0:0:0:0:
234,163,77366,1,8,0:0:0:0:
380,81,77484,6,0,B|324:49|324:49|192:57,1,179.999994506836,6|8,3:2|0:0,0:0:0:0:
386,172,77839,1,0,0:0:0:0:
386,172,77957,2,0,P|433:164|484:160,1,89.9999972534181,0|0,3:0|3:0,0:0:0:0:
330,252,78193,2,0,P|285:244|240:240,1,89.9999972534181,10|0,0:0|0:0,0:0:0:0:
157,323,78429,6,0,P|149:238|139:144,1,179.999994506836,2|10,3:2|0:0,0:0:0:0:
76,62,78784,2,0,B|180:20|164:87|273:50,1,179.999994506836,2|0,0:0|3:0,0:0:0:0:
386,172,79138,1,10,0:0:0:0:
386,172,79256,6,8,B|263:138|263:138|297:181,1,179.999994506836,6|0,3:2|0:0,0:0:0:0:
455,216,79610,2,0,P|467:169|448:110,1,89.9999972534181,14|0,0:0|0:0,0:0:0:0:
330,252,79846,6,0,L|337:358,1,89.9999972534181,6|0,3:2|0:0,0:0:0:0:
465,212,80083,2,0,P|474:164|452:106,1,89.9999972534181,14|0,0:0|0:0,0:0:0:0:
323,257,80319,6,0,L|330:363,1,89.9999972534181,6|0,3:2|0:0,0:0:0:0:
475,208,80555,2,0,P|482:160|456:103,1,89.9999972534181,14|0,0:0|0:0,0:0:0:0:
217,154,80791,6,0,B|267:188|267:188|412:168,1,179.999994506836,4|8,3:2|0:0,0:0:0:0:
157,78,81146,1,8,0:0:0:0:
157,78,81264,6,0,P|195:159|173:266,1,179.999994506836,6|8,3:2|0:0,0:0:0:0:
133,343,81618,1,0,0:0:0:0:
133,343,81736,2,0,P|182:321|244:325,1,89.9999972534181,0|0,3:0|3:0,0:0:0:0:
364,384,81972,2,0,L|264:370,1,89.9999972534181,10|0,0:0|0:0,0:0:0:0:
403,239,82209,6,0,B|535:215|535:215|485:278,1,179.999994506836,6|10,3:2|0:0,0:0:0:0:
328,292,82563,2,0,B|299:197|351:206|328:111,1,179.999994506836,2|2,0:0|3:2,0:0:0:0:
93,139,82917,1,0,0:0:0:0:
93,139,83035,6,0,B|142:177|142:177|249:158,1,168.750006437302,6|2,3:2|3:2,0:0:0:0:
328,292,83626,2,0,P|272:277|210:267,1,112.500004291535,10|2,0:0|3:2,0:0:0:0:
393,351,83980,6,0,B|414:294|414:294|401:249|401:249|419:182,1,168.750006437302,14|10,3:2|0:0,0:0:0:0:
328,115,84453,1,0,0:0:0:0:
328,115,84571,2,0,L|342:208,1,75,10|8,3:2|3:2,0:0:0:0:
390,37,84807,6,0,B|274:-9|285:78|154:18,1,225.000008583069,6|0,3:2|0:0,0:0:0:0:
69,162,85516,2,0,P|115:119|174:115,1,112.500004291535,8|4,0:0|3:2,0:0:0:0:
235,170,85870,1,8,0:0:0:0:
143,255,85988,6,0,L|151:187,1,56.2500021457673,8|8,0:0|0:0,0:0:0:0:
242,291,86224,2,0,L|250:359,1,56.2500021457673,8|8,3:0|3:0,0:0:0:0:
341,255,86461,1,8,0:2:0:0:
345,241,86579,1,8,0:2:0:0:
349,227,86697,6,0,B|423:195|485:237|485:237|474:191|435:177,1,225,6|0,3:2|0:0,0:0:0:0:
