osu file format v14

[General]
AudioFilename: audio.mp3
AudioLeadIn: 0
PreviewTime: 44532
Countdown: 0
SampleSet: Soft
StackLeniency: 0.3
Mode: 0
LetterboxInBreaks: 0
WidescreenStoryboard: 1

[Editor]
Bookmarks: 3784,11343,18902,26461,34020,37799,45358,60476,68035,77484,86697
DistanceSpacing: 0.8
BeatDivisor: 3
GridSize: 4
TimelineZoom: 1.6

[Metadata]
Title:XY&Z
TitleUnicode:XY&Z
Artist:Satoshi (CV:Matsumoto Rica)
ArtistUnicode:サトシ(CV:松本 梨香)
Creator:Hobbes2
Version:Sotarks' Extra
Source:ポケットモンスターXY&Z
Tags:XYZ Ash Ketchum Pokemon Pokémon Pocket Monsters ジガルデ XYZ Tomohisa Sako Saku Zygarde Puni-chan cartoon tv size Gero Sotarks bite you death fieryrage pkhg Akitoshi
BeatmapID:1480920
BeatmapSetID:698151

[Difficulty]
HPDrainRate:6
CircleSize:4.1
OverallDifficulty:8.4
ApproachRate:9.4
SliderMultiplier:2
SliderTickRate:1

[Events]
//Background and Video events
0,0,"BGSotarks.jpg",0,0
Video,406,"xyz op.avi"
//Break Periods
//Storyboard Layer 0 (Background)
//Storyboard Layer 1 (Fail)
//Storyboard Layer 2 (Pass)
//Storyboard Layer 3 (Foreground)
//Storyboard Sound Samples

[TimingPoints]
477,236.220472440945,4,2,22,62,1,0
3784,236.220472440945,4,2,22,72,1,0
3784,-90.9090909090909,4,2,22,72,0,0
9453,-83.3333333333333,4,2,22,82,0,0
9807,-90.9090909090909,4,2,22,72,0,0
10161,-100,4,2,22,72,0,0
10516,-111.111111111111,4,2,22,62,0,0
11343,-133.333333333333,4,2,22,52,0,0
18902,-105.263157894737,4,2,22,62,0,0
26461,-133.333333333333,4,2,22,62,0,0
32130,-117.647058823529,4,2,22,62,0,0
32484,-105.263157894737,4,2,22,62,0,0
32839,-95.238095238095,4,2,22,62,0,0
34020,-105.263157894737,4,2,22,52,0,0
37799,-105.263157894737,4,2,22,62,0,0
39689,-86.9565217391304,4,2,22,72,0,0
41579,-80,4,2,22,82,0,0
44650,-80,4,2,22,42,0,0
44886,-200,4,2,22,42,0,0
45299,-200,4,2,22,5,0,0
45358,-74.0740740740741,4,2,22,82,0,1
51028,-68.9655172413793,4,2,22,82,0,1
52445,-68.9655172413793,4,2,22,72,0,1
52681,-68.9655172413793,4,2,22,62,0,1
52917,-74.0740740740741,4,2,22,82,0,1
58587,-68.9655172413793,4,2,22,82,0,1
60004,-68.9655172413793,4,2,22,72,0,1
60240,-68.9655172413793,4,2,22,62,0,1
60476,-90.9090909090909,4,2,22,62,0,0
66146,-450,4,2,22,62,0,0
66854,-266.666666666667,4,2,22,62,0,0
68035,-76.9230769230769,4,2,22,82,0,1
73705,-68.9655172413793,4,2,22,82,0,1
77484,-83.3333333333333,4,2,22,52,0,0
84807,-142.857142857143,4,2,22,52,0,0
85870,-83.3333333333333,4,2,22,52,0,0
86697,-200,4,2,22,52,0,0

[Colours]
Combo1 : 177,143,193
Combo2 : 81,138,123
Combo3 : 97,162,216
Combo4 : 253,217,131
Combo5 : 237,135,121
SliderBorder : 193,226,209
SliderTrackOverride : 34,34,34

[HitObjects]
124,120,476,6,0,B|196:108|196:108|248:128|248:128|328:116,1,200,6|8,1:0|0:0,0:0:0:0:
448,202,831,2,0,B|376:190|376:190|324:210|324:210|244:198,1,200,6|8,1:0|0:0,0:0:0:0:
346,83,1185,2,0,L|364:322,1,200,6|8,1:0|0:0,0:0:0:0:
215,328,1539,2,0,L|230:128,1,200,6|8,1:0|0:0,0:0:0:0:
112,52,1894,2,0,L|135:179,1,100,2|0,1:0|0:0,0:0:0:0:
14,275,2130,2,0,L|31:176,1,100,2|8,1:0|0:0,0:0:0:0:
230,128,2366,6,0,B|291:121|291:121|348:139,1,100,10|0,0:0|1:0,0:0:0:0:
396,185,2602,1,0,1:0:0:0:
192,209,2721,2,0,B|144:153|144:153|167:15,1,200,10|0,0:0|1:0,0:0:0:0:
340,33,3075,2,0,L|326:144,1,100,10|0,0:0|1:0,0:0:0:0:
289,347,3311,1,14,0:0:0:0:
289,347,3784,6,0,B|252:336|252:336|224:345|224:345|159:326,1,110.000003356934,6|0,1:0|0:0,0:0:0:0:
51,267,4020,2,0,B|118:284|118:284|285:218,1,220.000006713867,10|0,0:0|1:0,0:0:0:0:
346,217,4374,1,0,1:0:0:0:
260,97,4492,1,8,0:0:0:0:
260,97,4610,6,0,B|280:163|280:163|258:229|258:229|299:335,1,220.000006713867,6|0,1:0|1:0,0:0:0:0:
188,148,4965,2,0,L|65:137,1,110.000003356934,10|0,0:0|0:0,0:0:0:0:
88,293,5201,2,0,L|211:282,1,110.000003356934,2|0,1:0|1:0,0:0:0:0:
359,353,5437,1,10,0:0:0:0:
412,296,5555,1,2,3:0:0:0:
412,296,5673,6,0,B|370:259|370:259|376:189,1,110.000003356934,6|0,1:0|0:0,0:0:0:0:
440,77,5909,2,0,L|408:324,1,220.000006713867,10|0,0:0|1:0,0:0:0:0:
342,356,6264,1,2,1:0:0:0:
281,189,6382,1,10,0:0:0:0:
281,189,6500,6,0,B|203:187|203:187|151:217|151:217|44:213,1,220.000006713867,6|0,1:0|1:0,0:0:0:0:
112,31,6854,2,0,L|130:159,1,110.000003356934,10|0,0:0|0:0,0:0:0:0:
166,308,7091,2,0,L|181:199,1,110.000003356934,2|0,1:0|1:0,0:0:0:0:
200,100,7327,1,10,0:0:0:0:
200,100,7563,6,0,B|244:97|244:97|264:107|264:107|308:103,1,110.000003356934,6|0,1:0|0:0,0:0:0:0:
466,150,7799,2,0,B|384:158|384:158|291:289,1,220.000006713867,10|0,0:0|1:0,0:0:0:0:
253,344,8154,1,2,1:0:0:0:
99,229,8272,1,10,0:0:0:0:
99,229,8390,2,0,B|168:230|168:230|212:270|212:270|306:270,1,220.000006713867,6|0,1:0|1:0,0:0:0:0:
421,185,8744,2,0,L|286:186,1,110.000003356934,10|0,0:0|0:0,0:0:0:0:
162,122,8980,1,2,1:0:0:0:
162,122,9098,1,0,1:0:0:0:
233,187,9217,2,0,L|239:56,1,110.000003356934,10|0,0:0|3:0,0:0:0:0:
46,71,9453,6,0,B|64:117|64:117|60:149|60:149|80:203,1,119.999996337891,14|0,0:0|1:0,0:0:0:0:
102,267,9689,1,0,1:0:0:0:
162,122,9807,6,0,B|180:168|180:168|177:191|177:191|196:254,1,110.000003356934,14|0,0:0|1:0,0:0:0:0:
218,318,10043,1,0,1:0:0:0:
282,158,10161,6,0,B|299:200|299:200|297:227|297:227|315:286,1,100,14|0,0:0|1:0,0:0:0:0:
338,354,10397,1,0,1:0:0:0:
411,192,10516,6,0,B|426:230|426:230|424:257|424:257|442:316,1,89.9999972534181,14|0,0:0|1:0,0:0:0:0:
465,384,10752,1,0,1:0:0:0:
494,178,10870,5,10,0:0:0:0:
454,116,10988,1,8,0:0:0:0:
379,111,11106,1,10,0:0:0:0:
327,168,11224,1,8,0:0:0:0:
253,206,11343,6,0,P|208:190|163:182,1,75.0000028610231,6|0,1:0|0:0,0:0:0:0:
81,155,11579,2,0,P|142:146|223:101,1,150.000005722046,8|0,0:0|1:0,0:0:0:0:
276,287,12051,2,0,P|278:343|274:379,1,75.0000028610231,10|0,0:0|0:0,0:0:0:0:
357,233,12287,2,0,P|417:206|500:268,1,150.000005722046,2|10,1:0|0:0,0:0:0:0:
417,364,12642,2,0,P|414:326|417:289,1,75.0000028610231,2|0,0:0|1:0,0:0:0:0:
356,158,12878,2,0,P|358:195|356:232,1,75.0000028610231,2|8,0:0|0:0,0:0:0:0:
279,115,13114,6,0,P|228:92|153:162,1,150.000005722046,2|0,0:0|0:0,0:0:0:0:
125,260,13469,2,0,P|137:295|143:332,1,75.0000028610231,10|0,0:0|0:0,0:0:0:0:
208,241,13705,2,0,P|214:204|227:169,1,75.0000028610231,2|0,1:0|0:0,0:0:0:0:
120,267,13941,2,0,P|132:302|138:339,1,75.0000028610231,10|0,0:0|0:0,0:0:0:0:
156,141,14177,2,0,P|210:93|279:115,2,150.000005722046,2|10|2,1:0|0:0|1:0,0:0:0:0:
227,169,14768,1,0,0:0:0:0:
89,111,14886,5,10,0:0:0:0:
234,244,15004,1,10,0:0:0:0:
279,115,15122,6,0,P|341:95|369:93,1,75.0000028610231,4|0,1:0|0:0,0:0:0:0:
482,185,15358,2,0,P|409:170|320:179,1,150.000005722046,10|2,0:0|1:0,0:0:0:0:
234,244,15713,1,0,0:0:0:0:
234,244,15831,2,0,P|290:261|328:288,1,75.0000028610231,10|0,0:0|0:0,0:0:0:0:
130,338,16067,2,0,P|61:299|27:229,1,150.000005722046,2|8,1:0|0:0,0:0:0:0:
121,101,16421,2,0,P|98:176|122:250,1,150.000005722046,2|0,0:0|0:0,0:0:0:0:
203,118,16776,2,0,P|268:98|310:95,1,75.0000028610231,10|0,0:0|0:0,0:0:0:0:
466,163,17012,6,0,P|426:150|382:152,1,75.0000028610231,2|0,1:0|0:0,0:0:0:0:
460,171,17248,2,0,P|420:158|376:160,1,75.0000028610231,10|0,0:0|0:0,0:0:0:0:
234,231,17484,2,0,P|274:218|318:220,1,75.0000028610231,2|0,1:0|0:0,0:0:0:0:
240,239,17720,2,0,P|280:226|324:228,1,75.0000028610231,10|0,0:0|0:0,0:0:0:0:
430,318,17957,2,0,P|390:305|346:307,1,75.0000028610231,2|0,1:0|0:0,0:0:0:0:
424,326,18193,2,0,P|384:313|340:315,1,75.0000028610231,10|0,0:0|0:0,0:0:0:0:
227,356,18429,1,2,1:0:0:0:
282,151,18547,5,8,0:0:0:0:
342,326,18665,1,8,0:0:0:0:
164,279,18784,1,8,0:0:0:0:
363,203,18902,6,0,P|441:214|480:228,1,94.9999974632264,6|0,1:0|0:0,0:0:0:0:
257,91,19138,1,8,0:0:0:0:
257,91,19256,2,0,P|274:187|278:306,1,189.999994926453,2|0,1:0|1:0,0:0:0:0:
354,115,19610,2,0,P|366:48|378:8,1,94.9999974632264,10|0,0:0|1:0,0:0:0:0:
182,138,19846,2,0,P|115:139|61:27,1,189.999994926453,2|10,0:0|0:0,0:0:0:0:
42,196,20201,2,0,P|65:251|72:300,1,94.9999974632264,2|0,0:0|1:0,0:0:0:0:
182,137,20437,2,0,P|190:91|210:48,1,94.9999974632264,2|8,1:0|0:0,0:0:0:0:
210,48,20791,6,0,P|256:57|301:73,1,94.9999974632264,2|0,1:0|0:0,0:0:0:0:
463,50,21028,2,0,P|444:118|446:177,1,94.9999974632264,10|0,0:0|0:0,0:0:0:0:
442,320,21264,2,0,P|437:272|421:227,1,94.9999974632264,2|0,1:0|1:0,0:0:0:0:
326,137,21500,1,10,0:0:0:0:
294,298,21618,1,0,1:0:0:0:
247,132,21736,2,0,P|186:116|133:114,1,94.9999974632264,2|0,0:0|1:0,0:0:0:0:
316,220,21972,2,0,P|377:204|430:202,1,94.9999974632264,10|0,0:0|0:0,0:0:0:0:
218,288,22209,2,0,P|172:274|125:269,1,94.9999974632264,2|0,1:0|1:0,0:0:0:0:
294,298,22445,1,10,0:0:0:0:
234,210,22563,1,2,0:0:0:0:
62,310,22681,6,0,P|88:245|89:138,1,142.49999619484,0|2,1:0|0:0,0:0:0:0:
86,152,22917,1,8,0:0:0:0:
189,39,23035,1,0,0:0:0:0:
189,39,23154,2,0,P|175:104|178:148,1,94.9999974632264,2|0,0:0|1:0,0:0:0:0:
234,210,23390,1,10,0:0:0:0:
79,138,23508,1,0,1:0:0:0:
273,94,23626,2,0,P|328:90|386:97,1,94.9999974632264,2|0,0:0|1:0,0:0:0:0:
418,230,23862,1,8,0:0:0:0:
418,230,23980,2,0,P|363:226|261:317,1,189.999994926453,2|0,0:0|1:0,0:0:0:0:
141,211,24335,6,0,P|208:218|253:197,1,94.9999974632264,10|0,0:0|0:0,0:0:0:0:
453,134,24571,2,0,P|386:141|341:120,1,94.9999974632264,2|0,1:0|0:0,0:0:0:0:
158,49,24807,2,0,P|172:100|183:153,1,94.9999974632264,10|0,0:0|0:0,0:0:0:0:
302,19,25043,2,0,P|288:70|277:123,1,94.9999974632264,2|0,1:0|1:0,0:0:0:0:
255,301,25280,2,0,P|244:254|232:208,1,94.9999974632264,10|0,0:0|1:0,0:0:0:0:
353,331,25516,2,0,P|363:284|375:238,1,94.9999974632264,2|0,0:0|1:0,0:0:0:0:
438,175,25693,1,8,0:0:0:0:
450,169,25752,2,0,L|356:146,1,94.9999974632264,10|8,0:0|0:0,0:0:0:0:
139,231,25988,2,0,L|233:208,1,94.9999974632264,2|0,1:0|1:0,0:0:0:0:
422,89,26224,2,0,L|328:66,1,94.9999974632264,8|8,3:0|3:0,0:0:0:0:
102,80,26461,6,0,P|153:100|185:137,1,75.0000028610231,6|0,1:0|0:0,0:0:0:0:
230,48,26697,1,2,1:0:0:0:
230,48,26815,2,0,P|254:96|253:145,1,75.0000028610231,2|8,0:0|0:0,0:0:0:0:
348,113,27051,2,0,P|331:165|296:199,1,75.0000028610231,8|0,3:0|1:0,0:0:0:0:
200,260,27287,2,0,P|281:257|352:302,1,150.000005722046,10|8,0:0|0:0,0:0:0:0:
157,328,27642,2,0,P|125:284|123:250,1,75.0000028610231,2|0,1:0|0:0,0:0:0:0:
34,280,27878,2,0,P|42:226|65:200,1,75.0000028610231,10|0,0:0|0:0,0:0:0:0:
33,126,28114,1,2,1:0:0:0:
119,148,28232,1,0,1:0:0:0:
221,72,28350,6,0,P|164:67|136:77,1,75.0000028610231,6|0,1:0|0:0,0:0:0:0:
271,159,28587,2,0,P|234:152|197:159,1,75.0000028610231,2|0,1:0|0:0,0:0:0:0:
321,72,28823,2,0,P|378:67|406:77,1,75.0000028610231,10|0,0:0|0:0,0:0:0:0:
271,159,29060,2,0,P|307:152|344:159,1,75.0000028610231,2|8,1:0|0:0,0:0:0:0:
274,241,29295,1,2,0:0:0:0:
274,241,29413,2,0,L|275:326,1,75.0000028610231,8|0,0:0|1:0,0:0:0:0:
180,352,29650,1,2,0:0:0:0:
180,352,29768,2,0,L|179:267,1,75.0000028610231,8|0,0:0|1:0,0:0:0:0:
364,275,30004,2,0,L|363:349,1,75.0000028610231,2|0,0:0|0:0,0:0:0:0:
202,200,30240,6,0,P|146:205|123:222,1,75.0000028610231,6|0,1:0|0:0,0:0:0:0:
274,159,30476,1,2,1:0:0:0:
274,159,30595,2,0,P|231:122|203:117,1,75.0000028610231,2|8,0:0|0:0,0:0:0:0:
353,183,30831,2,0,P|349:126|333:103,1,75.0000028610231,10|0,3:0|1:0,0:0:0:0:
221,39,31067,2,0,P|268:47|368:13,1,150.000005722046,10|8,0:0|0:0,0:0:0:0:
415,118,31421,2,0,P|361:110|336:112,1,75.0000028610231,2|0,1:0|0:0,0:0:0:0:
276,200,31658,2,0,P|330:192|355:194,1,75.0000028610231,10|0,0:0|0:0,0:0:0:0:
444,234,31894,1,2,1:0:0:0:
361,270,32012,1,0,1:0:0:0:
209,145,32130,6,0,B|180:140|180:140|163:147|163:147|120:142,1,85.0000016212464,14|0,0:0|0:0,0:0:0:0:
48,132,32366,1,2,1:0:0:0:
291,67,32484,6,0,B|256:63|256:63|239:70|239:70|196:65,1,94.9999974632264,14|0,0:0|0:0,0:0:0:0:
124,55,32720,1,2,1:0:0:0:
385,157,32839,6,0,B|341:153|341:153|324:160|324:160|281:155,1,104.999996795654,14|0,0:0|0:0,0:0:0:0:
133,224,33075,2,0,B|177:220|177:220|194:227|194:227|237:222,1,104.999996795654,8|0,0:0|1:0,0:0:0:0:
385,157,33311,2,0,B|341:153|341:153|324:160|324:160|281:155,1,104.999996795654,8|0,0:0|1:0,0:0:0:0:
207,320,33547,2,0,P|222:244|241:215,1,104.999996795654,10|8,3:0|3:0,0:0:0:0:
253,56,33784,2,0,P|276:102|281:154,1,104.999996795654,6|4,3:0|3:0,0:0:0:0:
52,221,34020,6,0,B|160:181|132:265|244:217,1,189.999994926453,6|8,1:0|0:0,0:0:0:0:
279,154,34374,1,2,0:0:0:0:
157,68,34492,2,0,P|188:119|195:157,1,94.9999974632264,2|0,1:0|1:0,0:0:0:0:
411,92,34728,1,8,0:0:0:0:
411,92,34846,2,0,P|340:74|289:102,1,94.9999974632264,2|0,0:0|0:0,0:0:0:0:
446,219,35083,1,0,1:0:0:0:
446,219,35201,2,0,P|381:172|349:171,1,94.9999974632264,8|0,0:0|0:0,0:0:0:0:
209,322,35437,2,0,P|279:328|367:245,1,189.999994926453,2|8,1:0|0:0,0:0:0:0:
368,170,35791,1,0,0:0:0:0:
111,156,35909,6,0,P|168:221|282:246,1,189.999994926453,2|8,1:0|0:0,0:0:0:0:
332,178,36264,1,0,0:0:0:0:
151,238,36382,2,0,P|221:233|251:214,1,94.9999974632264,2|2,1:0|1:0,0:0:0:0:
343,150,36618,2,0,P|295:151|252:133,1,94.9999974632264,8|0,0:0|1:0,0:0:0:0:
37,108,36854,2,0,P|129:101|239:29,1,189.999994926453,2|8,0:0|0:0,0:0:0:0:
308,68,37209,1,0,0:0:0:0:
169,178,37327,2,0,P|239:144|260:126,1,94.9999974632264,2|2,1:0|1:0,0:0:0:0:
417,93,37563,2,0,P|382:125|342:149,1,94.9999974632264,8|0,0:0|0:0,0:0:0:0:
100,219,37799,6,0,P|203:214|301:273,1,189.999994926453,6|8,1:0|0:0,0:0:0:0:
428,173,38154,2,0,P|325:168|227:227,1,189.999994926453,2|0,0:0|1:0,0:0:0:0:
108,332,38508,1,10,0:0:0:0:
175,174,38626,2,0,L|188:394,1,189.999994926453,2|0,1:0|1:0,0:0:0:0:
90,223,38980,2,0,L|101:106,1,94.9999974632264,10|0,0:0|0:0,0:0:0:0:
252,129,39217,2,0,L|260:223,1,94.9999974632264,2|0,1:0|1:0,0:0:0:0:
175,174,39453,1,10,0:0:0:0:
175,174,39689,6,0,P|295:144|438:180,1,230.000004386902,6|8,1:0|0:0,0:0:0:0:
223,74,40043,2,0,P|103:44|-40:80,1,230.000004386902,2|0,0:0|1:0,0:0:0:0:
0,159,40398,2,0,P|91:128|124:126,1,115.000002193451,10|0,0:0|1:0,0:0:0:0:
281,224,40634,2,0,P|190:193|157:191,1,115.000002193451,2|0,0:0|1:0,0:0:0:0:
78,20,40870,2,0,P|171:41|200:57,1,115.000002193451,10|0,0:0|0:0,0:0:0:0:
281,224,41106,2,0,P|220:149|193:130,1,115.000002193451,2|0,1:0|1:0,0:0:0:0:
296,20,41343,1,10,3:0:0:0:
335,127,41461,1,4,3:0:0:0:
129,118,41579,6,0,P|67:160|14:330,1,250,6|0,1:0|1:0,0:0:0:0:
249,206,41933,2,0,P|391:187|470:295,1,250,12|0,0:0|1:0,0:0:0:0:
144,367,42287,2,12,L|127:100,1,250,4|0,1:0|0:0,0:0:0:0:
339,67,42642,2,0,L|323:316,1,250,12|0,0:0|0:0,0:0:0:0:
209,179,42996,2,0,L|197:34,1,125,12|0,0:0|0:0,0:0:0:0:
413,134,43232,2,0,L|402:258,1,125,12|0,0:0|0:0,0:0:0:0:
251,307,43469,6,0,L|257:228,3,62.5,8|0|0|0,0:0|1:0|1:0|1:0,0:0:0:0:
174,325,43705,2,0,L|94:309,1,62.5,8|4,3:0|3:0,0:0:0:0:
60,246,43823,2,0,L|54:167,3,62.5,0|8|8|8,1:0|0:0|0:0|0:0,0:0:0:0:
144,239,44059,2,0,L|224:223,1,62.5,8|4,3:0|3:0,0:0:0:0:
267,169,44177,2,0,L|273:90,3,62.5,8|0|8|8,3:0|1:0|0:0|0:0,0:0:0:0:
188,148,44413,5,0,1:0:0:0:
388,32,44650,1,2,0:0:0:0:
388,32,44886,2,0,P|371:83|379:212,1,175,2|0,0:0|0:0,0:0:0:0:
479,234,45358,6,0,B|405:220|405:220|339:261|339:261|166:232,1,270.000001029968,6|8,1:0|0:0,0:0:0:0:
113,75,45713,2,0,L|260:65,1,135.000000514984,0|0,3:0|1:0,0:0:0:0:
374,120,45949,1,0,1:0:0:0:
138,176,46067,2,0,B|84:182|84:182|89:180|55:165|55:165|-9:174,1,135.000000514984,10|0,0:0|1:0,0:0:0:0:
190,317,46303,2,0,B|244:323|244:323|239:321|273:306|273:306|318:312,1,135.000000514984,2|0,0:0|1:0,0:0:0:0:
228,106,46539,2,0,L|223:246,1,135.000000514984,10|0,0:0|0:0,0:0:0:0:
397,327,46776,2,0,L|392:192,1,135.000000514984,2|0,1:0|1:0,0:0:0:0:
306,38,47012,2,0,L|299:287,1,202.500000772476,10|0,0:0|0:0,0:0:0:0:
300,240,47248,6,0,B|135:184|203:308|19:236,1,270.000001029968,6|10,1:0|0:0,0:0:0:0:
286,145,47602,2,0,P|384:125|412:102,1,135.000000514984,2|0,0:0|1:0,0:0:0:0:
163,105,47839,2,0,P|65:85|37:62,1,135.000000514984,2|8,1:0|0:0,0:0:0:0:
335,39,48075,2,0,L|353:339,1,270.000001029968,2|0,1:0|1:0,0:0:0:0:
237,182,48429,2,0,L|252:35,1,135.000000514984,10|0,0:0|0:0,0:0:0:0:
420,129,48665,2,0,L|443:275,1,135.000000514984,2|0,1:0|1:0,0:0:0:0:
223,316,48902,2,0,L|238:169,1,135.000000514984,8|0,0:0|0:0,0:0:0:0:
408,25,49138,6,0,B|419:128|419:128|387:169|387:169|410:323,1,270.000001029968,6|8,1:0|0:0,0:0:0:0:
341,96,49492,2,0,L|191:83,1,135.000000514984,0|2,3:0|1:0,0:0:0:0:
44,243,49728,1,0,1:0:0:0:
236,181,49846,2,0,L|386:168,1,135.000000514984,10|0,0:0|1:0,0:0:0:0:
135,45,50083,2,0,B|123:97|123:97|141:127|141:127|133:180,1,135.000000514984,2|0,0:0|1:0,0:0:0:0:
236,309,50319,2,0,B|229:262|229:262|247:232|247:232|235:180,1,135.000000514984,10|0,0:0|0:0,0:0:0:0:
133,254,50555,1,2,1:0:0:0:
133,254,50673,1,0,1:0:0:0:
315,281,50791,1,10,0:0:0:0:
126,334,50909,1,0,1:0:0:0:
235,180,51028,6,0,B|284:158|284:158|319:169|319:169|418:131,1,145.000004425049,14|0,0:0|0:0,0:0:0:0:
446,37,51264,1,0,1:0:0:0:
181,58,51382,6,0,B|231:77|231:77|266:66|266:66|315:88,1,145.000004425049,14|0,0:0|0:0,0:0:0:0:
423,210,51618,1,0,1:0:0:0:
194,312,51736,6,0,B|202:258|202:258|229:233|229:233|235:179,1,145.000004425049,14|0,0:0|0:0,0:0:0:0:
316,88,51972,1,8,0:0:0:0:
462,125,52091,1,0,1:0:0:0:
325,281,52209,1,10,3:0:0:0:
369,149,52327,1,0,1:0:0:0:
225,188,52445,2,0,L|296:202,3,72.5000022125245,10|8|8|8,3:0|3:0|3:0|3:0,0:0:0:0:
150,122,52681,2,0,L|78:136,3,72.5000022125245,4|4|4|4,3:0|3:0|3:0|3:0,0:0:0:0:
172,288,52917,6,0,B|194:201|194:201|169:161|169:161|209:8,1,270.000001029968,6|8,1:0|0:0,0:0:0:0:
289,215,53272,2,0,L|253:351,1,135.000000514984,0|0,3:0|1:0,0:0:0:0:
164,372,53508,1,0,1:0:0:0:
44,266,53626,2,0,L|78:135,1,135.000000514984,10|0,0:0|1:0,0:0:0:0:
160,272,53862,1,2,0:0:0:0:
152,112,53980,1,0,1:0:0:0:
257,282,54098,2,0,L|402:264,1,135.000000514984,8|0,0:0|0:0,0:0:0:0:
285,128,54335,2,0,L|140:110,1,135.000000514984,2|0,1:0|1:0,0:0:0:0:
264,292,54571,2,0,L|409:274,1,135.000000514984,8|0,0:0|0:0,0:0:0:0:
357,56,54807,6,0,L|74:29,1,270.000001029968,6|8,1:0|0:0,0:0:0:0:
25,101,55161,1,0,3:0:0:0:
177,238,55280,2,0,B|175:193|175:193|151:157|151:157|151:104,1,135.000000514984,2|0,1:0|1:0,0:0:0:0:
110,291,55516,1,8,0:0:0:0:
256,180,55634,1,0,1:0:0:0:
256,180,55752,2,0,P|342:159|385:193,1,135.000000514984,2|0,0:0|1:0,0:0:0:0:
512,342,55988,2,0,P|431:339|406:147,1,270.000001029968,8|0,0:0|1:0,0:0:0:0:
417,103,56343,1,0,1:0:0:0:
484,228,56461,1,10,0:0:0:0:
484,228,56697,6,0,B|417:201|361:245|361:245|300:284|205:252,1,270.000001029968,6|8,1:0|0:0,0:0:0:0:
38,207,57051,2,0,P|121:194|177:160,1,135.000000514984,2|0,3:0|1:0,0:0:0:0:
358,148,57287,2,0,P|275:135|219:101,1,135.000000514984,2|8,1:0|0:0,0:0:0:0:
31,64,57524,2,0,P|97:125|144:306,1,270.000001029968,2|0,1:0|1:0,0:0:0:0:
169,61,57878,2,0,P|239:33|293:61,1,135.000000514984,10|0,0:0|0:0,0:0:0:0:
307,218,58114,1,2,1:0:0:0:
231,110,58232,1,2,1:0:0:0:
358,147,58350,1,8,0:0:0:0:
258,288,58469,1,2,1:0:0:0:
152,159,58587,6,0,B|146:106|146:106|161:69|161:69|157:11,1,145.000004425049,14|0,0:0|0:0,0:0:0:0:
71,143,58823,1,0,1:0:0:0:
250,16,58941,6,0,B|244:69|244:69|259:106|259:106|255:157,1,145.000004425049,14|0,0:0|0:0,0:0:0:0:
331,47,59177,1,0,1:0:0:0:
356,282,59295,6,0,B|352:230|352:230|367:193|367:193|361:140,1,145.000004425049,14|0,0:0|0:0,0:0:0:0:
436,241,59532,1,0,1:0:0:0:
270,164,59650,1,0,1:0:0:0:
474,170,59768,2,0,P|514:237|490:301,1,145.000004425049,10|0,3:0|0:0,0:0:0:0:
273,269,60004,6,0,L|161:253,2,96.6666696166993,10|8|8,3:0|3:0|3:0,0:0:0:0:
323,361,60240,2,0,L|423:350,2,96.6666696166993,4|4|4,3:0|3:0|3:0,0:0:0:0:
382,230,60476,6,0,B|314:223|314:223|273:251|273:251|130:233,1,220.000006713867,6|0,1:0|1:0,0:0:0:0:
59,118,60831,1,0,1:0:0:0:
59,118,60949,2,0,P|138:135|192:136,1,110.000003356934,8|0,0:0|0:0,0:0:0:0:
362,58,61185,1,2,1:0:0:0:
362,58,61303,2,0,P|308:71|254:76,1,110.000003356934,8|2,0:0|0:0,0:0:0:0:
94,38,61539,1,8,0:0:0:0:
94,38,61658,2,0,P|149:98|91:213,1,220.000006713867,2|10,1:0|0:0,0:0:0:0:
96,210,62012,1,0,0:0:0:0:
269,156,62130,2,0,P|328:181|379:227,1,110.000003356934,2|8,1:0|0:0,0:0:0:0:
199,232,62366,6,0,P|111:246|17:352,1,220.000006713867,2|2,1:0|0:0,0:0:0:0:
256,315,62721,2,0,P|167:308|128:315,1,110.000003356934,2|8,1:0|0:0,0:0:0:0:
392,238,62957,2,0,P|337:241|282:233,1,110.000003356934,2|0,0:0|1:0,0:0:0:0:
486,151,63193,2,0,P|378:151|262:70,1,220.000006713867,10|8,0:0|0:0,0:0:0:0:
90,113,63547,2,0,P|190:77|218:51,1,110.000003356934,2|0,1:0|1:0,0:0:0:0:
420,68,63784,2,0,P|320:32|292:6,1,110.000003356934,10|0,0:0|0:0,0:0:0:0:
232,160,64020,1,0,1:0:0:0:
232,160,64138,1,8,0:0:0:0:
249,15,64256,6,0,B|242:95|242:95|260:132|260:132|255:262,1,220.000006713867,6|0,1:0|1:0,0:0:0:0:
376,292,64610,1,0,1:0:0:0:
376,292,64728,2,0,P|352:227|360:171,1,110.000003356934,10|0,0:0|0:0,0:0:0:0:
176,296,64965,1,2,1:0:0:0:
176,296,65083,2,0,P|200:231|192:175,1,110.000003356934,8|2,0:0|0:0,0:0:0:0:
286,354,65319,1,8,0:0:0:0:
286,354,65437,2,0,L|271:83,1,220.000006713867,2|10,1:0|0:0,0:0:0:0:
273,134,65791,1,0,1:0:0:0:
181,10,65909,2,0,L|200:128,1,110.000003356934,2|0,1:0|1:0,0:0:0:0:
142,235,66146,6,0,L|121:101,1,133.333333333333,14|2,0:0|0:0,0:0:0:0:
162,351,67327,1,2,1:0:0:0:
269,112,67563,1,10,0:0:0:0:
337,257,67681,1,8,0:0:0:0:
207,180,67799,1,8,0:0:0:0:
344,262,67917,1,8,0:0:0:0:
121,161,68035,6,0,B|204:141|204:141|282:167|282:167|404:139,2,259.999988098145,6|8|0,1:0|0:0|1:0,0:0:0:0:
142,71,68626,1,0,1:0:0:0:
180,233,68744,1,10,0:0:0:0:
44,174,68862,1,0,1:0:0:0:
44,174,68980,2,0,P|55:98|37:32,1,129.999994049073,2|0,0:0|1:0,0:0:0:0:
214,167,69217,2,0,P|202:230|213:294,1,129.999994049073,8|0,0:0|0:0,0:0:0:0:
301,77,69453,2,0,B|355:65|355:65|384:73|384:73|444:64,1,129.999994049073,2|0,1:0|1:0,0:0:0:0:
416,240,69689,2,0,B|362:228|362:228|333:236|333:236|273:227,1,129.999994049073,8|0,0:0|0:0,0:0:0:0:
141,79,69925,6,0,P|184:162|68:260,1,259.999988098145,6|8,1:0|0:0,0:0:0:0:
86,165,70280,1,0,3:0:0:0:
178,313,70398,2,0,B|229:323|229:323|259:317|259:317|323:333,1,129.999994049073,2|0,1:0|1:0,0:0:0:0:
373,144,70634,2,0,B|322:154|322:154|292:148|292:148|246:159,1,129.999994049073,8|0,0:0|1:0,0:0:0:0:
75,69,70870,2,0,B|155:94|155:94|354:34,1,259.999988098145,2|8,0:0|0:0,0:0:0:0:
323,43,71343,2,0,L|470:62,1,129.999994049073,0|0,1:0|1:0,0:0:0:0:
462,218,71579,1,10,0:0:0:0:
465,63,71697,1,2,0:0:0:0:
389,255,71815,6,0,B|348:274|348:274|254:253,1,129.999994049073,6|0,1:0|0:0,0:0:0:0:
136,123,72051,1,10,0:0:0:0:
136,123,72169,2,0,B|177:104|177:104|271:125,1,129.999994049073,2|0,0:0|1:0,0:0:0:0:
198,321,72406,2,0,L|181:184,1,129.999994049073,2|8,1:0|0:0,0:0:0:0:
357,84,72642,2,0,L|340:362,1,259.999988098145,2|0,1:0|1:0,0:0:0:0:
437,149,72996,2,0,P|469:71|502:22,1,129.999994049073,10|0,0:0|0:0,0:0:0:0:
211,81,73232,2,0,P|244:136|267:197,1,129.999994049073,2|0,1:0|1:0,0:0:0:0:
363,1,73469,1,10,0:0:0:0:
363,1,73705,6,0,B|339:52|339:52|352:86|352:86|328:149,1,145.000004425049,14|0,0:0|0:0,0:0:0:0:
213,254,73941,1,0,1:0:0:0:
457,169,74059,6,0,B|400:174|400:174|378:203|378:203|312:215,1,145.000004425049,14|0,0:0|0:0,0:0:0:0:
162,169,74295,1,0,1:0:0:0:
373,311,74413,6,0,B|269:308|269:308|214:255|214:255|87:246,1,290.000008850098,14|0,0:0|1:0,0:0:0:0:
104,247,74768,1,0,1:0:0:0:
316,67,74886,2,0,L|327:225,1,145.000004425049,8|0,0:0|1:0,0:0:0:0:
76,172,75122,2,0,L|86:27,1,145.000004425049,0|8,1:0|0:0,0:0:0:0:
242,166,75358,1,8,0:0:0:0:
225,27,75476,1,8,0:0:0:0:
108,253,75595,6,0,B|129:297|129:297|235:307,1,145.000004425049,14|0,0:0|0:0,0:0:0:0:
383,264,75831,1,0,1:0:0:0:
127,76,75949,6,0,B|108:121|108:121|171:206,1,145.000004425049,14|0,0:0|0:0,0:0:0:0:
302,287,76185,1,0,1:0:0:0:
258,23,76303,6,0,B|220:82|220:82|301:286,1,290.000008850098,14|0,0:0|1:0,0:0:0:0:
301,286,76658,1,0,1:0:0:0:
446,112,76776,2,0,L|288:92,1,145.000004425049,10|0,0:0|1:0,0:0:0:0:
96,207,77012,2,0,L|254:187,1,145.000004425049,0|8,1:0|0:0,0:0:0:0:
72,106,77248,1,8,0:0:0:0:
230,95,77366,1,8,0:0:0:0:
167,264,77484,6,0,B|221:122|102:173|169:13,2,239.999992675781,6|8|0,1:0|0:0|1:0,0:0:0:0:
96,207,78075,1,0,1:0:0:0:
133,329,78193,2,0,P|207:328|237:277,1,119.999996337891,10|0,0:0|1:0,0:0:0:0:
127,141,78429,2,0,P|53:146|23:197,1,119.999996337891,2|0,0:0|1:0,0:0:0:0:
167,264,78665,1,10,0:0:0:0:
167,264,78784,2,0,L|323:251,1,119.999996337891,2|0,0:0|1:0,0:0:0:0:
427,172,79020,2,0,L|271:159,1,119.999996337891,2|8,1:0|0:0,0:0:0:0:
120,58,79256,6,0,B|202:44|202:44|253:73|253:73|391:58,1,239.999992675781,6|0,1:0|0:0,0:0:0:0:
139,142,79610,2,0,B|135:198|135:198|186:138,1,119.999996337891,14|0,0:0|0:0,0:0:0:0:
213,139,79846,2,0,B|197:200|197:200|176:148,1,119.999996337891,2|0,1:0|0:0,0:0:0:0:
143,152,80083,2,0,B|139:208|139:208|190:148,1,119.999996337891,14|0,0:0|0:0,0:0:0:0:
217,149,80319,2,0,B|201:210|201:210|180:158,1,119.999996337891,2|0,1:0|0:0,0:0:0:0:
147,161,80555,2,0,B|143:217|143:217|194:157,1,119.999996337891,14|0,0:0|0:0,0:0:0:0:
221,158,80791,2,0,B|205:219|205:219|184:167,1,119.999996337891,2|0,1:0|0:0,0:0:0:0:
181,296,81028,1,8,3:0:0:0:
181,296,81146,1,8,3:0:0:0:
192,78,81264,6,0,P|279:99|238:246,2,239.999992675781,6|8|0,1:0|0:0|1:0,0:0:0:0:
221,158,81854,1,0,1:0:0:0:
333,48,81972,2,0,P|414:55|440:106,1,119.999996337891,10|0,0:0|1:0,0:0:0:0:
481,232,82209,2,0,P|400:225|374:174,1,119.999996337891,2|0,0:0|1:0,0:0:0:0:
506,152,82445,1,10,0:0:0:0:
506,152,82563,2,0,L|513:287,1,119.999996337891,2|8,0:0|0:0,0:0:0:0:
373,318,82799,2,0,L|379:198,1,119.999996337891,10|8,0:0|3:0,0:0:0:0:
251,53,83035,6,0,B|278:122|278:122|261:193|261:193|306:298,1,239.999992675781,6|0,1:0|0:0,0:0:0:0:
181,217,83390,1,2,1:0:0:0:
452,61,83626,1,10,0:0:0:0:
167,24,83862,1,2,1:0:0:0:
251,53,83980,2,0,P|183:113|80:29,1,239.999992675781,10|8,0:0|0:0,0:0:0:0:
162,194,84335,1,2,1:0:0:0:
162,194,84571,1,10,0:0:0:0:
283,160,84689,1,8,0:0:0:0:
132,229,84807,6,0,L|353:172,1,209.999993591309,6|0,1:0|0:0,0:0:0:0:
485,135,85280,2,0,P|429:124|392:102,1,69.9999978637696,2|0,1:0|0:0,0:0:0:0:
264,111,85516,2,0,P|320:100|357:78,1,69.9999978637696,10|0,0:0|0:0,0:0:0:0:
468,54,85752,1,6,1:0:0:0:
468,54,85870,2,0,L|475:200,1,119.999996337891,10|8,0:0|0:0,0:0:0:0:
374,275,86106,1,8,0:0:0:0:
374,275,86224,2,0,L|379:155,1,119.999996337891,2|0,1:0|1:0,0:0:0:0:
478,258,86461,1,6,3:0:0:0:
478,258,86579,1,4,3:0:0:0:
473,173,86697,6,0,B|377:155|377:155|312:181|312:181|215:166,1,250,6|0,1:0|0:0,0:0:0:0:
