osu file format v14

[General]
AudioFilename: audio.mp3
AudioLeadIn: 0
PreviewTime: 44532
Countdown: 0
SampleSet: Soft
StackLeniency: 0.3
Mode: 0
LetterboxInBreaks: 0
WidescreenStoryboard: 1

[Editor]
Bookmarks: 3784,11343,18902,26461,34020,37799,45358,60476,68035,77484,86697
DistanceSpacing: 1.3
BeatDivisor: 4
GridSize: 4
TimelineZoom: 1.6

[Metadata]
Title:XY&Z
TitleUnicode:XY&Z
Artist:Satoshi (CV:Matsumoto Rica)
ArtistUnicode:サトシ(CV:松本 梨香)
Creator:Hobbes2
Version:Easy
Source:ポケットモンスターXY&Z
Tags:XYZ Ash Ketchum Pokemon Pokémon Pocket Monsters ジガルデ XYZ Tomohisa Sako Saku Zygarde Puni-chan cartoon tv size Gero Sotarks bite you death fieryrage pkhg Akitoshi
BeatmapID:1484540
BeatmapSetID:698151

[Difficulty]
HPDrainRate:2
CircleSize:2.8
OverallDifficulty:2
ApproachRate:3
SliderMultiplier:0.7
SliderTickRate:1

[Events]
//Background and Video events
0,0,"yveltal lol.jpg",0,0
Video,406,"xyz op.avi"
//Break Periods
//Storyboard Layer 0 (Background)
//Storyboard Layer 1 (Fail)
//Storyboard Layer 2 (Pass)
//Storyboard Layer 3 (Foreground)
//Storyboard Sound Samples

[TimingPoints]
477,236.220472440945,4,2,1,70,1,0
3784,236.220472440945,4,2,1,70,1,0
10371,-100,4,2,1,70,0,0
45358,-100,4,2,1,80,0,1
45535,-100,4,2,1,5,0,1
45595,-100,4,2,1,80,0,1
47425,-100,4,2,1,5,0,1
47484,-100,4,2,1,80,0,1
48252,-100,4,2,1,5,0,1
48311,-100,4,2,1,80,0,1
49315,-100,4,2,1,5,0,1
49374,-100,4,2,1,80,0,1
51205,-100,4,2,1,5,0,1
51264,-100,4,2,1,80,0,1
53095,-100,4,2,1,5,0,1
53154,-100,4,2,1,80,0,1
56874,-100,4,2,1,5,0,1
56933,-100,4,2,1,80,0,1
57701,-100,4,2,1,5,0,1
57760,-100,4,2,1,80,0,1
60476,-100,4,2,1,70,0,0
60654,-100,4,2,1,5,0,0
60713,-100,4,2,1,70,0,0
62543,-100,4,2,1,5,0,0
62602,-100,4,2,1,70,0,0
64433,-100,4,2,1,5,0,0
64492,-100,4,2,1,70,0,0
66146,-100,4,2,1,60,0,0
66500,-100,4,2,1,45,0,0
66854,-100,4,2,1,30,0,0
67328,-100,4,2,1,30,0,0
67563,-100,4,2,1,70,0,0
68035,-100,4,2,1,80,0,1
68213,-100,4,2,1,5,0,1
68272,-100,4,2,1,80,0,1
71992,-100,4,2,1,5,0,1
72051,-100,4,2,1,80,0,1
72819,-100,4,2,1,5,0,1
72878,-100,4,2,1,80,0,1
73882,-100,4,2,1,5,0,1
73941,-100,4,2,1,80,0,1
74236,-100,4,2,1,5,0,1
74295,-100,4,2,1,80,0,1
74591,-100,4,2,1,5,0,1
74650,-100,4,2,1,80,0,1
75772,-100,4,2,1,5,0,1
75831,-100,4,2,1,80,0,1
76126,-100,4,2,1,5,0,1
76185,-100,4,2,1,80,0,1
76480,-100,4,2,1,5,0,1
76539,-100,4,2,1,80,0,1
77484,-100,4,2,1,70,0,0
84158,-100,4,2,1,5,0,0
84217,-100,4,2,1,70,0,0
87406,-100,4,2,1,5,0,0

[Colours]
Combo1 : 126,207,23
Combo2 : 13,173,226
Combo3 : 207,0,19

[HitObjects]
424,235,476,6,0,P|457:137|424:40,2,210,4|4|4,3:2|3:2|3:2,0:0:0:0:
256,305,2366,2,0,L|142:302,2,105,4|4|4,3:2|3:2|3:2,0:0:0:0:
340,340,3311,1,8,0:0:0:0:
488,234,3784,6,0,P|505:166|470:61,1,175,4|0,3:2|3:0,0:0:0:0:
390,33,4610,2,0,L|206:21,1,175,4|0,3:2|3:0,0:0:0:0:
72,135,5673,2,0,P|100:216|77:299,1,175,4|0,3:2|3:0,0:0:0:0:
9,361,6500,2,0,L|198:350,1,175,4|0,3:2|3:0,0:0:0:0:
262,186,7563,6,0,P|180:214|97:191,1,175,4|0,3:2|3:0,0:0:0:0:
32,127,8390,2,0,L|43:316,1,175,4|0,3:2|3:0,0:0:0:0:
221,334,9453,2,0,B|290:369|354:326|354:326|430:365,2,210,4|4|8,3:2|3:2|3:3,0:0:0:0:
218,151,11343,5,6,3:2:0:0:
475,41,12287,2,0,P|493:108|487:177,1,140,2|0,0:0|0:0,0:0:0:0:
364,312,13232,2,0,P|296:330|227:324,1,140,0|2,0:0|0:0,0:0:0:0:
82,213,14177,2,0,P|63:145|69:76,1,140,2|2,0:0|0:0,0:0:0:0:
242,20,15122,6,0,L|256:173,1,140,6|2,0:0|0:0,0:0:0:0:
274,340,16067,2,0,P|324:352|375:341,2,105,2|0|2,0:0|0:0|0:0,0:0:0:0:
155,200,17248,2,0,P|97:199|16:247,1,140,2|2,0:0|0:0,0:0:0:0:
58,321,17957,2,0,P|116:322|197:274,1,140,2|0,3:2|0:0,0:0:0:0:
243,212,18665,1,8,0:0:0:0:
316,157,18902,6,0,L|463:154,1,140,6|0,3:2|3:0,0:0:0:0:
331,21,19846,2,0,L|191:18,1,140,2|0,3:2|3:0,0:0:0:0:
43,125,20791,2,0,P|26:187|46:263,2,140,2|2|2,3:2|3:2|3:2,0:0:0:0:
191,18,22209,1,2,3:2:0:0:
226,196,22681,6,0,P|289:223|359:217,1,140,0|2,3:0|0:0,0:0:0:0:
501,103,23626,2,0,L|493:-8,2,105,2|0|10,3:2|0:0|0:0,0:0:0:0:
325,54,24807,2,0,L|185:45,1,140,10|10,0:0|0:0,0:0:0:0:
97,70,25516,2,0,P|86:104|88:139,1,70,2|0,3:2|0:0,0:0:0:0:
141,211,25988,1,8,0:3:0:0:
287,318,26461,6,0,B|379:308|379:308|356:267|358:203,1,175,6|0,3:2|0:0,0:0:0:0:
350,138,27287,2,0,P|357:61|458:18,1,175,2|10,3:2|0:0,0:0:0:0:
504,184,28350,2,0,B|521:231|521:231|492:316,2,140,2|10|2,0:0|0:0|3:2,0:0:0:0:
338,260,29768,2,0,B|284:271|284:270|242:272,1,70,0|0,0:0|0:0,0:0:0:0:
206,204,30240,6,0,P|138:190|29:213,1,175,6|10,3:2|0:3,0:0:0:0:
19,299,31067,2,0,B|65:360|65:360|163:328,1,175,10|10,3:2|0:0,0:0:0:0:
329,265,32130,2,0,P|424:267|454:288,2,105,4|0|4,3:2|0:0|3:2,0:0:0:0:
79,154,33547,2,0,L|82:64,1,70,8|8,3:0|0:0,0:0:0:0:
158,35,34020,6,0,P|227:18|316:40,2,140,4|0|0,3:2|0:0|3:0,0:0:0:0:
68,193,35437,1,0,3:0:0:0:
158,351,35909,2,0,P|227:368|316:346,2,140,0|0|0,3:0|3:0|3:0,0:0:0:0:
68,193,37326,1,0,3:0:0:0:
250,193,37799,6,0,L|382:193,2,105,4|0|8,3:2|3:0|0:0,0:0:0:0:
85,114,38980,2,0,P|80:61|85:36,2,70,8|0|8,0:0|3:0|0:0,0:0:0:0:
141,185,39689,2,0,L|141:317,2,105,4|0|8,3:2|0:0|0:0,0:0:0:0:
294,87,40870,2,0,P|347:92|372:87,2,70,8|0|8,0:0|0:0|0:0,0:0:0:0:
223,31,41579,6,0,P|104:65|47:137,2,210,4|4|4,3:2|3:2|3:2,0:0:0:0:
329,179,43469,2,0,B|377:186|423:173|423:173|407:233|390:263|390:263|447:245|506:264,1,280,4|0,3:2|0:0,0:0:0:0:
200,293,45358,6,0,B|176:248|176:248|176:159,1,140,6|0,3:2|3:0,0:0:0:0:
229,85,46067,1,10,0:0:0:0:
303,137,46303,2,0,P|370:153|436:134,1,140,2|2,3:2|3:2,0:0:0:0:
316,1,47248,2,0,L|197:7,1,105,2|0,3:2|0:0,0:0:0:0:
137,60,47839,1,2,3:2:0:0:
87,136,48075,2,0,P|59:217|84:299,1,175,2|0,3:2|0:0,0:0:0:0:
251,372,49138,6,0,L|390:365,1,140,6|0,3:2|0:0,0:0:0:0:
450,297,49846,1,10,0:0:0:0:
494,217,50083,2,0,P|478:148|431:98,1,140,2|0,3:2|0:0,0:0:0:0:
257,45,51028,2,0,B|175:57|175:57|129:40,2,105,6|0|8,3:2|0:0|0:0,0:0:0:0:
296,222,52209,1,0,0:0:0:0:
274,310,52445,1,8,0:3:0:0:
93,336,52917,6,0,B|130:224|44:253|92:103,1,210,6|10,3:2|0:0,0:0:0:0:
161,83,53862,2,0,L|300:72,1,140,2|2,3:2|3:2,0:0:0:0:
476,118,54807,1,2,3:2:0:0:
468,299,55279,1,2,3:2:0:0:
300,371,55752,2,0,P|293:267|305:151,1,210,2|10,3:2|0:0,0:0:0:0:
300,71,56697,6,0,P|238:52|112:70,1,175,6|0,3:2|0:0,0:0:0:0:
72,134,57524,2,0,L|68:318,1,175,2|0,3:2|0:0,0:0:0:0:
247,341,58587,2,0,P|339:299|264:243,2,210,12|12|4,3:2|3:2|3:2,0:0:0:0:
68,308,60476,5,4,3:2:0:0:
161,151,60949,2,0,P|250:130|288:135,2,105,8|8|0,0:0|3:2|3:0,0:0:0:0:
104,222,61894,1,8,0:0:0:0:
255,322,62366,1,4,3:2:0:0:
412,229,62839,2,0,P|433:140|428:102,2,105,8|8|0,0:0|3:2|3:0,0:0:0:0:
341,286,63784,1,8,0:0:0:0:
218,151,64256,5,4,3:2:0:0:
60,244,64728,2,0,P|44:293|39:346,2,105,8|8|0,3:2|3:2|3:0,0:0:0:0:
132,187,65673,1,8,3:2:0:0:
237,335,66146,2,0,L|361:337,2,105,2|0|0,3:2|0:0|0:0,0:0:0:0:
132,187,67327,1,0,0:0:0:0:
179,109,67563,1,8,0:0:0:0:
343,31,68035,6,0,P|418:29|469:164,1,210,6|10,3:2|0:0,0:0:0:0:
430,213,68980,2,0,L|436:367,1,140,2|2,3:2|3:2,0:0:0:0:
271,273,69925,1,6,3:2:0:0:
103,345,70398,1,2,3:2:0:0:
14,182,70870,2,0,P|34:83|123:33,1,210,6|8,3:2|0:0,0:0:0:0:
209,65,71815,6,0,P|292:82|382:48,1,175,6|2,3:2|3:2,0:0:0:0:
440,116,72642,2,0,B|444:220,1,105,2|8,3:2|0:0,0:0:0:0:
454,311,73232,1,2,3:2:0:0:
275,274,73705,2,0,B|233:268|233:268|147:298,2,105,6|6|14,3:2|3:2|3:2,0:0:0:0:
454,311,74886,2,8,P|488:244|471:173,1,140
429,105,75595,6,0,B|435:63|435:63|409:-11,2,105,6|4|14,3:2|3:2|3:2,0:0:0:0:
281,211,76776,2,0,P|185:217|128:190,1,140,8|8,0:0|0:0,0:0:0:0:
97,126,77484,6,0,L|102:343,1,210,6|8,3:2|3:2,0:0:0:0:
191,353,78429,2,0,P|250:362|299:352,1,105,6|2,0:0|0:0,0:0:0:0:
446,253,79256,2,0,P|450:165|431:80,1,175,6|4,3:2|3:2,0:0:0:0:
351,37,80083,1,14,3:2:0:0:
263,66,80319,2,0,P|194:72|168:62,2,70,6|4|4,3:2|3:2|3:2,0:0:0:0:
353,225,81264,6,0,P|348:319|247:292,1,210,6|0,3:2|0:0,0:0:0:0:
187,249,82209,2,0,L|3:228,1,175,6|0,3:2|0:0,0:0:0:0:
5,138,83035,2,0,P|44:88|99:61,1,105,6|2,3:2|3:2,0:0:0:0:
169,54,83626,2,0,L|290:50,2,105,10|12|2,0:0|3:2|0:0,0:0:0:0:
95,219,84807,6,0,P|108:287|138:350,1,140,6|0,3:2|0:0,0:0:0:0:
229,363,85516,1,8,0:0:0:0:
278,286,85752,2,0,B|330:297|367:282|367:282|350:312|334:372|334:372|383:360|426:365,1,280,4|6,3:2|3:2,0:0:0:0:
