osu file format v14

[General]
AudioFilename: audio.mp3
AudioLeadIn: 0
PreviewTime: 44532
Countdown: 0
SampleSet: Soft
StackLeniency: 0.3
Mode: 0
LetterboxInBreaks: 0
WidescreenStoryboard: 1

[Editor]
Bookmarks: 3784,11343,18902,26461,34020,37799,45358,60476,68035,77484,86697
DistanceSpacing: 1.2
BeatDivisor: 4
GridSize: 4
TimelineZoom: 1.6

[Metadata]
Title:XY&Z
TitleUnicode:XY&Z
Artist:Satoshi (CV:Matsumoto Rica)
ArtistUnicode:サトシ(CV:松本 梨香)
Creator:Hobbes2
Version:Ultimate
Source:ポケットモンスターXY&Z
Tags:XYZ Ash Ketchum Pokemon Pokémon Pocket Monsters ジガルデ XYZ Tomohisa Sako Saku Zygarde Puni-chan cartoon tv size Gero Sotarks bite you death fieryrage pkhg Akitoshi
BeatmapID:1480366
BeatmapSetID:698151

[Difficulty]
HPDrainRate:6
CircleSize:4.2
OverallDifficulty:9.5
ApproachRate:9.8
SliderMultiplier:2
SliderTickRate:1

[Events]
//Background and Video events
0,0,"yveltal lol.jpg",0,0
Video,406,"xyz op.avi"
//Break Periods
//Storyboard Layer 0 (Background)
//Storyboard Layer 1 (Fail)
//Storyboard Layer 2 (Pass)
//Storyboard Layer 3 (Foreground)
//Storyboard Sound Samples

[TimingPoints]
477,236.220472440945,4,2,1,70,1,0
3784,236.220472440945,4,2,1,70,1,0
3784,-90.9090909090909,4,2,1,70,0,0
3961,-90.9090909090909,4,2,1,5,0,0
4020,-90.9090909090909,4,2,1,70,0,0
4787,-90.9090909090909,4,2,1,5,0,0
4846,-90.9090909090909,4,2,1,70,0,0
5850,-90.9090909090909,4,2,1,5,0,0
5909,-90.9090909090909,4,2,1,70,0,0
6677,-90.9090909090909,4,2,1,5,0,0
6736,-90.9090909090909,4,2,1,70,0,0
7740,-90.9090909090909,4,2,1,5,0,0
7799,-90.9090909090909,4,2,1,70,0,0
8567,-90.9090909090909,4,2,1,5,0,0
8626,-90.9090909090909,4,2,1,70,0,0
10870,-90.9090909090909,4,2,1,40,0,0
10988,-90.9090909090909,4,2,1,55,0,0
11106,-90.9090909090909,4,2,1,70,0,0
11224,-90.9090909090909,4,2,1,85,0,0
11343,-133.333333333333,4,2,1,50,0,0
18547,-133.333333333333,4,2,1,50,0,0
18665,-133.333333333333,4,2,1,65,0,0
18784,-133.333333333333,4,2,1,80,0,0
18902,-105.263157894737,4,2,1,60,0,0
26461,-133.333333333333,4,2,1,50,0,0
32130,-117.647058823529,4,2,1,60,0,0
34020,-105.263157894737,4,2,1,70,0,0
34197,-105.263157894737,4,2,1,5,0,0
34256,-105.263157894737,4,2,1,70,0,0
36087,-105.263157894737,4,2,1,5,0,0
36146,-105.263157894737,4,2,1,70,0,0
37976,-105.263157894737,4,2,1,5,0,0
38035,-105.263157894737,4,2,1,70,0,0
38331,-105.263157894737,4,2,1,5,0,0
38390,-105.263157894737,4,2,1,70,0,0
38685,-105.263157894737,4,2,1,5,0,0
38744,-105.263157894737,4,2,1,70,0,0
39689,-86.9565217391304,4,2,1,70,0,0
39866,-86.9565217391304,4,2,1,5,0,0
39925,-86.9565217391304,4,2,1,70,0,0
40221,-86.9565217391304,4,2,1,5,0,0
40280,-86.9565217391304,4,2,1,70,0,0
40575,-86.9565217391304,4,2,1,5,0,0
40634,-86.9565217391304,4,2,1,70,0,0
41579,-80,4,2,1,70,0,0
45358,-76.9230769230769,4,2,1,80,0,1
45535,-76.9230769230769,4,2,1,5,0,1
45595,-76.9230769230769,4,2,1,80,0,1
47425,-76.9230769230769,4,2,1,5,0,1
47484,-76.9230769230769,4,2,1,80,0,1
48252,-76.9230769230769,4,2,1,5,0,1
48311,-76.9230769230769,4,2,1,80,0,1
49315,-76.9230769230769,4,2,1,5,0,1
49374,-76.9230769230769,4,2,1,80,0,1
51205,-76.9230769230769,4,2,1,5,0,1
51264,-76.9230769230769,4,2,1,80,0,1
53095,-76.9230769230769,4,2,1,5,0,1
53154,-76.9230769230769,4,2,1,80,0,1
56874,-76.9230769230769,4,2,1,5,0,1
56933,-76.9230769230769,4,2,1,80,0,1
57701,-76.9230769230769,4,2,1,5,0,1
57760,-76.9230769230769,4,2,1,80,0,1
60476,-90.9090909090909,4,2,1,70,0,0
60654,-90.9090909090909,4,2,1,5,0,0
60713,-90.9090909090909,4,2,1,70,0,0
62543,-90.9090909090909,4,2,1,5,0,0
62602,-90.9090909090909,4,2,1,70,0,0
64433,-90.9090909090909,4,2,1,5,0,0
64492,-90.9090909090909,4,2,1,70,0,0
66146,-133.333333333333,4,2,1,60,0,0
66500,-133.333333333333,4,2,1,45,0,0
66854,-266.666666666667,4,2,1,30,0,0
67563,-266.666666666667,4,2,1,70,0,0
68035,-76.9230769230769,4,2,1,80,0,1
68213,-76.9230769230769,4,2,1,5,0,1
68272,-76.9230769230769,4,2,1,80,0,1
71992,-76.9230769230769,4,2,1,5,0,1
72051,-76.9230769230769,4,2,1,80,0,1
72819,-76.9230769230769,4,2,1,5,0,1
72878,-76.9230769230769,4,2,1,80,0,1
73882,-76.9230769230769,4,2,1,5,0,1
73941,-76.9230769230769,4,2,1,80,0,1
74236,-76.9230769230769,4,2,1,5,0,1
74295,-76.9230769230769,4,2,1,80,0,1
74591,-76.9230769230769,4,2,1,5,0,1
74650,-76.9230769230769,4,2,1,80,0,1
75772,-76.9230769230769,4,2,1,5,0,1
75831,-76.9230769230769,4,2,1,80,0,1
76126,-76.9230769230769,4,2,1,5,0,1
76185,-76.9230769230769,4,2,1,80,0,1
76480,-76.9230769230769,4,2,1,5,0,1
76539,-76.9230769230769,4,2,1,80,0,1
77484,-83.3333333333333,4,2,1,70,0,0
84158,-83.3333333333333,4,2,1,5,0,0
84217,-83.3333333333333,4,2,1,70,0,0
86697,-200,4,2,1,70,0,0
87406,-200,4,2,1,5,0,0

[Colours]
Combo1 : 255,190,94
Combo2 : 253,145,207
Combo3 : 0,114,227
Combo4 : 251,40,151

[HitObjects]
336,0,476,6,0,P|353:46|347:95,1,100,4|0,3:2|0:0,0:0:0:0:
158,133,713,1,8,0:0:0:0:
447,147,831,6,0,P|415:185|370:204,1,100,4|0,3:2|0:0,0:0:0:0:
242,59,1067,1,8,0:0:0:0:
375,316,1185,6,0,P|326:307|286:278,1,100,4|0,3:2|0:0,0:0:0:0:
348,95,1421,1,8,0:0:0:0:
192,338,1539,6,0,P|175:291|180:241,1,100,4|0,3:2|0:0,0:0:0:0:
369,204,1776,1,8,0:0:0:0:
81,190,1894,6,0,P|113:152|158:131,1,100,4|0,3:2|0:0,0:0:0:0:
286,278,2130,1,8,0:0:0:0:
242,59,2248,1,8,0:0:0:0:
369,204,2366,5,4,3:2:0:0:
161,135,2484,1,0,3:0:0:0:
161,135,2602,1,8,0:0:0:0:
286,278,2721,5,4,3:2:0:0:
246,63,2839,1,0,3:0:0:0:
246,63,2957,1,8,0:0:0:0:
179,242,3075,5,4,3:2:0:0:
348,95,3193,1,0,3:0:0:0:
201,352,3311,5,12,0:0:0:0:
512,109,3784,6,0,L|347:94,1,165.000005035401,4|0,3:2|0:0,0:0:0:0:
348,95,4020,2,0,P|363:147|350:200,1,110.000003356934,8|0,0:0|0:0,0:0:0:0:
264,148,4256,1,0,3:0:0:0:
292,11,4374,2,0,P|344:-4|396:9,1,110.000003356934,0|8,3:0|0:0,0:0:0:0:
484,250,4610,6,0,B|454:204|454:204|444:95,1,165.000005035401,4|0,3:2|0:0,0:0:0:0:
444,95,4846,1,0,3:0:0:0:
350,200,4965,2,0,P|298:215|246:202,1,110.000003356934,8|0,0:0|0:0,0:0:0:0:
159,149,5201,1,0,3:0:0:0:
192,287,5319,1,0,3:0:0:0:
243,96,5437,2,0,P|258:148|245:201,1,110.000003356934,8|0,0:0|0:0,0:0:0:0:
37,360,5673,6,0,P|40:280|106:234,1,165.000005035401,4|0,3:2|0:0,0:0:0:0:
104,234,5909,2,0,L|95:123,1,110.000003356934,8|0,0:0|0:0,0:0:0:0:
157,44,6146,1,0,3:0:0:0:
302,176,6264,2,0,L|294:286,1,110.000003356934,0|8,3:0|0:0,0:0:0:0:
354,43,6500,6,0,B|391:83|391:83|400:194,1,165.000005035401,4|0,3:2|0:0,0:0:0:0:
400,193,6736,1,0,3:0:0:0:
202,170,6854,2,0,P|219:118|261:84,1,110.000003356934,8|0,0:0|0:0,0:0:0:0:
302,176,7091,1,0,3:0:0:0:
136,60,7209,1,0,3:0:0:0:
154,262,7327,2,0,P|191:222|202:169,1,110.000003356934,8|0,0:0|0:0,0:0:0:0:
13,51,7563,6,0,P|35:129|101:177,1,165.000005035401,4|0,3:2|0:0,0:0:0:0:
101,177,7799,2,0,P|63:216|52:269,1,110.000003356934,8|0,0:0|0:0,0:0:0:0:
110,353,8035,1,0,3:0:0:0:
258,256,8154,2,0,P|205:243|154:261,1,110.000003356934,0|8,3:0|0:0,0:0:0:0:
347,374,8390,6,0,B|324:275|377:306|346:209,1,165.000005035401,4|0,3:2|0:0,0:0:0:0:
347,212,8626,1,0,3:0:0:0:
154,261,8744,2,0,P|206:273|258:256,1,110.000003356934,8|0,0:0|0:0,0:0:0:0:
101,178,8980,1,0,3:0:0:0:
212,373,9098,1,0,3:0:0:0:
200,173,9217,2,0,L|194:63,1,110.000003356934,8|0,0:0|0:0,0:0:0:0:
101,178,9453,5,4,3:2:0:0:
299,168,9571,1,0,3:0:0:0:
299,168,9689,1,8,0:0:0:0:
212,373,9807,5,4,3:2:0:0:
204,177,9925,1,0,3:0:0:0:
204,177,10043,1,8,0:0:0:0:
258,285,10161,5,4,3:2:0:0:
146,89,10280,2,0,P|93:76|41:93,1,110.000003356934,0|8,3:0|0:0,0:0:0:0:
159,290,10516,5,4,3:2:0:0:
246,85,10634,2,0,P|297:67|350:80,1,110.000003356934,0|8,3:0|0:0,0:0:0:0:
258,285,10870,5,8,3:2:0:0:
146,89,10988,1,8,3:0:0:0:
159,290,11106,5,8,3:0:0:0:
246,85,11224,1,8,3:0:0:0:
52,196,11343,6,0,L|201:186,2,150.000005722046,6|0|0,3:2|0:0|0:0,0:0:0:0:
159,290,12051,2,0,P|194:301|232:302,1,75.0000028610231,2|0,0:0|0:0,0:0:0:0:
314,265,12287,6,0,P|340:195|317:125,1,150.000005722046,2|0,0:0|0:0,0:0:0:0:
247,68,12642,2,0,P|212:57|174:56,1,75.0000028610231,2|0,0:0|0:0,0:0:0:0:
87,83,12878,1,2,0:0:0:0:
87,83,12996,1,0,0:0:0:0:
43,161,13114,6,0,L|42:246,2,75.0000028610231,2|0|0,0:0|0:0|0:0,0:0:0:0:
87,83,13469,2,0,P|124:80|160:88,1,75.0000028610231,2|0,0:0|0:0,0:0:0:0:
253,221,13705,2,0,P|232:190|221:155,1,75.0000028610231,2|0,0:0|0:0,0:0:0:0:
289,7,13941,2,0,P|272:41|247:69,1,75.0000028610231,2|0,0:0|0:0,0:0:0:0:
134,174,14177,6,0,L|120:323,2,150.000005722046,2|2|2,0:0|0:0|0:0,0:0:0:0:
272,58,14886,1,2,0:0:0:0:
203,116,15004,1,0,0:0:0:0:
329,126,15122,6,0,P|359:147|380:179,1,75.0000028610231,6|2,0:0|0:0,0:0:0:0:
354,266,15358,1,0,0:0:0:0:
354,266,15595,2,0,L|429:263,1,75.0000028610231,2|0,0:0|0:0,0:0:0:0:
285,324,15831,2,0,L|210:327,1,75.0000028610231,2|0,0:0|0:0,0:0:0:0:
354,266,16067,6,0,L|503:260,1,150.000005722046,2|0,0:0|0:0,0:0:0:0:
285,324,16421,2,0,L|135:331,1,150.000005722046,2|0,0:0|0:0,0:0:0:0:
354,266,16776,6,0,P|366:228|347:115,2,150.000005722046,2|0|2,0:0|0:0|0:0,0:0:0:0:
285,324,17366,1,0,0:0:0:0:
437,299,17484,2,0,P|475:299|512:304,1,75.0000028610231,2|0,0:0|0:0,0:0:0:0:
285,324,17721,2,0,P|247:324|210:319,1,75.0000028610231,2|0,0:0|0:0,0:0:0:0:
52,171,17957,6,0,P|123:183|152:248,1,150.000005722046,2|0,3:2|0:0,0:0:0:0:
93,318,18311,1,0,0:0:0:0:
93,318,18429,1,0,3:0:0:0:
193,123,18547,5,0,3:0:0:0:
152,249,18665,1,8,0:0:0:0:
52,172,18783,1,8,0:0:0:0:
193,123,18902,6,0,P|283:148|329:237,2,189.999994926453,6|8|0,3:2|0:0|3:0,0:0:0:0:
113,175,19492,1,0,0:0:0:0:
140,43,19610,2,0,P|185:28|244:41,1,94.9999974632264,10|0,0:0|0:0,0:0:0:0:
411,62,19846,6,0,P|366:77|320:70,1,94.9999974632264,2|0,3:2|0:0,0:0:0:0:
205,210,20083,1,10,0:0:0:0:
205,210,20201,2,0,P|214:163|243:127,1,94.9999974632264,2|0,0:0|3:0,0:0:0:0:
411,62,20437,2,0,P|366:77|320:70,2,94.9999974632264,2|8|0,0:2|0:0|0:0,0:0:0:0:
232,35,20791,6,0,L|137:42,1,94.9999974632264,2|0,3:2|0:0,0:0:0:0:
330,164,21028,2,0,L|424:171,1,94.9999974632264,10|0,0:0|0:0,0:0:0:0:
138,43,21264,2,0,L|43:50,1,94.9999974632264,2|0,3:2|0:0,0:0:0:0:
235,156,21500,2,0,L|329:163,1,94.9999974632264,10|0,0:0|0:0,0:0:0:0:
43,50,21736,6,0,P|35:96|50:141,1,94.9999974632264,2|0,3:2|0:0,0:0:0:0:
242,247,21972,2,0,P|250:200|235:156,1,94.9999974632264,10|0,0:0|0:0,0:0:0:0:
66,233,22209,1,2,3:2:0:0:
140,173,22327,1,0,0:0:0:0:
66,233,22445,2,0,L|58:327,1,94.9999974632264,10|0,0:0|0:0,0:0:0:0:
235,156,22681,6,0,L|227:61,1,94.9999974632264,0|0,3:0|0:0,0:0:0:0:
201,245,22917,1,10,0:0:0:0:
201,245,23154,2,0,P|248:250|292:232,1,94.9999974632264,2|0,3:2|0:0,0:0:0:0:
143,15,23390,2,0,P|96:10|52:28,1,94.9999974632264,10|0,0:0|0:0,0:0:0:0:
201,245,23626,6,0,P|248:250|327:128,1,189.999994926453,2|8,3:2|0:0,0:0:0:0:
143,15,23980,2,0,P|96:10|17:132,1,189.999994926453,2|0,3:2|3:0,0:0:0:0:
117,199,24335,2,0,L|110:105,1,94.9999974632264,10|0,0:0|0:0,0:0:0:0:
201,245,24571,6,0,L|193:339,1,94.9999974632264,2|0,3:2|0:0,0:0:0:0:
66,348,24807,2,0,L|42:257,1,94.9999974632264,10|0,0:0|0:0,0:0:0:0:
201,245,25043,1,2,3:2:0:0:
66,348,25161,1,0,0:0:0:0:
192,338,25280,2,0,P|239:331|276:301,1,94.9999974632264,10|0,0:0|0:0,0:0:0:0:
297,117,25516,6,0,P|280:161|287:207,1,94.9999974632264,2|8,3:2|0:0,0:0:0:0:
287,207,25693,1,8,0:0:0:0:
287,207,25752,1,8,0:0:0:0:
437,318,25870,1,8,0:0:0:0:
276,301,25988,5,8,0:3:0:0:
449,225,26106,1,8,0:3:0:0:
356,309,26224,5,8,0:3:0:0:
374,220,26343,1,8,0:3:0:0:
195,309,26461,6,0,P|158:312|123:301,1,75.0000028610231,6|0,3:2|0:0,0:0:0:0:
55,240,26697,1,2,3:2:0:0:
101,163,26815,2,0,L|107:88,1,75.0000028610231,2|8,0:0|0:0,0:0:0:0:
183,40,27051,2,0,L|257:33,1,75.0000028610231,2|0,0:0|3:0,0:0:0:0:
448,126,27287,6,0,P|389:83|318:99,1,150.000005722046,10|0,3:2|3:0,0:0:0:0:
261,170,27642,2,0,L|268:244,1,75.0000028610231,2|0,0:0|3:0,0:0:0:0:
330,309,27878,2,0,P|366:320|405:316,1,75.0000028610231,10|0,0:0|0:0,0:0:0:0:
428,230,28114,2,0,P|392:219|355:222,1,75.0000028610231,2|0,0:0|0:0,0:0:0:0:
268,244,28350,6,0,L|193:237,1,75.0000028610231,2|0,0:0|0:0,0:0:0:0:
115,284,28587,2,0,P|51:286|21:276,1,75.0000028610231,2|0,3:2|0:0,0:0:0:0:
264,248,28823,2,0,L|189:241,1,75.0000028610231,10|0,0:0|0:0,0:0:0:0:
111,288,29059,2,0,P|47:290|17:280,1,75.0000028610231,2|8,3:2|3:2,0:0:0:0:
19,199,29295,6,0,L|17:96,1,75.0000028610231,2|8,3:2|0:0,0:0:0:0:
8,33,29532,1,2,0:0:0:0:
95,13,29650,2,0,P|158:-1|257:8,1,150.000005722046,2|0,3:2|0:0,0:0:0:0:
319,50,30004,1,10,3:2:0:0:
389,2,30122,1,8,3:2:0:0:
249,98,30240,6,0,L|242:172,1,75.0000028610231,6|0,3:2|0:0,0:0:0:0:
191,247,30476,1,2,3:2:0:0:
274,283,30595,2,0,P|340:289|372:276,1,75.0000028610231,2|8,0:0|0:0,0:0:0:0:
422,142,30831,2,0,P|396:169|383:204,1,75.0000028610231,10|0,0:3|3:0,0:0:0:0:
473,383,31067,6,0,P|493:312|461:247,1,150.000005722046,10|0,3:2|3:0,0:0:0:0:
383,203,31421,2,0,P|382:165|387:128,1,75.0000028610231,6|0,3:0|0:0,0:0:0:0:
470,92,31658,2,0,P|470:54|465:17,1,75.0000028610231,10|0,0:0|0:0,0:0:0:0:
387,128,31894,1,6,0:3:0:0:
466,18,32012,1,4,0:3:0:0:
320,20,32130,6,0,L|150:34,1,170.000003242493,4|0,3:2|0:0,0:0:0:0:
0,102,32484,2,0,L|168:117,1,170.000003242493,4|0,3:2|0:0,0:0:0:0:
234,26,32839,2,0,L|150:34,1,85.0000016212464,4|0,3:2|0:0,0:0:0:0:
184,198,33075,6,0,L|268:190,1,85.0000016212464,4|8,3:0|0:0,0:0:0:0:
268,189,33252,1,8,0:0:0:0:
268,189,33311,1,0,0:0:0:0:
234,26,33429,1,0,3:0:0:0:
85,109,33547,2,0,L|169:117,1,85.0000016212464,8|0,3:0|0:0,0:0:0:0:
278,199,33784,5,8,0:0:0:0:
85,109,33902,1,8,0:0:0:0:
124,295,34020,6,0,P|185:317|258:295,1,142.49999619484,4|0,3:2|0:0,0:0:0:0:
258,296,34256,2,0,P|303:311|356:290,1,94.9999974632264,8|0,0:0|0:0,0:0:0:0:
402,219,34492,5,0,3:0:0:0:
402,219,34610,1,0,3:0:0:0:
352,138,34728,2,0,P|307:123|254:144,1,94.9999974632264,8|0,0:0|0:0,0:0:0:0:
209,216,34965,5,0,3:0:0:0:
209,216,35083,1,0,0:0:0:0:
168,130,35201,2,0,L|159:35,1,94.9999974632264,8|0,0:0|0:0,0:0:0:0:
64,35,35437,5,0,3:0:0:0:
64,35,35555,1,0,3:0:0:0:
23,121,35673,2,0,L|14:215,1,94.9999974632264,8|0,0:0|0:0,0:0:0:0:
69,290,35909,6,0,P|130:312|203:290,1,142.49999619484,0|0,3:0|0:0,0:0:0:0:
203,291,36146,2,0,L|194:196,1,94.9999974632264,8|0,0:0|0:0,0:0:0:0:
239,112,36382,5,0,3:0:0:0:
239,112,36500,1,0,3:0:0:0:
319,161,36618,2,0,L|413:169,1,94.9999974632264,8|0,0:0|0:0,0:0:0:0:
319,63,36854,5,0,3:0:0:0:
319,63,36972,1,0,0:0:0:0:
239,112,37090,2,0,L|144:120,1,94.9999974632264,8|0,0:0|0:0,0:0:0:0:
238,300,37327,5,0,3:0:0:0:
238,300,37445,1,0,3:0:0:0:
319,250,37563,2,0,P|333:205|312:152,1,94.9999974632264,8|0,0:0|0:0,0:0:0:0:
446,29,37799,6,0,P|418:94|421:165,1,142.49999619484,4|0,3:2|0:0,0:0:0:0:
420,164,38035,1,8,0:0:0:0:
318,111,38154,6,0,P|327:181|365:242,1,142.49999619484,0|0,3:0|0:0,0:0:0:0:
364,241,38390,1,0,3:0:0:0:
246,244,38508,6,0,P|286:303|348:337,1,142.49999619484,8|0,0:0|0:0,0:0:0:0:
348,337,38744,2,0,P|395:333|435:308,1,94.9999974632264,0|0,3:0|3:0,0:0:0:0:
424,168,38980,5,8,0:0:0:0:
348,337,39098,1,0,3:0:0:0:
307,79,39217,1,0,3:0:0:0:
368,245,39335,1,0,3:0:0:0:
362,2,39453,2,0,P|392:39|401:85,1,94.9999974632264,8|0,0:0|0:0,0:0:0:0:
112,209,39689,6,0,P|167:143|252:150,1,172.500003290176,4|0,3:2|0:0,0:0:0:0:
247,147,39925,1,8,0:0:0:0:
322,316,40043,6,0,P|239:302|200:228,1,172.500003290176,0|0,3:0|0:0,0:0:0:0:
200,229,40280,1,0,3:0:0:0:
307,79,40398,6,0,P|336:156|292:227,1,172.500003290176,8|0,0:0|0:0,0:0:0:0:
291,227,40634,5,0,3:0:0:0:
170,138,40752,1,0,3:0:0:0:
307,79,40870,2,0,L|421:86,1,115.000002193451,8|0,0:0|0:0,0:0:0:0:
322,316,41106,5,0,3:0:0:0:
247,147,41225,1,0,3:0:0:0:
421,86,41343,1,8,0:0:0:0:
295,231,41461,1,8,0:0:0:0:
110,63,41579,6,0,L|234:72,1,125,4|0,3:2|3:0,0:0:0:0:
421,86,41815,1,8,0:0:0:0:
138,175,41933,6,0,L|262:173,1,125,4|0,3:2|3:0,0:0:0:0:
450,171,42169,1,8,0:0:0:0:
176,284,42288,6,0,L|300:271,1,125,4|0,3:2|3:0,0:0:0:0:
487,253,42524,1,8,0:0:0:0:
138,175,42642,6,0,L|262:173,1,125,4|0,3:2|3:0,0:0:0:0:
450,171,42878,1,0,3:0:0:0:
110,63,42996,5,8,0:0:0:0:
487,253,43114,1,8,0:0:0:0:
176,284,43232,5,8,0:0:0:0:
421,86,43350,1,8,0:0:0:0:
138,175,43469,5,4,3:2:0:0:
321,349,43587,5,8,0:0:0:0:
325,330,43646,1,8,0:0:0:0:
329,312,43705,1,8,0:0:0:0:
331,293,43764,1,8,0:0:0:0:
331,274,43823,2,0,P|327:233|323:192,1,62.5,8|8,0:3|0:3,0:0:0:0:
252,162,43941,5,8,0:3:0:0:
248,143,44000,1,8,0:3:0:0:
244,125,44059,1,8,0:3:0:0:
242,106,44118,1,8,0:3:0:0:
242,87,44177,2,0,P|246:46|250:5,3,62.5,8|8|8|8,0:3|0:3|0:3|0:3,0:0:0:0:
331,117,44413,5,0,3:0:0:0:
13,44,45358,6,0,P|102:11|188:50,1,194.999991073609,6|0,3:2|0:0,0:0:0:0:
188,50,45595,2,0,P|165:109|181:171,1,129.999994049073,8|0,0:0|0:0,0:0:0:0:
243,258,45831,1,0,3:0:0:0:
327,94,45949,1,0,3:0:0:0:
182,171,46067,2,0,L|312:179,1,129.999994049073,10|0,0:0|0:0,0:0:0:0:
154,315,46303,6,0,P|137:253|161:193,1,129.999994049073,2|0,3:2|0:0,0:0:0:0:
326,324,46539,2,0,P|349:263|332:201,1,129.999994049073,10|0,0:0|0:0,0:0:0:0:
66,145,46776,6,0,P|112:99|175:89,1,129.999994049073,2|0,3:2|0:0,0:0:0:0:
429,161,47012,2,0,P|389:112|327:94,1,129.999994049073,8|0,0:0|0:0,0:0:0:0:
238,384,47248,6,0,L|246:189,1,194.999991073609,2|0,3:2|0:0,0:0:0:0:
246,189,47484,1,10,0:0:0:0:
365,36,47602,2,0,B|342:64|342:64|345:158,1,129.999994049073,2|0,0:0|3:0,0:0:0:0:
425,260,47839,1,2,3:2:0:0:
442,100,47957,1,8,0:0:0:0:
250,193,48075,6,0,P|156:191|112:106,1,194.999991073609,2|0,3:2|0:0,0:0:0:0:
111,110,48311,1,0,3:0:0:0:
99,278,48429,2,0,P|61:330|1:351,1,129.999994049073,8|0,0:0|0:0,0:0:0:0:
0,247,48665,1,0,3:0:0:0:
198,309,48784,1,0,3:0:0:0:
195,204,48902,2,0,P|135:225|99:277,1,129.999994049073,8|0,0:0|0:0,0:0:0:0:
342,285,49138,6,0,P|299:199|352:111,1,194.999991073609,6|0,3:2|0:0,0:0:0:0:
341,117,49374,2,0,L|470:121,1,129.999994049073,8|0,0:0|0:0,0:0:0:0:
396,204,49610,1,2,3:2:0:0:
451,34,49728,1,0,0:0:0:0:
396,204,49846,2,0,L|266:199,1,129.999994049073,10|0,0:0|0:0,0:0:0:0:
97,112,50083,6,0,P|157:90|218:108,1,129.999994049073,2|0,3:2|0:0,0:0:0:0:
224,276,50319,2,0,P|164:298|103:281,1,129.999994049073,10|0,0:0|0:0,0:0:0:0:
0,71,50555,6,0,P|40:23|103:8,1,129.999994049073,2|0,3:2|0:0,0:0:0:0:
224,276,50791,1,10,0:0:0:0:
97,112,50909,1,8,0:0:0:0:
396,204,51028,6,0,L|201:196,1,194.999991073609,6|0,3:2|0:0,0:0:0:0:
201,196,51264,1,8,0:0:0:0:
443,104,51382,2,0,P|505:210|431:308,1,259.999988098145,6|0,3:2|3:0,0:0:0:0:
201,196,51736,1,12,0:0:0:0:
396,204,51854,1,8,0:0:0:0:
161,93,51972,5,8,3:0:0:0:
396,204,52090,1,8,3:0:0:0:
154,296,52208,5,8,0:0:0:0:
396,204,52327,1,8,0:0:0:0:
263,113,52445,6,0,P|266:80|262:48,3,64.9999970245363,8|8|8|8,0:3|0:3|0:3|0:3,0:0:0:0:
196,186,52680,1,8,0:0:0:0:
195,206,52740,1,8,0:0:0:0:
198,226,52799,1,8,0:0:0:0:
207,244,52858,1,8,0:0:0:0:
220,260,52917,6,0,B|263:287|263:287|407:284,1,194.999991073609,6|0,3:2|0:0,0:0:0:0:
406,283,53154,2,0,P|400:218|433:165,1,129.999994049073,8|0,0:0|0:0,0:0:0:0:
505,244,53390,1,0,3:0:0:0:
447,382,53508,1,0,3:0:0:0:
433,165,53626,2,0,P|373:141|311:157,1,129.999994049073,10|0,0:0|0:0,0:0:0:0:
129,233,53862,6,0,P|189:257|251:241,1,129.999994049073,2|0,3:2|0:0,0:0:0:0:
195,21,54098,2,0,L|196:151,1,129.999994049073,8|0,0:0|0:0,0:0:0:0:
131,339,54335,1,2,3:2:0:0:
250,241,54453,1,0,3:0:0:0:
47,167,54571,2,0,P|23:226|39:288,1,129.999994049073,8|0,0:0|0:0,0:0:0:0:
332,307,54807,6,0,P|355:247|339:185,1,129.999994049073,2|0,3:2|0:0,0:0:0:0:
201,46,55043,2,0,L|192:175,1,129.999994049073,8|0,0:0|0:0,0:0:0:0:
183,280,55280,1,2,3:2:0:0:
104,117,55398,1,0,3:0:0:0:
289,104,55516,2,0,L|418:112,1,129.999994049073,8|0,0:0|0:0,0:0:0:0:
183,280,55752,6,0,L|53:271,1,129.999994049073,2|0,3:2|0:0,0:0:0:0:
418,112,55988,2,0,P|434:173|410:233,1,129.999994049073,8|0,0:0|0:0,0:0:0:0:
289,104,56224,1,0,3:0:0:0:
410,233,56343,1,0,3:0:0:0:
484,30,56461,2,0,P|424:6|362:22,1,129.999994049073,10|0,0:0|0:0,0:0:0:0:
101,95,56697,6,0,B|160:122|160:122|288:103,1,194.999991073609,6|0,3:2|0:0,0:0:0:0:
288,102,56933,1,8,0:0:0:0:
140,216,57051,2,0,P|136:280|166:336,1,129.999994049073,2|0,0:0|3:0,0:0:0:0:
54,157,57287,2,0,P|57:92|27:36,1,129.999994049073,2|8,3:2|0:0,0:0:0:0:
307,90,57524,6,0,P|233:146|147:112,1,194.999991073609,6|0,3:2|0:0,0:0:0:0:
146,110,57760,1,0,3:0:0:0:
285,238,57878,2,0,L|414:227,1,129.999994049073,10|0,0:0|0:0,0:0:0:0:
238,145,58114,1,2,3:2:0:0:
284,341,58232,2,0,L|154:330,1,129.999994049073,2|8,3:2|0:0,0:0:0:0:
50,318,58469,1,0,0:0:0:0:
307,90,58587,5,4,3:2:0:0:
284,341,58705,1,0,3:0:0:0:
284,341,58823,1,8,0:0:0:0:
225,58,58941,5,4,3:2:0:0:
366,373,59059,1,0,3:0:0:0:
366,373,59177,1,8,0:0:0:0:
389,122,59295,5,12,0:0:0:0:
202,309,59413,1,0,3:0:0:0:
471,154,59532,5,12,0:0:0:0:
225,58,59650,1,8,0:0:0:0:
366,373,59768,5,8,3:2:0:0:
307,89,59886,1,8,0:0:0:0:
307,89,59945,1,8,0:0:0:0:
307,89,60004,6,0,P|302:132|319:172,2,86.6666626993817,8|8|8,0:3|0:3|0:3,0:0:0:0:
389,122,60240,2,0,P|393:79|376:39,2,86.6666626993817,8|8|8,0:3|0:3|0:3,0:0:0:0:
217,139,60476,6,0,L|202:304,1,165.000005035401,4|0,3:2|0:0,0:0:0:0:
203,303,60712,2,0,P|255:288|308:301,1,110.000003356934,0|0,3:0|3:0,0:0:0:0:
119,359,60949,2,0,P|104:307|117:255,1,110.000003356934,8|0,0:0|0:0,0:0:0:0:
203,303,61185,1,0,3:0:0:0:
392,245,61303,6,0,P|407:297|394:349,1,110.000003356934,8|0,0:0|0:0,0:0:0:0:
203,303,61539,2,0,P|255:288|308:301,1,110.000003356934,8|0,0:0|3:0,0:0:0:0:
119,359,61776,1,0,3:0:0:0:
113,259,61894,2,0,P|150:220|202:204,1,110.000003356934,8|0,0:0|0:0,0:0:0:0:
203,303,62130,1,0,3:0:0:0:
29,315,62248,1,0,3:0:0:0:
93,102,62366,6,0,B|122:145|122:145|112:257,1,165.000005035401,4|0,3:2|0:0,0:0:0:0:
112,257,62602,2,0,L|221:247,1,110.000003356934,0|0,3:0|3:0,0:0:0:0:
391,177,62839,2,0,L|282:167,1,110.000003356934,8|0,0:0|0:0,0:0:0:0:
319,258,63075,1,0,3:0:0:0:
183,155,63193,6,0,P|205:105|250:74,1,110.000003356934,8|0,0:0|0:0,0:0:0:0:
220,245,63429,1,8,0:0:0:0:
123,232,63547,2,0,P|91:189|86:135,1,110.000003356934,0|0,3:0|0:0,0:0:0:0:
160,323,63784,2,0,P|106:328|57:305,1,110.000003356934,8|8,0:0|0:0,0:0:0:0:
220,245,64020,1,8,3:0:0:0:
87,135,64138,1,8,3:0:0:0:
160,322,64256,6,0,P|239:339|304:292,1,165.000005035401,4|0,3:2|0:0,0:0:0:0:
304,292,64492,2,0,P|357:286|407:309,1,110.000003356934,0|0,3:0|3:0,0:0:0:0:
220,245,64728,2,0,P|188:202|183:147,1,110.000003356934,8|0,0:0|0:0,0:0:0:0:
251,74,64965,1,0,3:0:0:0:
416,199,65083,6,0,L|406:308,1,110.000003356934,8|0,0:0|0:0,0:0:0:0:
339,136,65319,2,0,L|348:26,1,110.000003356934,8|0,0:0|3:0,0:0:0:0:
432,100,65555,1,0,3:0:0:0:
322,234,65673,2,0,P|273:212|243:167,1,110.000003356934,8|0,0:0|0:0,0:0:0:0:
348,26,65909,1,0,3:0:0:0:
416,199,66028,1,0,3:0:0:0:
251,74,66146,6,0,L|101:74,1,150.000005722046,2|0,3:2|0:0,0:0:0:0:
146,179,66500,2,0,L|252:72,1,150.000005722046,2|0,0:0|0:0,0:0:0:0:
296,179,66854,6,0,L|146:179,1,150.000005722046,2|0,0:0|0:0,0:0:0:0:
238,38,67563,5,8,0:0:0:0:
42,143,67681,1,8,0:0:0:0:
205,179,67799,5,8,0:0:0:0:
29,13,67917,1,8,0:0:0:0:
35,332,68035,6,0,B|15:284|15:284|45:133,1,194.999991073609,6|0,3:2|0:0,0:0:0:0:
42,143,68272,2,0,P|104:160|162:136,1,129.999994049073,8|0,0:0|0:0,0:0:0:0:
151,29,68508,1,0,3:0:0:0:
42,143,68626,1,0,3:0:0:0:
256,193,68744,2,0,P|273:130|249:72,1,129.999994049073,10|0,0:0|0:0,0:0:0:0:
162,243,68980,6,0,P|144:305|168:363,1,129.999994049073,6|0,3:2|0:0,0:0:0:0:
380,292,69217,2,0,L|248:299,1,129.999994049073,8|0,0:0|0:0,0:0:0:0:
162,243,69453,1,2,3:2:0:0:
168,364,69571,1,0,3:0:0:0:
256,193,69689,2,0,P|273:130|249:72,1,129.999994049073,8|0,0:0|0:0,0:0:0:0:
38,144,69925,6,0,L|169:136,1,129.999994049073,6|0,3:2|0:0,0:0:0:0:
379,64,70161,2,0,L|249:71,1,129.999994049073,8|0,0:0|0:0,0:0:0:0:
120,232,70398,1,2,3:2:0:0:
109,48,70516,1,0,3:0:0:0:
256,193,70634,2,0,L|387:185,1,129.999994049073,8|0,0:0|0:0,0:0:0:0:
173,256,70870,6,0,P|149:197|167:135,1,129.999994049073,6|0,3:2|0:0,0:0:0:0:
468,120,71106,2,0,P|491:179|474:240,1,129.999994049073,8|0,0:0|0:0,0:0:0:0:
271,295,71343,1,0,3:0:0:0:
370,83,71461,1,0,3:0:0:0:
380,291,71579,5,8,0:0:0:0:
261,86,71697,1,8,0:0:0:0:
479,182,71815,6,0,L|273:190,1,194.999991073609,6|0,3:2|0:0,0:0:0:0:
284,190,72051,1,8,0:0:0:0:
150,300,72169,6,0,P|211:318|270:294,1,129.999994049073,2|0,3:2|0:0,0:0:0:0:
139,89,72406,2,0,P|198:66|259:84,1,129.999994049073,2|8,3:2|0:0,0:0:0:0:
89,198,72642,6,0,L|283:189,1,194.999991073609,6|0,3:2|0:0,0:0:0:0:
284,190,72878,1,0,3:0:0:0:
352,381,72996,2,0,P|376:322|359:261,1,129.999994049073,10|0,0:0|0:0,0:0:0:0:
89,198,73232,2,0,P|128:247|190:263,1,129.999994049073,2|0,3:2|0:0,0:0:0:0:
380,61,73469,2,0,P|316:70|272:116,1,129.999994049073,10|0,0:0|0:0,0:0:0:0:
23,314,73705,6,0,P|106:349|160:277,1,194.999991073609,6|0,3:2|0:0,0:0:0:0:
162,276,73941,1,8,0:0:0:0:
245,60,74059,6,0,L|261:254,1,194.999991073609,6|0,3:2|0:0,0:0:0:0:
262,254,74295,1,0,3:0:0:0:
508,271,74413,6,0,P|432:320|365:259,1,194.999991073609,14|0,0:0|0:0,0:0:0:0:
365,259,74650,5,0,3:0:0:0:
162,276,74768,1,0,3:0:0:0:
245,60,74886,2,0,L|256:189,1,129.999994049073,8|0,0:0|0:0,0:0:0:0:
134,115,75122,5,0,3:0:0:0:
366,94,75240,1,0,3:0:0:0:
266,292,75358,5,8,0:0:0:0:
245,60,75476,1,8,0:0:0:0:
43,200,75595,6,0,B|111:201|111:201|228:249,1,194.999991073609,6|0,3:2|0:0,0:0:0:0:
229,250,75831,1,8,0:0:0:0:
436,172,75949,6,0,L|241:155,1,194.999991073609,6|0,3:2|0:0,0:0:0:0:
242,155,76185,1,0,3:0:0:0:
53,76,76303,6,0,B|120:85|120:85|244:59,1,194.999991073609,14|0,0:2|0:0,0:0:0:0:
246,59,76539,5,0,3:0:0:0:
233,254,76658,1,0,3:0:0:0:
436,172,76776,2,0,L|307:161,1,129.999994049073,8|0,0:0|0:0,0:0:0:0:
133,249,77012,5,0,3:0:0:0:
325,262,77130,1,0,3:0:0:0:
441,46,77248,5,8,0:0:0:0:
246,59,77366,1,8,0:0:0:0:
318,358,77484,6,0,L|335:117,2,239.999992675781,6|8|0,3:2|0:0|3:0,0:0:0:0:
412,335,78075,1,0,3:0:0:0:
233,254,78193,2,0,P|175:241|115:242,1,119.999996337891,10|0,0:0|0:0,0:0:0:0:
243,159,78429,6,0,P|301:172|361:171,1,119.999996337891,6|0,3:2|0:0,0:0:0:0:
419,95,78665,1,10,0:0:0:0:
207,69,78784,2,0,P|159:112|146:165,2,119.999996337891,2|0|0,0:0|3:0|3:0,0:0:0:0:
243,159,79138,1,10,0:0:0:0:
436,223,79256,6,0,L|317:233,1,119.999996337891,6|0,3:2|0:0,0:0:0:0:
146,163,79492,1,0,0:0:0:0:
304,65,79610,2,0,L|423:75,1,119.999996337891,14|0,3:2|0:0,0:0:0:0:
317,233,79846,2,0,L|198:244,1,119.999996337891,6|0,3:2|0:0,0:0:0:0:
184,54,80083,2,0,L|303:64,1,119.999996337891,14|0,0:0|0:0,0:0:0:0:
437,223,80319,6,0,L|317:233,1,119.999996337891,6|0,3:2|0:0,0:0:0:0:
64,43,80555,2,0,L|183:53,1,119.999996337891,14|0,3:2|0:0,0:0:0:0:
317,232,80791,1,4,3:2:0:0:
147,153,80909,1,8,0:0:0:0:
147,153,80969,1,8,0:0:0:0:
147,153,81028,1,8,0:0:0:0:
286,85,81146,1,8,0:0:0:0:
176,289,81264,6,0,B|196:221|196:221|182:51,2,239.999992675781,6|8|0,3:2|0:0|3:0,0:0:0:0:
108,357,81854,1,0,3:0:0:0:
235,211,81972,2,0,P|294:216|353:226,1,119.999996337891,10|0,0:0|0:0,0:0:0:0:
487,114,82209,6,0,P|428:124|369:130,1,119.999996337891,6|0,3:2|0:0,0:0:0:0:
316,49,82445,1,10,0:0:0:0:
353,226,82563,2,0,L|364:345,1,119.999996337891,2|0,0:0|3:0,0:0:0:0:
448,220,82799,1,2,3:2:0:0:
369,130,82917,1,0,0:0:0:0:
234,211,83035,6,0,P|119:229|24:161,1,239.999992675781,6|0,3:2|0:0,0:0:0:0:
242,114,83390,2,0,P|296:136|330:185,1,119.999996337891,2|0,3:2|0:0,0:0:0:0:
217,323,83626,2,0,P|209:264|234:210,1,119.999996337891,10|0,0:0|0:0,0:0:0:0:
305,281,83862,1,2,3:2:0:0:
128,219,83980,6,0,L|113:37,1,179.999994506836,14|0,3:2|0:0,0:0:0:0:
113,39,84217,1,8,3:2:0:0:
30,143,84335,2,0,L|21:263,1,119.999996337891,10|0,0:0|0:0,0:0:0:0:
128,219,84571,1,10,3:2:0:0:
30,143,84689,1,8,3:2:0:0:
112,333,84807,6,0,P|261:337|357:356,2,239.999992675781,6|0|0,3:2|2:0|0:0,0:0:0:0:
21,366,85398,1,0,3:0:0:0:
146,239,85516,2,0,P|156:181|147:121,1,119.999996337891,8|0,0:0|0:0,0:0:0:0:
54,89,85752,1,4,3:2:0:0:
223,62,85870,5,8,0:0:0:0:
146,239,85988,1,8,0:0:0:0:
54,89,86106,1,8,0:0:0:0:
316,94,86224,5,4,3:0:0:0:
71,180,86342,1,4,3:0:0:0:
240,153,86461,5,8,3:0:0:0:
147,121,86579,1,8,3:0:0:0:
414,254,86697,6,0,P|358:347|366:238,1,300,6|0,3:2|0:0,0:0:0:0:
