osu file format v14

[General]
AudioFilename: audio.mp3
AudioLeadIn: 0
PreviewTime: 70284
Countdown: 0
SampleSet: Soft
StackLeniency: 0.3
Mode: 0
LetterboxInBreaks: 0
WidescreenStoryboard: 1

[Editor]
Bookmarks: 36210,53988,71766,76210,89543
DistanceSpacing: 2.2
BeatDivisor: 4
GridSize: 4
TimelineZoom: 1.1

[Metadata]
Title:Hyouri
TitleUnicode:Hyouri
Artist:Satoru Kousaki
ArtistUnicode:Satoru Kousaki
Creator:Botan
Version:The Two Sides
Source:Bakemonogatari
Tags:化物語
BeatmapID:1811969
BeatmapSetID:866713

[Difficulty]
HPDrainRate:5
CircleSize:3.8
OverallDifficulty:7.5
ApproachRate:8.6
SliderMultiplier:1.40000000596046
SliderTickRate:1

[Events]
//Background and Video events
0,0,"monogatari-wallpapers-1920x1080-ipad-pro-WTG20042352.jpg",0,0
//Break Periods
//Storyboard Layer 0 (Background)
//Storyboard Layer 1 (Fail)
//Storyboard Layer 2 (Pass)
//Storyboard Layer 3 (Foreground)
//Storyboard Sound Samples

[TimingPoints]
655,370.37037037037,4,2,3,40,1,0
18432,-125,4,2,3,40,0,0
36210,-100,4,2,3,40,0,0
71766,-90.9090909090909,4,2,3,40,0,1
87321,-90.9090909090909,4,2,3,40,0,1
89543,-90.9090909090909,4,2,3,40,0,0

[Colours]
Combo1 : 117,117,117
Combo2 : 230,0,0

[HitObjects]
316,152,655,5,2,0:0:0:0:
384,204,840,1,0,0:0:0:0:
464,184,1025,1,0,0:0:0:0:
300,164,1210,5,0,0:0:0:0:
378,223,1395,1,0,0:0:0:0:
470,200,1580,1,0,0:0:0:0:
312,82,1766,6,0,L|316:156,1,70.000000298023,4|0,0:3|0:0,0:0:0:0:
467,114,2136,2,0,L|463:183,1,70.000000298023
288,48,2506,2,0,L|292:122,1,70.000000298023
220,220,2877,6,0,B|152:200|152:200|96:256,1,140.000000596046,2|0,0:0|0:0,0:0:0:0:
93,119,3432,2,0,B|121:159|121:159|97:275,1,140.000000596046
64,336,3988,2,0,B|36:356|36:356|-4:348,2,70.000000298023,4|0|0,0:3|0:0|0:0,0:0:0:0:
100,192,4543,5,0,0:0:0:0:
220,220,4729,1,0,0:0:0:0:
80,188,4914,1,2,0:0:0:0:
280,268,5099,6,0,P|296:228|288:192,2,70.000000298023,2|0|0,0:0|0:0|0:0,0:0:0:0:
316,104,5654,2,0,P|342:137|377:148,2,70.000000298023
436,232,6210,6,0,P|392:233|363:255,1,70.000000298023,4|0,0:3|0:0,0:0:0:0:
451,297,6580,2,0,P|449:253|427:224,1,70.000000298023
390,95,6951,2,0,P|367:132|370:168,1,70.000000298023
453,117,7321,2,0,P|415:94|379:97,1,70.000000298023,2|0,0:0|0:0,0:0:0:0:
336,156,7692,5,0,0:0:0:0:
196,140,7877,1,0,0:0:0:0:
140,252,8247,5,0,0:0:0:0:
219,220,8432,1,4,0:3:0:0:
211,303,8617,1,0,0:0:0:0:
72,316,8803,5,0,0:0:0:0:
88,176,8988,1,0,0:0:0:0:
88,176,9358,1,2,0:0:0:0:
0,180,9543,6,0,L|80:184,2,70.000000298023,2|0|0,0:0|0:0|0:0,0:0:0:0:
120,268,10099,1,0,0:0:0:0:
160,192,10284,1,0,0:0:0:0:
128,116,10469,1,0,0:0:0:0:
168,204,10654,6,0,B|204:208|204:208|240:184,1,70.000000298023,4|0,0:3|0:0,0:0:0:0:
308,68,11025,2,0,B|286:97|286:97|289:140,1,70.000000298023
344,252,11395,5,0,0:0:0:0:
512,140,11766,1,2,0:0:0:0:
308,68,12136,5,0,0:0:0:0:
310,81,12321,1,0,0:0:0:0:
512,140,12692,5,0,0:0:0:0:
510,153,12877,1,4,0:3:0:0:
508,166,13062,1,0,0:0:0:0:
444,240,13247,1,0,0:0:0:0:
344,252,13432,5,0,0:0:0:0:
430,224,13617,1,0,0:0:0:0:
406,309,13802,1,2,0:0:0:0:
328,236,13988,6,0,L|332:156,1,70.000000298023,2|0,0:0|0:0,0:0:0:0:
312,88,14358,1,0,0:0:0:0:
171,110,14543,5,0,0:0:0:0:
251,142,14729,1,0,0:0:0:0:
331,166,14914,1,0,0:0:0:0:
184,188,15099,6,0,B|172:216|172:216|184:256,1,70.000000298023,4|0,0:3|0:0,0:0:0:0:
284,340,15469,2,0,L|200:348,1,70.000000298023
60,304,15840,2,0,L|144:312,1,70.000000298023
296,352,16210,1,2,0:0:0:0:
425,170,16580,5,0,0:0:0:0:
406,309,16765,1,0,0:0:0:0:
400,324,17136,5,0,0:0:0:0:
320,284,17321,1,4,0:3:0:0:
332,198,17506,1,0,0:0:0:0:
419,182,17692,1,0,0:0:0:0:
459,259,17877,1,0,0:0:0:0:
92,192,18432,5,2,0:0:0:0:
92,192,18803,1,0,0:0:0:0:
80,112,18988,2,0,P|107:112|134:121,2,56.0000002384184
124,40,19543,5,4,0:3:0:0:
200,16,19914,1,0,0:0:0:0:
276,32,20284,1,2,0:0:0:0:
348,4,20654,1,2,0:0:0:0:
286,139,21025,5,0,0:0:0:0:
285,144,21210,1,0,0:0:0:0:
208,215,21580,5,0,0:0:0:0:
209,219,21766,1,4,0:3:0:0:
211,224,21951,1,0,0:0:0:0:
264,292,22136,1,0,0:0:0:0:
336,260,22321,2,0,L|394:263,2,56.0000002384184
264,292,22877,5,2,0:0:0:0:
116,272,23247,1,0,0:0:0:0:
48,312,23432,2,0,B|40:340|40:340|44:376,2,56.0000002384184
116,272,23988,1,4,0:3:0:0:
12,156,24358,5,0,0:0:0:0:
13,150,24729,1,2,0:0:0:0:
14,144,25099,1,2,0:0:0:0:
144,64,25469,5,0,0:0:0:0:
55,51,25654,1,0,0:0:0:0:
159,200,26025,5,0,0:0:0:0:
235,165,26210,1,4,0:3:0:0:
226,82,26395,1,0,0:0:0:0:
144,64,26581,1,0,0:0:0:0:
102,137,26766,1,0,0:0:0:0:
102,137,27321,6,0,B|126:127|126:127|183:140|183:140|223:129,1,112.000000476837,2|0,0:0|0:0,0:0:0:0:
296,107,27877,5,0,0:0:0:0:
275,182,28062,1,0,0:0:0:0:
300,92,28247,1,0,0:0:0:0:
272,196,28432,6,0,L|284:250,1,56.0000002384184,4|0,0:3|0:0,0:0:0:0:
204,240,28803,2,0,L|216:294,1,56.0000002384184
318,363,29173,2,0,L|330:308,1,56.0000002384184,2|0,0:0|0:0,0:0:0:0:
385,257,29543,6,0,P|336:233|278:256,1,112.000000476837,2|0,0:0|0:0,0:0:0:0:
115,287,30099,2,0,P|164:311|222:288,1,112.000000476837
272,196,30654,2,0,B|272:176|272:176|280:152|280:152|280:132,2,56.0000002384184,4|0|0,0:3|0:0|0:0,0:0:0:0:
169,236,31210,2,0,B|169:216|169:216|161:192|161:192|161:172,2,56.0000002384184
3,279,31766,6,0,L|119:287,1,112.000000476837,2|0,0:0|0:0,0:0:0:0:
215,293,32321,1,0,0:0:0:0:
221,308,32506,1,0,0:0:0:0:
226,324,32692,1,0,0:0:0:0:
232,340,32877,5,4,0:3:0:0:
385,257,33247,1,0,0:0:0:0:
161,181,33618,1,2,0:0:0:0:
244,334,33988,1,2,0:0:0:0:
504,344,34358,5,0,0:0:0:0:
502,355,34543,1,0,0:0:0:0:
385,257,34914,5,0,0:0:0:0:
432,196,35099,1,4,0:3:0:0:
480,136,35284,1,0,0:0:0:0:
508,208,35469,1,0,0:0:0:0:
356,184,35654,1,0,0:0:0:0:
356,184,36210,5,2,0:0:0:0:
270,177,36395,1,0,0:0:0:0:
214,237,36580,1,0,0:0:0:0:
362,165,36765,5,0,0:0:0:0:
265,158,36950,1,0,0:0:0:0:
200,227,37135,1,0,0:0:0:0:
280,352,37321,6,0,B|293:320|293:320|284:281,1,70.000000298023,4|0,0:3|0:0,0:0:0:0:
132,276,37692,2,0,B|119:308|119:308|128:347,1,70.000000298023
296,336,38062,2,0,B|309:304|309:304|300:265,1,70.000000298023
74,223,38432,6,0,P|134:251|210:215,1,140.000000596046,2|0,0:0|0:0,0:0:0:0:
196,100,38988,2,0,P|224:160|188:236,1,140.000000596046
300,152,39543,2,0,P|332:140|372:144,2,70.000000298023,4|0|0,0:3|0:0|0:0,0:0:0:0:
199,225,40099,1,0,0:0:0:0:
217,346,40285,1,0,0:0:0:0:
195,204,40469,1,2,0:0:0:0:
124,368,40654,6,0,P|88:372|56:356,2,70.000000298023,2|0|0,0:0|0:0|0:0,0:0:0:0:
16,276,41210,2,0,B|8:260|8:260|12:228|12:228|8:206,2,70.000000298023
143,159,41766,6,0,L|196:98,1,70.000000298023,4|0,0:3|0:0,0:0:0:0:
195,204,42136,2,0,L|134:150,1,70.000000298023
352,197,42506,2,0,L|298:257,1,70.000000298023
300,152,42876,2,0,L|360:205,1,70.000000298023,2|0,0:0|0:0,0:0:0:0:
444,336,43247,5,0,0:0:0:0:
460,196,43432,1,0,0:0:0:0:
460,196,43803,5,0,0:0:0:0:
380,176,43988,1,4,0:3:0:0:
300,152,44173,1,0,0:0:0:0:
348,40,44358,5,0,0:0:0:0:
332,180,44543,1,0,0:0:0:0:
332,180,44914,1,2,0:0:0:0:
292,260,45099,6,0,L|295:190,2,70.000000298023,2|0|0,0:0|0:0|0:0,0:0:0:0:
212,304,45654,1,0,0:0:0:0:
128,264,45840,1,0,0:0:0:0:
44,300,46025,1,0,0:0:0:0:
121,197,46210,6,0,P|133:229|125:269,1,70.000000298023,4|0,0:3|0:0,0:0:0:0:
120,120,46580,2,0,P|153:125|184:152,1,70.000000298023
52,84,46951,1,0,0:0:0:0:
244,44,47321,1,2,0:0:0:0:
210,227,47692,5,0,0:0:0:0:
213,213,47877,1,0,0:0:0:0:
403,140,48247,5,0,0:0:0:0:
399,127,48432,1,4,0:3:0:0:
396,114,48617,1,0,0:0:0:0:
318,80,48803,1,0,0:0:0:0:
276,8,48988,5,0,0:0:0:0:
268,92,49173,1,0,0:0:0:0:
200,40,49358,1,0,0:0:0:0:
292,0,49543,6,0,L|361:3,1,70.000000298023,2|0,0:0|0:0,0:0:0:0:
448,8,49914,1,0,0:0:0:0:
403,140,50099,5,0,0:0:0:0:
380,220,50284,1,0,0:0:0:0:
408,300,50469,1,0,0:0:0:0:
280,360,50654,6,0,P|313:352|347:360,1,70.000000298023,4|0,0:3|0:0,0:0:0:0:
246,300,51025,2,0,P|269:325|279:358,1,70.000000298023
276,239,51395,2,0,P|267:272|245:299,1,70.000000298023
380,220,51766,5,2,0:0:0:0:
220,100,52136,5,0,0:0:0:0:
201,239,52321,1,0,0:0:0:0:
204,224,52692,5,0,0:0:0:0:
276,292,52877,1,4,0:3:0:0:
216,364,53062,1,0,0:0:0:0:
140,300,53247,1,0,0:0:0:0:
204,224,53432,1,0,0:0:0:0:
144,104,53988,6,0,P|84:72|12:124,1,140.000000596046,2|0,0:0|0:0,0:0:0:0:
24,102,54543,2,0,P|89:83|105:-4,1,140.000000596046,2|0,0:0|0:0,0:0:0:0:
36,27,55099,5,4,0:3:0:0:
144,104,55469,1,0,0:0:0:0:
16,176,55840,1,0,0:0:0:0:
60,264,56025,2,0,L|52:316,1,35.0000001490115,2|0,0:0|0:0,0:0:0:0:
64,312,56210,6,0,B|124:308|124:308|144:316|144:316|216:312,1,140.000000596046,2|0,0:0|0:0,0:0:0:0:
204,332,56766,2,0,B|144:336|144:336|124:328|124:328|65:331,1,140.000000596046,2|0,0:0|0:0,0:0:0:0:
12,242,57321,2,0,B|3:207|3:207|15:175,2,70.000000298023,4|0|0,0:3|0:0|0:0,0:0:0:0:
65,330,57877,5,0,0:0:0:0:
149,314,58062,1,0,0:0:0:0:
229,294,58247,1,2,0:0:0:0:
261,222,58432,6,0,P|305:270|281:354,1,140.000000596046,2|0,0:0|0:0,0:0:0:0:
294,339,58988,2,0,P|313:276|398:255,1,140.000000596046,2|0,0:0|0:0,0:0:0:0:
371,329,59543,5,4,0:3:0:0:
261,222,59914,1,0,0:0:0:0:
368,132,60284,1,0,0:0:0:0:
296,68,60469,2,0,L|292:16,1,35.0000001490115,2|0,0:0|0:0,0:0:0:0:
284,20,60654,6,0,B|224:56|224:56|144:32,1,140.000000596046,2|0,0:0|0:0,0:0:0:0:
156,16,61210,2,0,B|223:36|223:36|283:0,1,140.000000596046
368,28,61766,5,4,0:3:0:0:
452,20,61951,1,0,0:0:0:0:
288,148,62136,1,0,0:0:0:0:
204,140,62321,1,0,0:0:0:0:
204,140,62877,6,0,B|176:116|176:116|196:228,1,140.000000596046,2|0,0:0|0:0,0:0:0:0:
264,252,63432,2,0,B|292:228|292:228|272:340,1,140.000000596046,2|0,0:0|0:0,0:0:0:0:
208,380,63988,5,4,0:3:0:0:
180,376,64358,1,0,0:0:0:0:
152,372,64729,1,0,0:0:0:0:
80,324,64914,2,0,L|82:289,1,35.0000001490115,2|0,0:0|0:0,0:0:0:0:
60,336,65099,6,0,L|72:184,1,140.000000596046,2|0,0:0|0:0,0:0:0:0:
24,72,65654,1,2,0:0:0:0:
24,72,66025,5,0,0:0:0:0:
82,129,66210,2,0,B|76:145|76:145|81:173|81:173|70:195,2,70.000000298023,4|0|0,0:3|0:0|0:0,0:0:0:0:
180,88,66766,1,0,0:0:0:0:
192,84,66951,1,0,0:0:0:0:
204,80,67136,1,2,0:0:0:0:
304,152,67321,6,0,B|372:164|372:164|444:120,1,140.000000596046,2|0,0:0|0:0,0:0:0:0:
412,52,67877,2,0,B|344:40|344:40|272:84,1,140.000000596046,2|0,0:0|0:0,0:0:0:0:
304,152,68432,5,4,0:3:0:0:
308,180,68803,1,0,0:0:0:0:
312,208,69173,1,0,0:0:0:0:
405,248,69358,2,0,L|413:184,1,35.0000001490115,2|0,0:0|0:0,0:0:0:0:
417,266,69543,6,0,L|432:122,1,140.000000596046,2|0,0:0|0:0,0:0:0:0:
508,16,70099,1,2,0:0:0:0:
508,16,70469,5,0,0:0:0:0:
432,126,70654,1,4,0:3:0:0:
440,144,70840,1,0,0:0:0:0:
352,28,71025,1,0,0:0:0:0:
344,46,71211,1,0,0:0:0:0:
344,46,71580,1,2,0:0:0:0:
268,112,71766,5,2,0:0:0:0:
176,68,71951,1,2,0:0:0:0:
168,64,72136,1,2,0:0:0:0:
160,64,72321,1,4,0:3:0:0:
152,68,72506,1,2,0:0:0:0:
148,76,72692,1,2,0:0:0:0:
48,56,72877,5,2,0:0:0:0:
60,76,73062,1,2,0:0:0:0:
64,100,73247,1,2,0:0:0:0:
148,80,73432,5,4,0:3:0:0:
148,103,73617,1,2,0:0:0:0:
139,126,73802,1,2,0:0:0:0:
42,195,73988,5,2,0:0:0:0:
119,264,74173,1,2,0:0:0:0:
123,269,74358,1,2,0:0:0:0:
126,275,74543,1,4,0:3:0:0:
127,283,74729,1,2,0:0:0:0:
126,290,74914,1,2,0:0:0:0:
79,377,75099,5,2,0:0:0:0:
100,369,75284,1,2,0:0:0:0:
122,372,75469,1,2,0:0:0:0:
196,331,75654,5,4,0:3:0:0:
218,334,75839,1,2,0:0:0:0:
239,326,76024,1,2,0:0:0:0:
302,258,76210,5,2,0:0:0:0:
251,177,76395,1,2,0:0:0:0:
253,169,76580,1,2,0:0:0:0:
255,161,76766,1,4,0:3:0:0:
257,153,76951,1,2,0:0:0:0:
259,145,77136,1,2,0:0:0:0:
337,91,77321,5,2,0:0:0:0:
330,68,77506,1,2,0:0:0:0:
322,45,77692,1,2,0:0:0:0:
230,49,77877,5,4,0:3:0:0:
237,26,78062,1,2,0:0:0:0:
245,3,78248,1,2,0:0:0:0:
322,45,78432,5,2,0:0:0:0:
411,19,78617,1,2,0:0:0:0:
418,21,78803,1,2,0:0:0:0:
424,24,78988,1,4,0:3:0:0:
429,29,79173,1,2,0:0:0:0:
433,34,79358,1,2,0:0:0:0:
483,113,79543,6,0,L|464:196,2,77.0000026776789,2|2|2,0:0|0:0|0:0,0:0:0:0:
394,136,80099,6,0,L|375:219,2,77.0000026776789,4|2|2,0:3|0:0|0:0,0:0:0:0:
465,188,80654,5,2,0:0:0:0:
417,276,80840,1,2,0:0:0:0:
412,282,81025,1,2,0:0:0:0:
405,286,81210,1,4,0:3:0:0:
397,288,81395,1,2,0:0:0:0:
389,288,81580,1,2,0:0:0:0:
305,254,81766,5,2,0:0:0:0:
296,232,81951,1,2,0:0:0:0:
291,216,82136,1,2,0:0:0:0:
219,272,82321,5,4,0:3:0:0:
214,288,82506,1,2,0:0:0:0:
205,310,82691,1,2,0:0:0:0:
121,355,82877,5,2,0:0:0:0:
46,285,83062,1,2,0:0:0:0:
46,277,83247,1,2,0:0:0:0:
47,270,83432,1,4,0:3:0:0:
48,263,83617,1,2,0:0:0:0:
49,256,83803,1,2,0:0:0:0:
108,176,83988,5,2,0:0:0:0:
131,174,84173,1,2,0:0:0:0:
154,172,84358,1,2,0:0:0:0:
227,225,84543,5,4,0:3:0:0:
250,227,84728,1,2,0:0:0:0:
273,229,84914,1,2,0:0:0:0:
348,280,85099,6,0,P|367:245|354:190,1,77.0000026776789,2|2,0:0|0:0,0:0:0:0:
328,136,85469,1,2,0:0:0:0:
309,341,85654,6,0,P|319:304|347:279,1,77.0000026776789,4|2,0:3|0:0,0:0:0:0:
425,252,86024,1,2,0:0:0:0:
488,139,86210,6,0,L|388:155,1,77.0000026776789,2|2,0:0|0:0,0:0:0:0:
328,136,86580,1,2,0:0:0:0:
184,80,86766,6,0,L|284:96,1,77.0000026776789,4|2,0:3|0:0,0:0:0:0:
332,52,87136,1,2,0:0:0:0:
136,16,87321,6,0,B|168:-4|168:-4|232:4,2,77.0000026776789,2|2|2,0:0|0:0|0:0,0:0:0:0:
184,80,87877,6,0,B|217:97|217:97|242:157,2,77.0000026776789,4|2|2,0:3|0:0|0:0,0:0:0:0:
158,155,88432,6,0,B|159:192|159:192|120:244,2,77.0000026776789,2|2|2,0:0|0:0|0:0,0:0:0:0:
80,166,88988,5,4,0:3:0:0:
328,136,89173,1,4,0:3:0:0:
228,272,89358,1,4,0:3:0:0:
136,16,89543,5,2,0:0:0:0:
