osu file format v14

[General]
AudioFilename: audio.mp3
AudioLeadIn: 0
PreviewTime: 65651
Countdown: 0
SampleSet: Soft
StackLeniency: 0.4
Mode: 0
LetterboxInBreaks: 0
WidescreenStoryboard: 0

[Editor]
Bookmarks: 738,7979,15220,22462,36944,51427,59315,65910,73151,80393
DistanceSpacing: 1
BeatDivisor: 4
GridSize: 32
TimelineZoom: 2.699998

[Metadata]
Title:Beautiful PINA
TitleUnicode:Beautiful PINA
Artist:Satoru Kousaki
ArtistUnicode:神前 暁
Creator:YesLifer
Version:Pretty Boy
Source:BEASTARS
Tags:ビースターズ japanese anime 2nd season theme instrumental furry dall sheep pina-kun ピナ君 ben jocomol 警部 tv size orange studio netflix paru itagaki 2021
BeatmapID:3689108
BeatmapSetID:1799548

[Difficulty]
HPDrainRate:5.4
CircleSize:4.1
OverallDifficulty:8.6
ApproachRate:9.3
SliderMultiplier:1.4
SliderTickRate:1

[Events]
//Background and Video events
0,0,"pina.png",0,0
//Break Periods
//Storyboard Layer 0 (Background)
//Storyboard Layer 1 (Fail)
//Storyboard Layer 2 (Pass)
//Storyboard Layer 3 (Foreground)
//Storyboard Layer 4 (Overlay)
//Storyboard Sound Samples

[TimingPoints]
738,258.620689655172,7,2,1,30,1,0
738,-142.857142857143,7,2,1,30,0,0
7979,-125,7,2,1,40,0,0
21427,-125,7,2,1,20,0,0
21556,-125,7,2,1,25,0,0
21686,-125,7,2,1,30,0,0
21815,-125,7,2,1,35,0,0
21944,-125,7,2,1,40,0,0
22074,-125,7,2,1,50,0,0
22462,-100,7,2,1,60,0,0
36621,-100,7,2,1,5,0,0
36686,-100,7,2,1,60,0,0
37268,-100,7,2,1,5,0,0
37332,-100,7,2,1,60,0,0
38690,-100,7,2,1,5,0,0
38755,-100,7,2,1,60,0,0
40177,-100,7,2,1,5,0,0
40242,-100,7,2,1,60,0,0
43087,-100,7,2,1,5,0,0
43151,-100,7,2,1,60,0,0
44509,-100,7,2,1,5,0,0
44574,-100,7,2,1,60,0,0
45026,-100,7,2,1,5,0,0
45091,-100,7,2,1,60,0,0
45544,-100,7,2,1,5,0,0
45608,-100,7,2,1,60,0,0
50716,-100,7,2,1,5,0,0
50781,-100,7,2,1,60,0,0
54725,-100,7,2,1,5,0,0
54789,-100,7,2,1,60,0,0
61966,-100,7,2,1,5,0,0
62031,-100,7,2,1,60,0,0
65910,-80,7,2,1,75,0,1
66233,-80,7,2,1,5,0,1
66298,-80,7,2,1,75,0,1
66621,-80,7,2,1,5,0,1
66686,-80,7,2,1,75,0,1
66880,-80,7,2,1,5,0,1
66944,-80,7,2,1,75,0,1
67720,-80,7,2,1,75,0,1
68044,-80,7,2,1,5,0,1
68108,-80,7,2,1,75,0,1
68431,-80,7,2,1,5,0,1
68496,-80,7,2,1,75,0,1
68690,-80,7,2,1,5,0,1
68755,-80,7,2,1,75,0,1
69854,-80,7,2,1,5,0,1
69919,-80,7,2,1,75,0,1
70242,-80,7,2,1,5,0,1
70306,-80,7,2,1,75,0,1
70500,-80,7,2,1,5,0,1
70565,-80,7,2,1,75,0,1
71212,-80,7,2,1,40,0,0
73151,-80,7,2,1,75,0,1
73475,-80,7,2,1,5,0,1
73539,-80,7,2,1,75,0,1
73862,-80,7,2,1,5,0,1
73927,-80,7,2,1,75,0,1
74121,-80,7,2,1,5,0,1
74186,-80,7,2,1,75,0,1
75285,-80,7,2,1,5,0,1
75350,-80,7,2,1,75,0,1
75673,-80,7,2,1,5,0,1
75737,-80,7,2,1,75,0,1
75931,-80,7,2,1,5,0,1
75996,-80,7,2,1,75,0,1
76772,-80,7,2,1,75,0,1
77095,-80,7,2,1,5,0,1
77160,-80,7,2,1,75,0,1
77483,-80,7,2,1,5,0,1
77548,-80,7,2,1,75,0,1
77742,-80,7,2,1,5,0,1
77806,-80,7,2,1,75,0,1
78453,-80,7,2,1,40,0,0
80393,-80,7,2,1,80,0,1
80975,-80,7,2,1,5,0,1
81039,-80,7,2,1,80,0,1
81233,-80,7,2,1,5,0,1
81298,-80,7,2,1,80,0,1
81492,-80,7,2,1,5,0,1
81556,-80,7,2,1,80,0,1
81750,-80,7,2,1,5,0,1
81815,-80,7,2,1,80,0,1
82785,-80,7,2,1,5,0,1
82850,-80,7,2,1,80,0,1
83044,-80,7,2,1,5,0,1
83108,-66.6666666666667,7,2,1,80,0,0

[Colours]
Combo1 : 0,168,223
Combo2 : 255,200,34
Combo3 : 253,37,6
SliderBorder : 255,217,34

[HitObjects]
99,121,738,6,0,L|92:172,2,48.9999985046387
145,35,1125,2,0,P|193:27|241:35,2,97.9999970092774
131,49,1901,1,0,0:0:0:0:
119,68,2160,2,0,L|112:118,2,48.9999985046387
31,152,2548,6,0,L|24:99,2,48.9999985046387
47,253,2936,2,0,P|87:220|141:220,1,97.9999970092774
114,293,3453,1,0,0:0:0:0:
413,121,4358,6,0,L|420:172,2,48.9999985046387
367,35,4745,2,0,P|319:27|271:35,2,97.9999970092774
381,49,5521,1,0,0:0:0:0:
393,68,5780,2,0,L|400:118,2,48.9999985046387
481,152,6168,6,0,L|488:99,2,48.9999985046387
465,253,6556,2,0,P|425:220|371:220,1,97.9999970092774
398,293,7073,1,0,0:0:0:0:
210,365,7979,6,0,L|201:299,1,56,2|2,0:0|0:0,0:0:0:0:
190,227,8237,1,2,0:0:0:0:
290,349,8367,2,0,P|343:357|392:324,1,112,2|2,0:0|0:0,0:0:0:0:
227,158,8884,2,0,P|175:150|125:183,1,112,2|2,0:0|0:0,0:0:0:0:
328,283,9401,1,2,0:0:0:0:
328,283,9531,2,0,L|319:217,1,56,2|2,0:0|0:0,0:0:0:0:
450,103,9789,6,0,L|441:169,1,56,2|2,0:0|0:0,0:0:0:0:
429,240,10048,1,2,0:0:0:0:
390,53,10177,2,0,P|440:27|506:48,1,112,2|2,0:0|0:0,0:0:0:0:
315,117,10694,1,2,0:0:0:0:
17,365,11600,6,0,L|24:301,1,56,2|2,0:0|0:0,0:0:0:0:
35,225,11858,1,2,0:0:0:0:
190,243,11987,2,0,P|205:307|180:353,1,112,2|2,0:0|0:0,0:0:0:0:
66,142,12505,2,0,P|51:78|76:32,1,112,2|2,0:0|0:0,0:0:0:0:
304,67,13022,1,2,0:0:0:0:
304,67,13151,2,0,L|359:57,1,56,2|2,0:0|0:0,0:0:0:0:
240,181,13410,6,0,L|185:171,1,56,2|2,0:0|0:0,0:0:0:0:
102,154,13669,1,2,0:0:0:0:
186,290,13798,2,0,L|303:273,1,112,2|2,0:0|0:0,0:0:0:0:
76,358,14315,1,2,0:0:0:0:
320,361,15220,6,0,B|427:335|383:385|492:357,2,168,2|2|2,0:0|0:0|0:0,0:0:0:0:
485,227,16255,2,0,L|490:163,1,56,2|2,0:0|0:0,0:0:0:0:
391,254,16513,2,0,L|396:190,1,56,2|2,0:0|0:0,0:0:0:0:
297,281,16772,1,2,0:0:0:0:
302,204,16901,1,2,0:0:0:0:
171,309,17031,6,0,B|65:283|108:332|2:305,2,168,2|2|2,0:0|0:0|0:0,0:0:0:0:
69,159,18065,2,0,L|64:95,2,56,2|2|2,0:0|0:0|0:0,0:0:0:0:
138,202,18453,1,2,0:0:0:0:
340,52,18582,1,2,0:0:0:0:
340,52,18841,6,0,B|457:24|408:78|527:48,2,168,2|2|2,0:0|0:0|0:0,0:0:0:0:
480,243,19875,2,0,L|475:298,1,56,2|2,0:0|0:0,0:0:0:0:
385,198,20134,2,0,L|380:253,1,56,2|2,0:0|0:0,0:0:0:0:
290,153,20393,1,2,0:0:0:0:
391,114,20522,1,2,0:0:0:0:
306,337,21427,5,0,0:0:0:0:
318,347,21556,1,0,0:0:0:0:
367,269,21686,5,0,0:0:0:0:
376,292,21815,1,0,0:0:0:0:
384,314,21944,1,0,0:0:0:0:
452,230,22073,5,8,0:0:0:0:
292,211,22203,1,8,0:0:0:0:
387,82,22332,1,8,0:0:0:0:
357,360,22462,6,0,P|291:347|219:340,1,140,4|0,3:1|0:0,0:0:0:0:
146,190,22850,2,0,L|140:108,1,70,8|0,0:0|0:0,0:0:0:0:
236,270,23108,2,0,P|243:227|257:190,1,70
40,265,23367,2,0,P|70:283|96:307,1,70,2|0,3:0|0:0,0:0:0:0:
237,353,23625,1,0,0:0:0:0:
303,313,23755,2,0,P|344:314|426:372,1,140,0|8,3:0|0:0,0:0:0:0:
471,178,24143,1,8,0:0:0:0:
462,165,24272,6,0,P|398:143|328:170,1,140,0|0,3:0|0:0,0:0:0:0:
289,305,24660,2,0,P|253:310|217:299,1,70,8|0,0:0|0:0,0:0:0:0:
176,364,24919,2,0,P|153:335|145:298,1,70
68,295,25177,2,0,P|81:261|109:235,1,70,2|0,3:0|0:0,0:0:0:0:
183,234,25436,1,8,0:0:0:0:
160,57,25565,1,0,3:0:0:0:
214,219,25824,1,8,0:0:0:0:
191,42,25953,1,8,0:0:0:0:
281,231,26082,6,0,B|319:222|338:193|338:193|357:226|393:238,1,140,2|0,3:2|0:0,0:0:0:0:
187,333,26470,2,0,P|183:288|168:255,1,70,8|0,0:0|0:0,0:0:0:0:
32,247,26729,2,0,P|36:202|51:169,1,70
185,106,26987,2,0,P|205:134|216:168,1,70,2|0,3:0|0:0,0:0:0:0:
41,21,27246,1,0,0:0:0:0:
69,96,27375,2,0,P|101:128|187:102,1,140,0|8,3:0|0:0,0:0:0:0:
229,277,27763,1,8,0:0:0:0:
231,260,27893,6,0,P|279:217|355:205,1,140,0|0,3:0|0:0,0:0:0:0:
305,27,28281,2,0,P|299:65|318:96,1,70,8|0,0:0|0:0,0:0:0:0:
440,72,28539,2,0,P|410:47|373:48,1,70
458,149,28798,2,0,P|509:112|510:36,1,140,0|0,3:0|0:0,0:0:0:0:
356,265,29186,1,8,0:0:0:0:
489,223,29315,1,8,0:0:0:0:
283,171,29444,1,0,3:0:0:0:
283,171,29703,6,0,B|191:180|243:225|157:238,1,140,4|0,3:1|0:0,0:0:0:0:
313,88,30091,2,0,P|345:108|370:143,1,70,8|0,0:0|0:0,0:0:0:0:
393,274,30350,2,0,P|417:245|430:204,1,70
455,29,30608,2,0,P|437:62|432:104,1,70,2|0,3:0|0:0,0:0:0:0:
462,313,30867,1,0,0:0:0:0:
390,351,30996,2,0,P|332:323|319:252,1,140,0|8,3:0|0:0,0:0:0:0:
133,365,31384,1,8,0:0:0:0:
118,361,31513,6,0,P|130:291|210:276,1,140,0|0,3:0|0:0,0:0:0:0:
88,213,31901,2,0,P|43:203|3:209,1,70,8|0,0:0|0:0,0:0:0:0:
45,126,32160,2,0,P|76:92|90:54,1,70
143,131,32419,2,0,P|156:174|182:206,1,70,2|0,3:0|0:0,0:0:0:0:
233,136,32677,1,8,0:0:0:0:
334,280,32806,1,0,3:0:0:0:
279,130,33065,1,8,0:0:0:0:
178,274,33194,1,8,0:0:0:0:
240,64,33324,6,0,P|308:59|353:109,1,140,2|0,3:2|0:0,0:0:0:0:
459,15,33712,2,0,P|426:24|383:26,1,70,8|0,0:0|0:0,0:0:0:0:
420,173,33970,2,0,P|388:175|344:184,1,70
179,139,34229,2,0,P|213:129|248:131,1,70,2|0,3:0|0:0,0:0:0:0:
134,313,34487,1,0,0:0:0:0:
202,356,34617,2,0,P|258:344|290:272,1,140,0|8,3:0|0:0,0:0:0:0:
455,287,35005,1,8,0:0:0:0:
465,275,35134,6,0,P|439:229|350:218,1,140,0|0,3:0|0:0,0:0:0:0:
54,343,35522,2,0,L|44:302,1,35,2|0,0:3|0:0,0:0:0:0:
13,60,35781,2,0,L|23:101,1,35,2|0,0:3|0:0,0:0:0:0:
39,344,36039,2,0,L|33:302,1,35,2|0,3:0|0:0,0:0:0:0:
242,151,36298,1,8,0:0:0:0:
107,215,36427,2,0,B|133:202|144:180|144:180|149:205|170:225,1,105,2|0,3:2|0:0,0:0:0:0:
202,246,36686,2,0,L|235:228,1,35,10|0,0:0|0:0,0:0:0:0:
268,57,36815,2,0,L|235:75,1,35,10|0,0:0|0:0,0:0:0:0:
395,219,36944,6,0,B|422:118|366:141|392:42,1,175,4|0,3:1|0:0,0:0:0:0:
416,30,37332,2,0,P|451:20|487:22,1,70,10|0,0:0|0:0,0:0:0:0:
318,123,37591,2,0,P|281:126|247:115,1,70
475,159,37850,2,0,P|502:227|495:298,1,140,2|0,3:0|0:0,0:0:0:0:
479,316,38173,2,0,P|436:288|425:228,1,105,2|2,0:0|0:0,0:0:0:0:
286,140,38496,2,0,P|228:142|213:180,1,105,10|0,0:0|0:0,0:0:0:0:
213,209,38755,6,0,P|183:191|147:198,1,70,0|0,3:0|0:0,0:0:0:0:
117,207,39013,1,2,0:0:0:0:
74,305,39143,1,10,0:0:0:0:
81,131,39272,1,2,0:0:0:0:
38,229,39401,1,2,0:0:0:0:
21,69,39531,2,0,P|50:50|84:44,1,70,2|2,0:0|3:0,0:0:0:0:
84,43,39919,1,8,0:0:0:0:
190,150,40048,2,0,L|198:80,1,70,0|0,3:0|0:0,0:0:0:0:
203,52,40242,2,0,P|249:22|294:45,1,105,2|8,0:0|0:0,0:0:0:0:
441,206,40565,6,0,L|295:238,1,140,2|2,3:2|0:0,0:0:0:0:
494,273,40953,2,0,L|419:290,1,70,8|2,0:0|0:0,0:0:0:0:
323,312,41212,1,2,0:2:0:0:
286,162,41341,1,2,0:0:0:0:
137,332,41470,2,0,P|169:312|201:272,1,70,2|2,3:0|0:0,0:0:0:0:
239,18,41729,1,0,0:0:0:0:
293,74,41858,2,0,P|352:98|430:74,1,140,0|8,3:0|0:0,0:0:0:0:
433,312,42246,1,8,0:0:0:0:
425,323,42375,6,0,P|379:342|324:326,2,105,0|2|8,3:0|0:0|0:0,0:0:0:0:
419,201,42893,2,0,P|369:187|321:206,1,105,0|2,0:0|0:0,0:0:0:0:
374,264,43151,1,0,0:0:0:0:
493,145,43281,1,2,3:0:0:0:
493,145,43539,1,8,0:0:0:0:
308,112,43669,1,8,0:0:0:0:
402,28,43798,1,8,0:0:0:0:
321,206,43927,2,0,L|286:199,1,35,2|0,3:2|0:0,0:0:0:0:
225,136,44056,2,0,L|217:101,1,35,2|0,0:0|0:0,0:0:0:0:
245,27,44186,6,0,P|181:29|138:121,1,175,4|0,3:1|0:0,0:0:0:0:
140,156,44574,1,10,0:0:0:0:
308,112,44703,2,0,P|372:114|415:206,1,175,2|0,0:0|0:0,0:0:0:0:
414,226,45091,1,2,3:0:0:0:
281,182,45220,2,0,P|217:184|174:276,1,175,2|0,0:0|0:0,0:0:0:0:
187,301,45608,1,2,0:0:0:0:
283,289,45737,2,0,L|349:312,1,70,10|8,0:0|0:0,0:0:0:0:
454,335,45996,6,0,P|452:297|444:263,1,70,0|2,3:0|0:0,0:0:0:0:
356,192,46255,1,2,0:0:0:0:
465,78,46384,2,0,L|361:57,2,105,10|2|2,0:0|0:0|0:0,0:0:0:0:
299,136,46901,2,0,L|195:115,2,105,2|2|2,3:0|0:0|3:2,0:0:0:0:
227,47,47548,1,8,0:0:0:0:
49,169,47677,1,8,0:0:0:0:
84,30,47806,5,0,3:0:0:0:
171,219,47936,2,0,P|209:217|243:187,1,70,2|0,0:0|0:0,0:0:0:0:
362,264,48194,2,0,P|328:245|311:203,1,70,10|2,0:0|0:0,0:0:0:0:
140,320,48453,2,0,P|174:336|218:325,1,70
409,351,48712,1,2,3:0:0:0:
409,351,48970,1,2,0:0:0:0:
396,262,49100,1,2,3:2:0:0:
278,337,49229,1,2,0:0:0:0:
348,136,49359,1,8,0:0:0:0:
452,264,49487,1,8,0:0:0:0:
467,233,49617,6,0,P|475:161|469:81,1,140,0|2,3:0|0:0,0:0:0:0:
219,292,50005,2,0,L|225:327,1,35,2|0,0:3|0:0,0:0:0:0:
9,145,50263,2,0,L|4:180,1,35,2|0,0:3|0:0,0:0:0:0:
242,32,50522,2,0,P|300:25|346:57,1,105,2|0,3:1|0:0,0:0:0:0:
350,76,50781,1,8,0:0:0:0:
333,286,50910,1,0,3:0:0:0:
318,76,51169,1,8,0:0:0:0:
301,286,51298,1,8,0:0:0:0:
175,71,51427,6,0,P|135:59|103:66,1,70,4|2,3:1|0:0,0:0:0:0:
54,114,51686,1,2,0:0:0:0:
195,155,51815,2,0,P|227:139|250:113,1,70,10|0,0:0|0:0,0:0:0:0:
147,226,52074,2,0,P|180:239|215:238,1,70,2|0,0:0|0:0,0:0:0:0:
62,242,52332,2,0,P|88:306|136:355,1,140,2|2,3:0|0:0,0:0:0:0:
219,324,52720,1,0,3:0:0:0:
367,204,52850,1,2,0:0:0:0:
291,164,52979,2,0,P|282:201|286:233,2,70,10|10|2,0:0|0:0|3:2,0:0:0:0:
364,117,53367,5,2,0:0:0:0:
452,107,53496,1,2,0:0:0:0:
411,310,53625,2,0,P|389:337|359:355,1,70,10|0,0:0|0:0,0:0:0:0:
459,216,53884,2,0,P|482:270|493:373,1,140,2|2,0:0|3:0,0:0:0:0:
493,350,54401,1,8,0:0:0:0:
358,232,54531,2,0,L|253:222,1,105,0|0,3:0|0:0,0:0:0:0:
195,292,54789,1,8,0:0:0:0:
195,292,55048,6,0,P|172:262|163:224,1,70,2|2,3:2|0:0,0:0:0:0:
189,153,55306,1,2,0:0:0:0:
413,174,55436,2,0,P|431:199|438:236,1,70,10|0,0:0|0:0,0:0:0:0:
399,88,55694,2,0,P|430:91|462:110,1,70,2|0,0:0|0:0,0:0:0:0:
309,59,55953,2,0,P|356:16|431:7,1,140,2|2,3:0|0:0,0:0:0:0:
497,42,56341,1,0,3:0:0:0:
320,152,56470,1,2,0:0:0:0:
253,112,56600,2,0,P|233:76|236:39,2,70,10|10|2,0:0|0:0|3:2,0:0:0:0:
320,152,56987,5,2,0:0:0:0:
390,191,57117,1,0,0:0:0:0:
165,21,57246,2,0,P|128:24|98:45,1,70,10|2,0:0|0:0,0:0:0:0:
165,246,57505,2,0,P|166:176|156:106,1,140,2|2,0:0|0:0,0:0:0:0:
156,106,58022,1,8,0:0:0:0:
49,272,58151,1,0,3:0:0:0:
37,262,58410,1,8,0:0:0:0:
178,356,58539,1,8,0:0:0:0:
283,189,58669,6,0,L|291:109,1,70,4|2,3:1|0:0,0:0:0:0:
297,50,58927,1,2,0:0:0:0:
370,198,59056,2,0,P|359:232|325:267,1,70,10|0,0:0|0:0,0:0:0:0:
214,245,59315,2,0,P|198:214|194:180,1,70,2|0,0:0|0:0,0:0:0:0:
297,50,59574,2,0,L|282:193,1,140,2|2,3:0|0:0,0:0:0:0:
271,300,59962,1,0,3:0:0:0:
119,369,60091,1,2,0:0:0:0:
138,202,60220,1,10,0:0:0:0:
197,341,60350,1,10,0:0:0:0:
138,294,60479,6,0,P|168:272|203:266,2,70
195,165,60867,2,0,P|181:130|154:105,1,70,10|0,0:0|0:0,0:0:0:0:
64,106,61125,2,0,P|23:183|39:232,1,140,2|0,0:0|0:0,0:0:0:0:
37,229,61643,1,8,0:0:0:0:
282,212,61772,2,0,P|329:233|355:277,1,105,0|0,3:0|0:0,0:0:0:0:
271,300,62031,1,8,0:0:0:0:
271,299,62289,6,0,P|286:332|317:356,1,70,2|2,3:2|0:0,0:0:0:0:
396,348,62548,1,2,0:0:0:0:
450,188,62677,2,0,P|466:157|491:132,1,70,10|0,0:0|0:0,0:0:0:0:
323,107,62936,2,0,P|340:136|350:170,1,70,2|0,0:0|0:0,0:0:0:0:
492,37,63194,2,0,P|418:37|348:18,1,140,2|2,3:0|0:0,0:0:0:0:
259,40,63582,1,0,3:0:0:0:
161,184,63712,1,2,0:0:0:0:
250,134,63841,1,10,0:0:0:0:
89,51,63970,1,10,0:0:0:0:
47,115,64100,6,0,P|79:127|120:121,2,70
248,235,64487,2,0,L|238:282,1,35,2|0,0:3|0:0,0:0:0:0:
396,184,64746,2,0,L|402:231,1,35,2|0,0:3|0:0,0:0:0:0:
89,340,65005,2,0,B|175:319|142:371|228:352,1,140,4|8,3:2|0:0,0:0:0:0:
295,149,65393,1,0,3:0:0:0:
257,347,65651,1,8,0:0:0:0:
329,144,65781,1,8,0:0:0:0:
139,324,65910,6,0,B|171:243|160:153|160:153|180:178|213:183,1,218.75,4|0,3:1|0:0,0:0:0:0:
394,274,66298,2,0,B|362:193|373:103|373:103|353:128|320:133,1,218.75,2|0,0:3|0:0,0:0:0:0:
89,126,66686,2,0,P|139:80|201:88,1,131.25,4|0,0:0|0:0,0:0:0:0:
222,106,66944,1,8,0:0:0:0:
250,324,67074,1,8,0:0:0:0:
269,128,67203,1,8,0:0:0:0:
246,304,67332,1,0,3:0:0:0:
225,153,67462,1,0,3:0:0:0:
249,282,67591,1,0,3:0:0:0:
389,61,67720,6,0,B|386:122|430:165|430:165|372:168|329:196,1,218.75,4|0,3:1|0:0,0:0:0:0:
117,158,68108,2,0,B|120:219|76:262|76:262|134:265|177:293,1,218.75,2|0,0:3|0:0,0:0:0:0:
364,286,68496,2,0,B|398:297|417:324|417:324|427:291|450:268,1,131.25,4|0,0:0|0:0,0:0:0:0:
480,267,68755,1,8,0:0:0:0:
308,325,68884,1,0,3:0:0:0:
238,28,69013,1,2,3:2:0:0:
512,136,69143,1,2,3:2:0:0:
240,200,69272,1,2,3:2:0:0:
240,200,69531,6,0,P|172:243|156:141,1,218.75,4|0,3:1|0:0,0:0:0:0:
286,322,69919,2,0,P|354:365|370:263,1,218.75,2|0,0:3|0:0,0:0:0:0:
162,317,70306,2,0,P|95:328|36:352,1,131.25,2|0,0:1|0:0,0:0:0:0:
15,365,70565,1,8,0:0:0:0:
64,142,70694,1,8,0:0:0:0:
38,338,70824,1,8,0:0:0:0:
120,184,70953,1,0,3:0:0:0:
62,325,71082,1,0,3:0:0:0:
350,347,71212,1,2,3:2:0:0:
103,321,73151,6,0,B|123:336|134:367|134:367|152:280|199:214,1,218.75,4|0,3:1|0:0,0:0:0:0:
408,158,73539,2,0,B|388:173|377:204|377:204|359:117|312:51,1,218.75,2|0,0:1|0:0,0:0:0:0:
134,180,73927,2,0,P|197:145|254:173,1,131.25,4|0,0:0|0:0,0:0:0:0:
268,188,74186,1,8,0:0:0:0:
66,102,74316,1,8,0:0:0:0:
252,40,74445,1,8,0:0:0:0:
96,131,74574,1,0,3:0:0:0:
247,152,74704,1,0,3:0:0:0:
125,105,74833,1,0,3:0:0:0:
378,171,74962,6,0,B|419:136|408:70|408:70|344:56|308:95,1,218.75,4|0,3:1|0:0,0:0:0:0:
165,259,75350,2,0,B|123:224|134:158|134:158|198:144|234:183,1,218.75,2|0,0:3|0:0,0:0:0:0:
344,373,75737,2,0,P|362:315|426:287,1,131.25,2|0,0:1|0:0,0:0:0:0:
451,296,75996,1,8,0:0:0:0:
464,118,76125,1,0,3:0:0:0:
180,236,76255,1,2,3:2:0:0:
471,211,76384,1,2,3:2:0:0:
257,74,76513,1,2,3:2:0:0:
257,74,76772,6,0,P|320:123|346:24,1,218.75,4|0,3:1|0:0,0:0:0:0:
205,203,77160,2,0,P|141:252|115:153,1,218.75,2|0,0:3|0:0,0:0:0:0:
241,334,77548,2,0,B|299:373|308:322|370:347,1,131.25,4|0,0:0|0:0,0:0:0:0:
394,356,77806,1,8,0:0:0:0:
473,147,77936,1,8,0:0:0:0:
395,327,78065,1,8,0:0:0:0:
357,157,78194,1,0,3:0:0:0:
396,306,78324,1,0,3:0:0:0:
476,39,78453,1,2,3:2:0:0:
160,129,80393,5,10,0:0:0:0:
348,179,80522,1,10,0:0:0:0:
131,252,80651,1,2,3:2:0:0:
352,75,80781,2,0,B|383:61|403:36|403:36|418:67|452:88,1,131.25,2|0,3:0|0:0,0:0:0:0:
253,191,81039,2,0,B|239:132|239:132|235:143|235:143|221:85,1,131.25,2|0,3:0|0:0,0:0:0:0:
386,297,81298,2,0,B|415:315|433:346|433:346|450:315|481:295,1,131.25,2|0,3:0|0:0,0:0:0:0:
260,341,81556,2,0,B|201:356|201:356|209:347|209:347|151:362,1,131.25,2|0,3:0|0:0,0:0:0:0:
122,371,81815,1,10,0:0:0:0:
94,165,81944,1,10,0:0:0:0:
62,309,82074,1,2,3:2:0:0:
163,131,82203,5,10,0:0:0:0:
131,275,82332,1,10,0:0:0:0:
104,70,82462,1,2,3:2:0:0:
258,282,82591,2,0,B|315:267|315:267|307:275|307:275|366:260,1,131.25,2|0,3:0|0:0,0:0:0:0:
509,85,82850,2,0,B|451:70|451:70|459:78|459:78|400:63,1,131.25,2|0,3:0|0:0,0:0:0:0:
449,369,83108,1,10,0:0:0:0:
