osu file format v14

[General]
AudioFilename: audio.mp3
AudioLeadIn: 0
PreviewTime: 65651
Countdown: 0
SampleSet: Soft
StackLeniency: 0.4
Mode: 0
LetterboxInBreaks: 0
WidescreenStoryboard: 1

[Editor]
Bookmarks: 738,7979,15220,22462,36944,51427,65910,73151,80393
DistanceSpacing: 1
BeatDivisor: 4
GridSize: 16
TimelineZoom: 1.399999

[Metadata]
Title:Beautiful PINA
TitleUnicode:Beautiful PINA
Artist:Satoru Kousaki
ArtistUnicode:神前 暁
Creator:YesLifer
Version:Normal
Source:BEASTARS
Tags:ビースターズ japanese anime 2nd season theme instrumental furry dall sheep pina-kun ピナ君 ben jocomol 警部 tv size orange studio netflix paru itagaki 2021
BeatmapID:3982267
BeatmapSetID:1799548

[Difficulty]
HPDrainRate:3
CircleSize:3
OverallDifficulty:3
ApproachRate:4
SliderMultiplier:0.799999904632566
SliderTickRate:1

[Events]
//Background and Video events
0,0,"pina.png",0,0
//Break Periods
//Storyboard Layer 0 (Background)
//Storyboard Layer 1 (Fail)
//Storyboard Layer 2 (Pass)
//Storyboard Layer 3 (Foreground)
//Storyboard Layer 4 (Overlay)
//Storyboard Sound Samples

[TimingPoints]
738,258.620689655172,7,2,1,30,1,0
738,-100,7,2,1,30,0,0
7979,-100,7,2,1,40,0,0
22462,-100,7,2,1,60,0,0
65910,-100,7,2,1,75,0,1
71212,-100,7,2,1,40,0,0
73151,-100,7,2,1,75,0,1
78453,-100,7,2,1,40,0,0
80393,-100,7,2,1,80,0,1
83108,-100,7,2,1,80,0,0

[Colours]
Combo1 : 0,168,223
Combo2 : 255,205,53
Combo3 : 204,28,2
SliderBorder : 255,217,34

[HitObjects]
399,344,738,6,0,L|408:212,1,120
415,144,1384,2,0,P|452:157|481:190,2,80
298,173,2289,1,0,0:0:0:0:
292,252,2548,6,0,L|283:384,1,120
204,364,3194,2,0,L|210:272,1,80
229,4,4358,6,0,L|238:136,1,120
245,204,5004,2,0,P|282:191|311:158,2,80
128,175,5909,1,0,0:0:0:0:
73,234,6169,6,0,P|87:304|139:337,1,120
202,316,6815,2,0,P|183:275|144:253,1,80
13,14,7979,6,0,P|68:33|99:89,1,120,2|2,0:2|0:2,0:2:0:0:
94,164,8625,1,2,0:2:0:0:
165,128,8884,2,0,L|247:119,1,80,2|2,0:2|0:2,0:2:0:0:
363,106,9531,1,2,0:2:0:0:
435,141,9789,6,0,P|440:82|403:36,1,120,2|2,0:2|0:2,0:2:0:0:
323,33,10436,2,0,L|241:42,1,80,2|2,0:2|0:2,0:2:0:0:
95,279,11600,6,0,P|105:333|161:355,1,120,2|2,0:2|0:2,0:2:0:0:
209,290,12246,1,2,0:2:0:0:
283,259,12505,2,0,P|321:266|362:285,1,80,2|2,0:2|0:2,0:2:0:0:
460,346,13151,1,2,0:2:0:0:
465,266,13410,6,0,L|468:146,1,120,2|2,0:2|0:2,0:2:0:0:
474,66,14056,2,0,P|433:74|402:105,1,80,2|2,0:2|0:2,0:2:0:0:
334,370,15220,6,0,P|279:355|204:354,2,120,2|2|2,0:2|0:2|0:2,0:2:0:0:
398,321,16255,2,0,P|435:332|472:356,2,80,2|2|2,0:2|0:2|0:2,0:2:0:0:
352,254,17031,6,0,P|319:207|262:158,2,120,2|2|2,0:2|0:2|0:2,0:2:0:0:
425,223,18065,2,0,P|437:185|439:145,1,80,2|2,0:2|0:2,0:2:0:0:
409,71,18582,1,2,0:2:0:0:
334,42,18841,6,0,P|268:28|206:41,2,120,2|2|2,0:2|0:2|0:2,0:2:0:0:
343,121,19875,2,0,L|333:203,2,80,2|2|2,0:2|0:2|0:2,0:2:0:0:
41,331,22462,6,0,B|45:281|35:239|35:239|49:229|60:214,1,120,4|8,3:1|0:0,0:0:0:0:
118,170,23108,2,0,B|138:205|138:205|130:250,2,80,0|2|0,0:0|0:3|0:0,0:0:0:0:
47,72,24013,1,8,0:0:0:0:
126,60,24272,6,0,B|206:67|206:67|238:95,1,120,0|8,3:0|0:0,0:0:0:0:
248,172,24919,2,0,B|217:198|217:198|210:243,1,80,0|2,0:0|0:3,0:0:0:0:
256,309,25436,1,8,0:0:0:0:
256,309,25565,2,0,P|294:317|340:309,1,80,0|8,3:0|0:0,0:0:0:0:
413,295,26082,6,0,P|446:248|434:191,1,120,2|8,3:2|0:0,0:0:0:0:
361,157,26729,2,0,P|386:126|425:110,2,80,0|2|0,0:0|0:3|0:0,0:0:0:0:
328,272,27634,1,8,0:0:0:0:
273,212,27893,6,0,P|255:156|272:100,1,120,0|8,3:0|0:0,0:0:0:0:
332,46,28539,2,0,P|297:23|253:22,1,80
163,92,29186,2,0,P|155:69|139:53,2,40,8|8|0,0:0|0:0|3:0,0:0:0:0:
81,116,29703,6,0,B|100:139|112:168|112:168|145:166|176:176,1,120,4|8,3:1|0:0,0:0:0:0:
247,200,30350,2,0,L|253:117,2,80,0|2|0,0:0|0:3|0:0,0:0:0:0:
238,319,31255,1,8,0:0:0:0:
172,273,31513,6,0,B|116:248|116:248|58:273,1,120,0|8,3:0|0:0,0:0:0:0:
13,207,32160,2,0,L|25:125,1,80,0|2,0:0|0:3,0:0:0:0:
41,49,32677,1,8,0:0:0:0:
41,49,32806,2,0,B|131:47,1,80,0|8,3:0|0:0,0:0:0:0:
201,46,33324,6,0,P|236:86|233:152,1,120,2|8,3:2|0:0,0:0:0:0:
177,206,33970,2,0,P|209:226|250:229,2,80,0|2|0,0:0|0:3|0:0,0:0:0:0:
71,149,34875,1,8,0:0:0:0:
26,215,35134,6,0,P|8:270|31:326,1,120,0|2,3:0|0:3,0:0:0:0:
106,350,35781,1,2,0:3:0:0:
155,287,36039,2,0,P|215:264|274:275,1,120,2|2,0:3|3:2,0:0:0:0:
336,315,36686,2,0,L|331:355,2,40,10|10|4,0:0|0:0|3:1,0:0:0:0:
352,196,37332,6,0,L|371:37,1,159.999980926513,10|2,0:0|3:0,0:0:0:0:
490,20,38237,2,0,L|480:99,1,79.9999904632566,2|10,0:0|0:0,0:0:0:0:
468,179,38755,5,0,3:0:0:0:
424,245,39013,1,2,0:0:0:0:
351,278,39272,2,0,L|346:318,2,40,2|2|2,0:0|0:0|0:0,0:0:0:0:
286,176,39919,2,0,P|244:129|195:90,1,120,8|8,0:0|0:0,0:0:0:0:
120,89,40565,6,0,B|70:122|70:122|66:187,1,119.999985694885,2|10,3:2|0:0,0:0:0:0:
100,254,41212,1,2,0:0:0:0:
165,309,41470,1,2,3:0:0:0:
165,309,41600,2,0,B|257:290|263:360|361:327,1,200,2|8,0:0|0:0,0:0:0:0:
394,309,42375,6,0,L|404:189,1,119.999985694885,0|10,3:0|0:0,0:0:0:0:
406,148,42893,2,0,P|374:108|321:137,1,119.999985694885,2|2,0:0|3:0,0:0:0:0:
316,219,43539,1,8,0:0:0:0:
316,219,43669,2,0,L|312:267,2,40,8|8|2,0:0|0:0|3:2,0:0:0:0:
250,173,44186,6,0,L|86:187,1,159.999980926513,4|2,3:1|0:0,0:0:0:0:
18,283,45091,1,2,3:0:0:0:
18,283,45220,2,0,L|177:269,1,159.999980926513,2|10,0:0|0:0,0:0:0:0:
282,326,46125,6,0,L|276:373,2,39.9999952316283,2|2|10,0:0|0:0|0:0,0:0:0:0:
301,247,46643,2,0,P|338:265|361:305,2,79.9999904632566,0|2|8,0:0|3:0|0:0,0:0:0:0:
193,299,47548,1,10,0:0:0:0:
118,323,47806,6,0,P|65:324|29:271,1,119.999985694885,0|10,3:0|0:0,0:0:0:0:
27,232,48324,2,0,B|60:182|60:182|126:177,1,119.999985694885,2|2,0:0|3:0,0:0:0:0:
204,175,48970,1,2,0:0:0:0:
204,175,49100,2,0,L|199:214,2,39.9999952316283,2|2|10,0:0|0:0|0:0,0:0:0:0:
165,104,49617,6,0,P|107:88|81:32,1,119.999985694885,0|2,3:0|3:0,0:0:0:0:
160,25,50263,1,2,3:0:0:0:
239,35,50522,2,0,B|269:44|285:71|285:71|302:46|335:39,1,120,2|0,3:1|3:0,0:0:0:0:
414,34,51169,2,0,L|471:30,1,40,8|8,0:0|0:0,0:0:0:0:
493,28,51427,6,0,P|505:88|497:155,1,120,4|10,3:1|0:0,0:0:0:0:
474,222,52074,2,0,P|432:221|396:206,1,80,2|2,0:0|3:0,0:0:0:0:
355,138,52591,2,0,P|310:107|247:114,1,120,2|10,0:0|0:0,0:0:0:0:
207,183,53237,6,0,B|156:152|156:152|138:91,1,120,2|10,3:2|0:0,0:0:0:0:
119,16,53884,1,2,0:0:0:0:
39,21,54143,1,2,3:0:0:0:
10,95,54401,2,0,L|15:223,1,120,8|8,0:0|0:0,0:0:0:0:
19,295,55048,6,0,P|57:339|119:348,1,120,2|10,3:2|0:0,0:0:0:0:
188,315,55694,2,0,B|226:303|226:303|266:316,1,80,2|2,0:0|3:0,0:0:0:0:
338,347,56212,2,0,B|385:361|415:332|461:351,1,120,2|10,0:0|0:0,0:0:0:0:
508,287,56858,6,0,P|507:249|437:221,1,120,2|10,3:2|0:0,0:0:0:0:
369,260,57505,1,2,0:0:0:0:
301,217,57763,2,0,P|245:197|186:218,1,120,2|0,0:0|3:0,0:0:0:0:
120,256,58410,2,0,L|67:251,1,40,8|8,0:0|0:0,0:0:0:0:
39,245,58669,6,0,P|22:188|18:129,1,120,4|10,3:1|0:0,0:0:0:0:
39,51,59315,2,0,P|86:61|114:82,1,80,2|2,0:0|3:0,0:0:0:0:
140,153,59832,2,0,P|209:152|264:162,1,120,2|10,0:0|0:0,0:0:0:0:
315,218,60479,6,0,P|374:227|434:225,1,120,2|10,3:2|0:0,0:0:0:0:
497,176,61125,1,2,0:0:0:0:
492,96,61384,1,2,3:0:0:0:
487,16,61643,2,0,P|442:30|412:108,1,120,8|8,0:0|0:0,0:0:0:0:
347,141,62289,6,0,P|319:103|235:100,1,120,2|10,3:2|0:0,0:0:0:0:
187,143,62936,2,0,P|149:162|110:167,1,80,2|2,0:0|3:0,0:0:0:0:
33,152,63453,2,0,B|45:94|45:94|91:55,1,120,2|10,0:0|0:0,0:0:0:0:
164,20,64100,6,0,P|226:20|281:36,1,120,2|2,3:2|0:3,0:0:0:0:
326,102,64746,1,2,0:3:0:0:
374,38,65005,2,0,B|413:30|413:30|487:66,1,120,2|0,0:0|3:0,0:0:0:0:
494,144,65651,2,0,L|492:197,1,40,8|8,0:0|0:0,0:0:0:0:
489,224,65910,6,0,P|424:197|360:184,2,120,4|2|4,3:1|0:3|0:0,0:0:0:0:
489,304,66944,1,8,0:0:0:0:
426,353,67203,1,8,0:0:0:0:
346,361,67462,1,0,3:0:0:0:
271,333,67720,6,0,B|279:277|279:277|284:269|284:269|292:208,2,119.999985694885,4|2|4,3:1|0:3|0:0,0:0:0:0:
192,348,68755,1,8,0:0:0:0:
119,315,69013,2,0,L|109:354,2,40,2|2|2,3:2|3:2|3:2,0:0:0:0:
142,238,69531,6,0,P|86:241|45:285,2,120,4|2|2,3:1|0:3|0:1,0:0:0:0:
216,268,70565,1,8,0:0:0:0:
295,278,70824,1,8,0:0:0:0:
373,261,71082,2,0,L|412:246,1,40,0|2,3:2|3:2,0:0:0:0:
23,160,73151,6,0,P|34:229|57:290,2,120,4|2|4,3:1|0:1|0:0,0:0:0:0:
25,79,74186,1,8,0:0:0:0:
85,26,74444,1,8,0:0:0:0:
164,17,74703,1,0,3:0:0:0:
241,51,74962,6,0,B|226:105|226:105|220:112|220:112|204:172,2,119.999985694885,4|2|2,3:1|0:3|0:1,0:0:0:0:
320,43,75996,1,8,0:0:0:0:
392,77,76255,2,0,L|406:35,2,40,2|2|2,3:2|3:2|3:2,0:0:0:0:
361,150,76772,6,0,B|341:207|341:207|286:229,2,120,4|2|4,3:1|0:3|0:0,0:0:0:0:
288,115,77806,1,8,0:0:0:0:
209,131,78065,1,8,0:0:0:0:
158,192,78324,2,0,L|146:242,1,40,0|2,3:0|3:2,0:0:0:0:
495,192,80393,6,0,P|497:125|454:74,1,120,10|2,0:0|3:0,0:3:0:0:
392,55,81039,1,2,3:0:0:0:
316,78,81298,1,2,3:0:0:0:
261,136,81556,2,0,L|248:261,1,120,2|10,3:0|0:0,0:3:0:0:
238,335,82203,6,0,P|171:350|113:319,1,120,10|2,0:0|3:0,0:3:0:0:
82,263,82849,1,2,3:0:0:0:
18,312,83108,1,10,0:0:0:0:
