osu file format v14

[General]
AudioFilename: audio.mp3
AudioLeadIn: 0
PreviewTime: 333
Countdown: 0
SampleSet: Soft
StackLeniency: 0.7
Mode: 2
LetterboxInBreaks: 0
WidescreenStoryboard: 1

[Editor]
Bookmarks: 26852,79891,91714,106410,119670,146189,152819
DistanceSpacing: 1.4
BeatDivisor: 3
GridSize: 8
TimelineZoom: 0.8000001

[Metadata]
Title:Sutekimeppou
TitleUnicode:素敵滅法
Artist:Satoru Kosaki
ArtistUnicode:神前暁
Creator:Mniam
Version:Salad
Source:化物語
Tags:bakemonogatari classical instrumental foss anime 劇伴音楽集 Gekiban Ongakushuu MONACA Aniplex
BeatmapID:3941729
BeatmapSetID:1910958

[Difficulty]
HPDrainRate:3
CircleSize:2.8
OverallDifficulty:6
ApproachRate:6
SliderMultiplier:1.35
SliderTickRate:0.5

[Events]
//Background and Video events
0,0,"455297.jpg",0,0
//Break Periods
//Storyboard Layer 0 (Background)
//Storyboard Layer 1 (Fail)
//Storyboard Layer 2 (Pass)
//Storyboard Layer 3 (Foreground)
//Storyboard Layer 4 (Overlay)
//Storyboard Sound Samples

[TimingPoints]
336,331.491712707182,5,2,11,80,1,0
336,-41.9254658385093,5,2,11,80,0,0
556,-41.9254658385093,5,2,12,80,0,0
888,-41.9254658385093,5,2,13,80,0,0
998,-41.9254658385093,5,2,14,80,0,0
1330,-41.9254658385093,5,2,15,80,0,0
1661,-41.9254658385093,5,2,16,80,0,0
1993,-41.9254658385093,5,2,11,80,0,0
2213,-41.9254658385093,5,2,12,80,0,0
2545,-41.9254658385093,5,2,13,80,0,0
2655,-41.9254658385093,5,2,14,80,0,0
2987,-41.9254658385093,5,2,15,80,0,0
3318,-41.9254658385093,5,2,16,80,0,0
3650,-41.9254658385093,5,2,11,80,0,0
3870,-41.9254658385093,5,2,12,80,0,0
4202,-41.9254658385093,5,2,13,80,0,0
4312,-41.9254658385093,5,2,14,80,0,0
4644,-41.9254658385093,5,2,15,80,0,0
4975,-41.9254658385093,5,2,16,80,0,0
5308,-41.9254658385093,5,2,11,80,0,0
5528,-41.9254658385093,5,2,12,80,0,0
5860,-41.9254658385093,5,2,13,80,0,0
5970,-41.9254658385093,5,2,14,80,0,0
6302,-41.9254658385093,5,2,15,80,0,0
6633,-41.9254658385093,5,2,16,80,0,0
6965,-41.9254658385093,5,2,11,80,0,0
7185,-41.9254658385093,5,2,12,80,0,0
7517,-41.9254658385093,5,2,13,80,0,0
7627,-41.9254658385093,5,2,14,80,0,0
7959,-41.9254658385093,5,2,15,80,0,0
8290,-41.9254658385093,5,2,16,80,0,0
8623,-41.9254658385093,5,2,11,80,0,0
8843,-41.9254658385093,5,2,12,80,0,0
9175,-41.9254658385093,5,2,13,80,0,0
9285,-41.9254658385093,5,2,14,80,0,0
9617,-41.9254658385093,5,2,15,80,0,0
9948,-41.9254658385093,5,2,16,80,0,0
10280,-41.9254658385093,5,2,11,80,0,0
10500,-41.9254658385093,5,2,12,80,0,0
10832,-41.9254658385093,5,2,13,80,0,0
10942,-41.9254658385093,5,2,14,80,0,0
11274,-41.9254658385093,5,2,15,80,0,0
11605,-41.9254658385093,5,2,16,80,0,0
11938,-41.9254658385093,5,2,11,80,0,0
12158,-41.9254658385093,5,2,12,80,0,0
12490,-41.9254658385093,5,2,13,80,0,0
12600,-41.9254658385093,5,2,14,80,0,0
12932,-41.9254658385093,5,2,15,80,0,0
13263,-41.9254658385093,5,2,16,80,0,0
13595,-41.9254658385093,5,2,11,80,0,0
13815,-41.9254658385093,5,2,12,80,0,0
14147,-41.9254658385093,5,2,13,80,0,0
14257,-41.9254658385093,5,2,14,80,0,0
14589,-41.9254658385093,5,2,15,80,0,0
14920,-41.9254658385093,5,2,16,80,0,0
15253,-41.9254658385093,5,2,11,80,0,0
15473,-41.9254658385093,5,2,12,80,0,0
15805,-41.9254658385093,5,2,13,80,0,0
15915,-41.9254658385093,5,2,14,80,0,0
16247,-41.9254658385093,5,2,15,80,0,0
16578,-41.9254658385093,5,2,16,80,0,0
16910,-41.9254658385093,5,2,11,80,0,0
17130,-41.9254658385093,5,2,12,80,0,0
17462,-41.9254658385093,5,2,13,80,0,0
17572,-41.9254658385093,5,2,14,80,0,0
17904,-41.9254658385093,5,2,15,80,0,0
18235,-41.9254658385093,5,2,16,80,0,0
18568,-41.9254658385093,5,2,11,80,0,0
18788,-41.9254658385093,5,2,12,80,0,0
19120,-41.9254658385093,5,2,13,80,0,0
19230,-41.9254658385093,5,2,14,80,0,0
19562,-41.9254658385093,5,2,15,80,0,0
19893,-41.9254658385093,5,2,16,80,0,0
20225,-41.9254658385093,5,2,11,80,0,0
20445,-41.9254658385093,5,2,12,80,0,0
20777,-41.9254658385093,5,2,13,80,0,0
20887,-41.9254658385093,5,2,14,80,0,0
21219,-41.9254658385093,5,2,15,80,0,0
21550,-41.9254658385093,5,2,16,80,0,0
21882,-41.9254658385093,5,2,11,80,0,0
22102,-41.9254658385093,5,2,12,80,0,0
22434,-41.9254658385093,5,2,13,80,0,0
22544,-41.9254658385093,5,2,14,80,0,0
22876,-41.9254658385093,5,2,15,80,0,0
23207,-41.9254658385093,5,2,16,80,0,0
23540,-41.9254658385093,5,2,11,80,0,0
23760,-41.9254658385093,5,2,12,80,0,0
24092,-41.9254658385093,5,2,13,80,0,0
24202,-41.9254658385093,5,2,14,80,0,0
24534,-41.9254658385093,5,2,15,80,0,0
24865,-41.9254658385093,5,2,16,80,0,0
25197,-41.9254658385093,5,2,11,80,0,0
25417,-41.9254658385093,5,2,12,80,0,0
25749,-41.9254658385093,5,2,13,80,0,0
25859,-41.9254658385093,5,2,14,80,0,0
26191,-41.9254658385093,5,2,15,80,0,0
26522,-41.9254658385093,5,2,16,80,0,0
26855,-41.9254658385093,5,2,17,80,0,0
27076,-41.9254658385093,5,2,12,80,0,0
27407,-41.9254658385093,5,2,13,80,0,0
27518,-41.9254658385093,5,2,14,80,0,0
27849,-41.9254658385093,5,2,15,80,0,0
28181,-41.9254658385093,5,2,16,80,0,0
28512,-41.9254658385093,5,2,18,80,0,0
28733,-41.9254658385093,5,2,12,80,0,0
29064,-41.9254658385093,5,2,13,80,0,0
29175,-41.9254658385093,5,2,14,80,0,0
29506,-41.9254658385093,5,2,15,80,0,0
29838,-41.9254658385093,5,2,16,80,0,0
30170,-41.9254658385093,5,2,19,80,0,0
30391,-41.9254658385093,5,2,12,80,0,0
30722,-41.9254658385093,5,2,13,80,0,0
30833,-41.9254658385093,5,2,14,80,0,0
31164,-41.9254658385093,5,2,15,80,0,0
31496,-41.9254658385093,5,2,16,80,0,0
31827,-41.9254658385093,5,2,11,80,0,0
32047,-41.9254658385093,5,2,12,80,0,0
32379,-41.9254658385093,5,2,13,80,0,0
32489,-41.9254658385093,5,2,14,80,0,0
32821,-41.9254658385093,5,2,15,80,0,0
33043,-41.9254658385093,5,2,20,80,0,0
33152,-41.9254658385093,5,2,16,80,0,0
33485,-41.9254658385093,5,2,17,80,0,0
33706,-41.9254658385093,5,2,12,80,0,0
34037,-41.9254658385093,5,2,13,80,0,0
34148,-41.9254658385093,5,2,14,80,0,0
34479,-41.9254658385093,5,2,15,80,0,0
34811,-41.9254658385093,5,2,16,80,0,0
35142,-41.9254658385093,5,2,18,80,0,0
35363,-41.9254658385093,5,2,12,80,0,0
35694,-41.9254658385093,5,2,13,80,0,0
35805,-41.9254658385093,5,2,14,80,0,0
36136,-41.9254658385093,5,2,15,80,0,0
36468,-41.9254658385093,5,2,16,80,0,0
36800,-41.9254658385093,5,2,19,80,0,0
37021,-41.9254658385093,5,2,12,80,0,0
37352,-41.9254658385093,5,2,13,80,0,0
37463,-41.9254658385093,5,2,14,80,0,0
37794,-41.9254658385093,5,2,15,80,0,0
38126,-41.9254658385093,5,2,16,80,0,0
38457,-41.9254658385093,5,2,11,80,0,0
38677,-41.9254658385093,5,2,12,80,0,0
39009,-41.9254658385093,5,2,13,80,0,0
39119,-41.9254658385093,5,2,14,80,0,0
39451,-41.9254658385093,5,2,15,80,0,0
39673,-41.9254658385093,5,2,20,80,0,0
39782,-41.9254658385093,5,2,16,80,0,0
40115,-41.9254658385093,5,2,17,80,0,0
40336,-41.9254658385093,5,2,12,80,0,0
40667,-41.9254658385093,5,2,13,80,0,0
40778,-41.9254658385093,5,2,14,80,0,0
41109,-41.9254658385093,5,2,15,80,0,0
41441,-41.9254658385093,5,2,16,80,0,0
41772,-41.9254658385093,5,2,18,80,0,0
41993,-41.9254658385093,5,2,12,80,0,0
42324,-41.9254658385093,5,2,13,80,0,0
42435,-41.9254658385093,5,2,14,80,0,0
42766,-41.9254658385093,5,2,15,80,0,0
43098,-41.9254658385093,5,2,16,80,0,0
43430,-41.9254658385093,5,2,19,80,0,0
43651,-41.9254658385093,5,2,12,80,0,0
43982,-41.9254658385093,5,2,13,80,0,0
44093,-41.9254658385093,5,2,14,80,0,0
44424,-41.9254658385093,5,2,15,80,0,0
44756,-41.9254658385093,5,2,16,80,0,0
45087,-41.9254658385093,5,2,11,80,0,0
45307,-41.9254658385093,5,2,12,80,0,0
45639,-41.9254658385093,5,2,13,80,0,0
45749,-41.9254658385093,5,2,14,80,0,0
46081,-41.9254658385093,5,2,15,80,0,0
46303,-41.9254658385093,5,2,20,80,0,0
46412,-41.9254658385093,5,2,16,80,0,0
46744,-41.9254658385093,5,2,17,80,0,0
46965,-41.9254658385093,5,2,12,80,0,0
47296,-41.9254658385093,5,2,13,80,0,0
47407,-41.9254658385093,5,2,14,80,0,0
47738,-41.9254658385093,5,2,15,80,0,0
48070,-41.9254658385093,5,2,16,80,0,0
48401,-41.9254658385093,5,2,18,80,0,0
48622,-41.9254658385093,5,2,12,80,0,0
48953,-41.9254658385093,5,2,13,80,0,0
49064,-41.9254658385093,5,2,14,80,0,0
49395,-41.9254658385093,5,2,15,80,0,0
49727,-41.9254658385093,5,2,16,80,0,0
50059,-41.9254658385093,5,2,19,80,0,0
50280,-41.9254658385093,5,2,12,80,0,0
50611,-41.9254658385093,5,2,13,80,0,0
50722,-41.9254658385093,5,2,14,80,0,0
51053,-41.9254658385093,5,2,15,80,0,0
51385,-41.9254658385093,5,2,16,80,0,0
51716,-41.9254658385093,5,2,11,80,0,0
51936,-41.9254658385093,5,2,12,80,0,0
52268,-41.9254658385093,5,2,13,80,0,0
52378,-41.9254658385093,5,2,14,80,0,0
52710,-41.9254658385093,5,2,15,80,0,0
52932,-41.9254658385093,5,2,20,80,0,0
53041,-41.9254658385093,5,2,16,80,0,0
53374,-41.9254658385093,5,2,17,80,0,0
53595,-41.9254658385093,5,2,12,80,0,0
53926,-41.9254658385093,5,2,13,80,0,0
54037,-41.9254658385093,5,2,14,80,0,0
54368,-41.9254658385093,5,2,15,80,0,0
54700,-41.9254658385093,5,2,16,80,0,0
55031,-41.9254658385093,5,2,18,80,0,0
55252,-41.9254658385093,5,2,12,80,0,0
55583,-41.9254658385093,5,2,13,80,0,0
55694,-41.9254658385093,5,2,14,80,0,0
56025,-41.9254658385093,5,2,15,80,0,0
56357,-41.9254658385093,5,2,16,80,0,0
56689,-41.9254658385093,5,2,19,80,0,0
56910,-41.9254658385093,5,2,12,80,0,0
57241,-41.9254658385093,5,2,13,80,0,0
57352,-41.9254658385093,5,2,14,80,0,0
57683,-41.9254658385093,5,2,15,80,0,0
58015,-41.9254658385093,5,2,16,80,0,0
58346,-41.9254658385093,5,2,11,80,0,0
58566,-41.9254658385093,5,2,12,80,0,0
58898,-41.9254658385093,5,2,13,80,0,0
59008,-41.9254658385093,5,2,14,80,0,0
59340,-41.9254658385093,5,2,15,80,0,0
59562,-41.9254658385093,5,2,20,80,0,0
59671,-41.9254658385093,5,2,16,80,0,0
60004,-41.9254658385093,5,2,17,80,0,0
60225,-41.9254658385093,5,2,12,80,0,0
60556,-41.9254658385093,5,2,13,80,0,0
60667,-41.9254658385093,5,2,14,80,0,0
60998,-41.9254658385093,5,2,15,80,0,0
61330,-41.9254658385093,5,2,16,80,0,0
61661,-41.9254658385093,5,2,18,80,0,0
61882,-41.9254658385093,5,2,12,80,0,0
62213,-41.9254658385093,5,2,13,80,0,0
62324,-41.9254658385093,5,2,14,80,0,0
62655,-41.9254658385093,5,2,15,80,0,0
62987,-41.9254658385093,5,2,16,80,0,0
63319,-41.9254658385093,5,2,19,80,0,0
63540,-41.9254658385093,5,2,12,80,0,0
63871,-41.9254658385093,5,2,13,80,0,0
63982,-41.9254658385093,5,2,14,80,0,0
64313,-41.9254658385093,5,2,15,80,0,0
64645,-41.9254658385093,5,2,16,80,0,0
64976,-41.9254658385093,5,2,11,80,0,0
65196,-41.9254658385093,5,2,12,80,0,0
65528,-41.9254658385093,5,2,13,80,0,0
65638,-41.9254658385093,5,2,14,80,0,0
65970,-41.9254658385093,5,2,15,80,0,0
66192,-41.9254658385093,5,2,20,80,0,0
66301,-41.9254658385093,5,2,16,80,0,0
66634,-41.9254658385093,5,2,17,80,0,0
66855,-41.9254658385093,5,2,12,80,0,0
67186,-41.9254658385093,5,2,13,80,0,0
67297,-41.9254658385093,5,2,14,80,0,0
67628,-41.9254658385093,5,2,15,80,0,0
67960,-41.9254658385093,5,2,16,80,0,0
68291,-41.9254658385093,5,2,18,80,0,0
68512,-41.9254658385093,5,2,12,80,0,0
68843,-41.9254658385093,5,2,13,80,0,0
68954,-41.9254658385093,5,2,14,80,0,0
69285,-41.9254658385093,5,2,15,80,0,0
69617,-41.9254658385093,5,2,16,80,0,0
69949,-41.9254658385093,5,2,19,80,0,0
70170,-41.9254658385093,5,2,12,80,0,0
70501,-41.9254658385093,5,2,13,80,0,0
70612,-41.9254658385093,5,2,14,80,0,0
70943,-41.9254658385093,5,2,15,80,0,0
71275,-41.9254658385093,5,2,16,80,0,0
71606,-41.9254658385093,5,2,11,80,0,0
71826,-41.9254658385093,5,2,12,80,0,0
72158,-41.9254658385093,5,2,13,80,0,0
72268,-41.9254658385093,5,2,14,80,0,0
72600,-41.9254658385093,5,2,15,80,0,0
72822,-41.9254658385093,5,2,20,80,0,0
72931,-41.9254658385093,5,2,16,80,0,0
73264,-41.9254658385093,5,2,17,80,0,0
73485,-41.9254658385093,5,2,12,80,0,0
73816,-41.9254658385093,5,2,13,80,0,0
73927,-41.9254658385093,5,2,14,80,0,0
74258,-41.9254658385093,5,2,15,80,0,0
74590,-41.9254658385093,5,2,16,80,0,0
74921,-41.9254658385093,5,2,18,80,0,0
75142,-41.9254658385093,5,2,12,80,0,0
75473,-41.9254658385093,5,2,13,80,0,0
75584,-41.9254658385093,5,2,14,80,0,0
75915,-41.9254658385093,5,2,15,80,0,0
76247,-41.9254658385093,5,2,16,80,0,0
76579,-41.9254658385093,5,2,19,80,0,0
76800,-41.9254658385093,5,2,12,80,0,0
77131,-41.9254658385093,5,2,13,80,0,0
77242,-41.9254658385093,5,2,14,80,0,0
77573,-41.9254658385093,5,2,15,80,0,0
77905,-41.9254658385093,5,2,16,80,0,0
78236,-41.9254658385093,5,2,11,80,0,0
78456,-41.9254658385093,5,2,12,80,0,0
78788,-41.9254658385093,5,2,13,80,0,0
78898,-41.9254658385093,5,2,14,80,0,0
79230,-41.9254658385093,5,2,15,80,0,0
79452,-41.9254658385093,5,2,20,80,0,0
79561,-41.9254658385093,5,2,16,80,0,0
79894,-41.9254658385093,5,2,21,80,0,0
80115,-41.9254658385093,5,2,12,80,0,0
80225,-41.9254658385093,5,2,22,80,0,0
80556,-41.9254658385093,5,2,14,80,0,0
81219,-41.9254658385093,5,2,16,80,0,0
81551,-41.9254658385093,5,2,23,80,0,0
81772,-41.9254658385093,5,2,12,80,0,0
81882,-41.9254658385093,5,2,22,80,0,0
82213,-41.9254658385093,5,2,14,80,0,0
82876,-41.9254658385093,5,2,16,80,0,0
83208,-41.9254658385093,5,2,24,80,0,0
83429,-41.9254658385093,5,2,12,80,0,0
83870,-41.9254658385093,5,2,14,80,0,0
84533,-41.9254658385093,5,2,16,80,0,0
85087,-41.9254658385093,5,2,12,80,0,0
85529,-41.9254658385093,5,2,14,80,0,0
86081,-41.9254658385093,5,2,20,80,0,0
86192,-41.9254658385093,5,2,16,80,0,0
86523,-41.9254658385093,5,2,21,80,0,0
86744,-41.9254658385093,5,2,12,80,0,0
86854,-41.9254658385093,5,2,22,80,0,0
87185,-41.9254658385093,5,2,14,80,0,0
87848,-41.9254658385093,5,2,16,80,0,0
88180,-41.9254658385093,5,2,23,80,0,0
88401,-41.9254658385093,5,2,12,80,0,0
88511,-41.9254658385093,5,2,22,80,0,0
88842,-41.9254658385093,5,2,14,80,0,0
89505,-41.9254658385093,5,2,16,80,0,0
89837,-41.9254658385093,5,2,24,80,0,0
90058,-41.9254658385093,5,2,12,80,0,0
90499,-41.9254658385093,5,2,14,80,0,0
91162,-41.9254658385093,5,2,16,80,0,0
91716,-41.9254658385093,5,2,12,80,0,0
92158,-41.9254658385093,5,2,14,80,0,0
92710,-41.9254658385093,5,2,25,80,0,0
93153,-41.9254658385093,5,2,21,80,0,0
93485,-41.9254658385093,5,2,22,80,0,0
93706,-41.9254658385093,5,2,12,80,0,0
94148,-41.9254658385093,5,2,14,80,0,0
94700,-41.9254658385093,5,2,12,80,0,0
94811,-41.9254658385093,5,2,23,80,0,0
95142,-41.9254658385093,5,2,26,80,0,0
95695,-41.9254658385093,5,2,12,80,0,0
96137,-41.9254658385093,5,2,14,80,0,0
96468,-41.9254658385093,5,2,24,80,0,0
96689,-41.9254658385093,5,2,12,80,0,0
97131,-41.9254658385093,5,2,14,80,0,0
97684,-41.9254658385093,5,2,12,80,0,0
98126,-41.9254658385093,5,2,14,80,0,0
98678,-41.9254658385093,5,2,12,80,0,0
99120,-41.9254658385093,5,2,14,80,0,0
99341,-41.9254658385093,5,2,20,80,0,0
99673,-41.9254658385093,5,2,12,80,0,0
99783,-41.9254658385093,5,2,21,80,0,0
100115,-41.9254658385093,5,2,26,80,0,0
100667,-41.9254658385093,5,2,12,80,0,0
101109,-41.9254658385093,5,2,14,80,0,0
101440,-41.9254658385093,5,2,23,80,0,0
101661,-41.9254658385093,5,2,12,80,0,0
101772,-41.9254658385093,5,2,22,80,0,0
102103,-41.9254658385093,5,2,14,80,0,0
102656,-41.9254658385093,5,2,12,80,0,0
103098,-41.9254658385093,5,2,27,80,0,0
103650,-41.9254658385093,5,2,12,80,0,0
104092,-41.9254658385093,5,2,14,80,0,0
104645,-41.9254658385093,5,2,12,80,0,0
105087,-41.9254658385093,5,2,28,80,0,0
105971,-41.9254658385093,5,2,20,80,0,0
106413,-41.9254658385093,5,2,17,80,0,0
106634,-41.9254658385093,5,2,12,80,0,0
106744,-41.9254658385093,5,2,22,80,0,0
106965,-41.9254658385093,5,2,13,80,0,0
107076,-41.9254658385093,5,2,14,80,0,0
107407,-41.9254658385093,5,2,15,80,0,0
107739,-41.9254658385093,5,2,16,80,0,0
108070,-41.9254658385093,5,2,11,80,0,0
108291,-41.9254658385093,5,2,12,80,0,0
108622,-41.9254658385093,5,2,13,80,0,0
108733,-41.9254658385093,5,2,14,80,0,0
109064,-41.9254658385093,5,2,15,80,0,0
109396,-41.9254658385093,5,2,16,80,0,0
109728,-41.9254658385093,5,2,11,80,0,0
109949,-41.9254658385093,5,2,12,80,0,0
110280,-41.9254658385093,5,2,13,80,0,0
110391,-41.9254658385093,5,2,14,80,0,0
110722,-41.9254658385093,5,2,15,80,0,0
111054,-41.9254658385093,5,2,16,80,0,0
111385,-41.9254658385093,5,2,11,80,0,0
111606,-41.9254658385093,5,2,12,80,0,0
111937,-41.9254658385093,5,2,13,80,0,0
112048,-41.9254658385093,5,2,14,80,0,0
112379,-41.9254658385093,5,2,15,80,0,0
112711,-41.9254658385093,5,2,16,80,0,0
113043,-41.9254658385093,5,2,11,80,0,0
113264,-41.9254658385093,5,2,12,80,0,0
113595,-41.9254658385093,5,2,13,80,0,0
113706,-41.9254658385093,5,2,14,80,0,0
114037,-41.9254658385093,5,2,15,80,0,0
114369,-41.9254658385093,5,2,16,80,0,0
114700,-41.9254658385093,5,2,11,80,0,0
114921,-41.9254658385093,5,2,12,80,0,0
115252,-41.9254658385093,5,2,13,80,0,0
115363,-41.9254658385093,5,2,14,80,0,0
115694,-41.9254658385093,5,2,15,80,0,0
116026,-41.9254658385093,5,2,16,80,0,0
116358,-41.9254658385093,5,2,11,80,0,0
116579,-41.9254658385093,5,2,12,80,0,0
116910,-41.9254658385093,5,2,13,80,0,0
117021,-41.9254658385093,5,2,14,80,0,0
117352,-41.9254658385093,5,2,15,80,0,0
117684,-41.9254658385093,5,2,16,80,0,0
118015,-41.9254658385093,5,2,11,80,0,0
118236,-41.9254658385093,5,2,12,80,0,0
118567,-41.9254658385093,5,2,13,80,0,0
118678,-41.9254658385093,5,2,14,80,0,0
119009,-41.9254658385093,5,2,15,80,0,0
119341,-41.9254658385093,5,2,16,80,0,0
119673,-41.9254658385093,5,2,29,80,0,0
119894,-41.9254658385093,5,2,12,80,0,0
120225,-41.9254658385093,5,2,13,80,0,0
120335,-41.9254658385093,5,2,14,80,0,0
120667,-41.9254658385093,5,2,30,80,0,0
120998,-41.9254658385093,5,2,16,80,0,0
121330,-41.9254658385093,5,2,31,80,0,0
121551,-41.9254658385093,5,2,12,80,0,0
121882,-41.9254658385093,5,2,13,80,0,0
121993,-41.9254658385093,5,2,14,80,0,0
122324,-41.9254658385093,5,2,32,80,0,0
122656,-41.9254658385093,5,2,16,80,0,0
122987,-41.9254658385093,5,2,17,80,0,0
123208,-41.9254658385093,5,2,12,80,0,0
123540,-41.9254658385093,5,2,13,80,0,0
123650,-41.9254658385093,5,2,14,80,0,0
123982,-41.9254658385093,5,2,15,80,0,0
124313,-41.9254658385093,5,2,16,80,0,0
124645,-41.9254658385093,5,2,11,80,0,0
124866,-41.9254658385093,5,2,12,80,0,0
125197,-41.9254658385093,5,2,13,80,0,0
125308,-41.9254658385093,5,2,14,80,0,0
125639,-41.9254658385093,5,2,15,80,0,0
125971,-41.9254658385093,5,2,16,80,0,0
126302,-41.9254658385093,5,2,29,80,0,0
126523,-41.9254658385093,5,2,12,80,0,0
126854,-41.9254658385093,5,2,13,80,0,0
126964,-41.9254658385093,5,2,14,80,0,0
127296,-41.9254658385093,5,2,30,80,0,0
127627,-41.9254658385093,5,2,16,80,0,0
127959,-41.9254658385093,5,2,31,80,0,0
128180,-41.9254658385093,5,2,12,80,0,0
128511,-41.9254658385093,5,2,13,80,0,0
128622,-41.9254658385093,5,2,14,80,0,0
128953,-41.9254658385093,5,2,32,80,0,0
129285,-41.9254658385093,5,2,16,80,0,0
129616,-41.9254658385093,5,2,17,80,0,0
129837,-41.9254658385093,5,2,12,80,0,0
130169,-41.9254658385093,5,2,13,80,0,0
130279,-41.9254658385093,5,2,14,80,0,0
130611,-41.9254658385093,5,2,15,80,0,0
130942,-41.9254658385093,5,2,16,80,0,0
131274,-41.9254658385093,5,2,11,80,0,0
131495,-41.9254658385093,5,2,12,80,0,0
131826,-41.9254658385093,5,2,13,80,0,0
131937,-41.9254658385093,5,2,14,80,0,0
132268,-41.9254658385093,5,2,15,80,0,0
132600,-41.9254658385093,5,2,16,80,0,0
132932,-41.9254658385093,5,2,29,80,0,0
133153,-41.9254658385093,5,2,12,80,0,0
133484,-41.9254658385093,5,2,13,80,0,0
133594,-41.9254658385093,5,2,14,80,0,0
133926,-41.9254658385093,5,2,30,80,0,0
134257,-41.9254658385093,5,2,16,80,0,0
134589,-41.9254658385093,5,2,31,80,0,0
134810,-41.9254658385093,5,2,12,80,0,0
135141,-41.9254658385093,5,2,13,80,0,0
135252,-41.9254658385093,5,2,14,80,0,0
135583,-41.9254658385093,5,2,32,80,0,0
135915,-41.9254658385093,5,2,16,80,0,0
136246,-41.9254658385093,5,2,17,80,0,0
136467,-41.9254658385093,5,2,12,80,0,0
136799,-41.9254658385093,5,2,13,80,0,0
136909,-41.9254658385093,5,2,14,80,0,0
137241,-41.9254658385093,5,2,15,80,0,0
137572,-41.9254658385093,5,2,16,80,0,0
137904,-41.9254658385093,5,2,11,80,0,0
138125,-41.9254658385093,5,2,12,80,0,0
138456,-41.9254658385093,5,2,13,80,0,0
138567,-41.9254658385093,5,2,14,80,0,0
138898,-41.9254658385093,5,2,15,80,0,0
139230,-41.9254658385093,5,2,16,80,0,0
139562,-41.9254658385093,5,2,29,80,0,0
139783,-41.9254658385093,5,2,12,80,0,0
140114,-41.9254658385093,5,2,13,80,0,0
140224,-41.9254658385093,5,2,14,80,0,0
140556,-41.9254658385093,5,2,30,80,0,0
140887,-41.9254658385093,5,2,16,80,0,0
141219,-41.9254658385093,5,2,31,80,0,0
141440,-41.9254658385093,5,2,12,80,0,0
141771,-41.9254658385093,5,2,13,80,0,0
141882,-41.9254658385093,5,2,14,80,0,0
142213,-41.9254658385093,5,2,32,80,0,0
142545,-41.9254658385093,5,2,16,80,0,0
142876,-41.9254658385093,5,2,17,80,0,0
143097,-41.9254658385093,5,2,12,80,0,0
143429,-41.9254658385093,5,2,13,80,0,0
143539,-41.9254658385093,5,2,14,80,0,0
143871,-41.9254658385093,5,2,15,80,0,0
144202,-41.9254658385093,5,2,16,80,0,0
144534,-41.9254658385093,5,2,11,80,0,0
144755,-41.9254658385093,5,2,12,80,0,0
145086,-41.9254658385093,5,2,13,80,0,0
145197,-41.9254658385093,5,2,14,80,0,0
145528,-41.9254658385093,5,2,15,80,0,0
145860,-41.9254658385093,5,2,16,80,0,0
146192,-41.9254658385093,5,2,33,80,0,0
146523,-41.9254658385093,5,2,34,80,0,0

[Colours]
Combo1 : 255,0,0
Combo2 : 0,255,64
Combo3 : 0,255,255
Combo4 : 255,128,64
Combo5 : 255,255,0
Combo6 : 128,128,255

[HitObjects]
76,192,336,6,0,L|113:243|113:243|136:301|136:301|156:360|156:360|170:299|170:299|195:241|195:241|233:191|233:191|260:134|260:134|301:45|301:45,1,536.666666666667,2|2,1:2|0:0,0:0:0:0:
301,192,998,1,10,0:0:0:0:
301,192,1330,2,0,L|281:261|281:261|246:324|246:324|219:258|219:258|166:165|166:165,1,322,2|2,1:2|0:0,0:0:0:0:
436,192,1993,2,0,L|412:250|412:250|373:299|373:299|354:359|354:359|337:299|337:299|301:248|301:248|292:186|292:186|258:133|258:133|211:47|211:47,1,536.666666666667,2|2,1:2|0:0,0:0:0:0:
211,192,2656,1,10,0:0:0:0:
211,192,2987,2,0,L|228:262|228:262|258:327|258:327|292:264|292:264|346:172|346:172,1,322,2|2,1:2|0:0,0:0:0:0:
76,192,3650,6,0,L|108:246|108:246|141:300|141:300|145:363|145:363|184:314|184:314|204:255|204:255|244:207|244:207|262:147|262:147|301:57|301:57,1,536.666666666667,2|2,1:2|0:0,0:0:0:0:
301,192,4313,1,10,0:0:0:0:
301,192,4645,2,0,L|271:257|271:257|230:316|230:316|221:245|221:245|166:154|166:154,1,322,2|2,1:2|0:0,0:0:0:0:
436,192,5308,2,0,L|423:253|423:253|395:309|395:309|347:350|347:350|318:294|318:294|305:233|305:233|283:174|283:174|252:120|252:120|211:31|211:31,1,536.666666666667,2|2,1:2|0:0,0:0:0:0:
211,192,5971,1,10,0:0:0:0:
211,192,6302,2,0,L|227:262|227:262|275:315|275:315|298:383|298:383|346:288|346:288,1,322,2|2,1:2|0:0,0:0:0:0:
76,192,6965,6,0,L|93:252|93:252|116:310|116:310|142:367|142:367|170:311|170:311|195:253|195:253|227:199|227:199|272:155|272:155|301:62|301:62,1,536.666666666667,2|2,1:2|0:0,0:0:0:0:
301,192,7628,1,10,0:0:0:0:
301,192,7960,2,0,L|267:255|267:255|249:324|249:324|221:258|221:258|166:167|166:167,1,322,2|2,1:2|0:0,0:0:0:0:
436,192,8623,2,0,L|396:240|396:240|389:302|389:302|345:347|345:347|329:286|329:286|311:226|311:226|277:173|277:173|259:113|259:113|211:28|211:28,1,536.666666666667,2|2,1:2|0:0,0:0:0:0:
211,192,9286,1,10,0:0:0:0:
211,192,9617,2,0,L|241:257|241:257|284:315|284:315|313:381|313:381|346:280|346:280,1,322,2|2,1:2|0:0,0:0:0:0:
76,192,10280,6,0,L|96:251|96:251|138:298|138:298|169:352|169:352|184:291|184:291|215:236|215:236|228:175|228:175|261:122|261:122|301:33|301:33,1,536.666666666667,2|2,1:2|0:0,0:0:0:0:
301,192,10943,1,10,0:0:0:0:
301,192,11275,2,0,L|258:250|258:250|253:322|253:322|207:377|207:377|166:278|166:278,1,322,2|2,1:2|0:0,0:0:0:0:
436,192,11938,2,0,L|395:240|395:240|376:300|376:300|350:357|350:357|328:298|328:298|299:242|299:242|266:189|266:189|262:126|262:126|211:43|211:43,1,536.666666666667,2|2,1:2|0:0,0:0:0:0:
211,192,12601,1,10,0:0:0:0:
211,192,12932,2,0,L|243:256|243:256|278:319|278:319|298:250|298:250|346:155|346:155,1,322,2|2,1:2|0:0,0:0:0:0:
76,192,13595,6,0,L|96:252|96:252|126:307|126:307|162:359|162:359|188:302|188:302|202:241|202:241|223:182|223:182|255:128|255:128|301:42|301:42,1,536.666666666667,2|2,1:2|0:0,0:0:0:0:
301,192,14258,1,10,0:0:0:0:
301,192,14590,2,0,L|262:252|262:252|239:320|239:320|224:250|224:250|166:160|166:160,1,322,2|2,1:2|0:0,0:0:0:0:
436,192,15253,2,0,L|422:253|422:253|381:301|381:301|351:356|351:356|335:295|335:295|302:241|302:241|279:183|279:183|239:135|239:135|211:41|211:41,1,536.666666666667,2|2,1:2|0:0,0:0:0:0:
211,192,15916,1,10,0:0:0:0:
211,192,16247,2,0,L|253:250|253:250|263:321|263:321|315:371|315:371|346:269|346:269,1,322,2|2,1:2|0:0,0:0:0:0:
76,192,16910,6,0,L|97:251|97:251|120:309|120:309|161:357|161:357|186:299|186:299|207:240|207:240|229:181|229:181|271:134|271:134|301:41|301:41,1,536.666666666667,2|2,1:2|0:0,0:0:0:0:
301,192,17573,1,10,0:0:0:0:
301,192,17905,2,0,L|265:254|265:254|233:318|233:318|216:248|216:248|166:154|166:154,1,322,2|2,1:2|0:0,0:0:0:0:
436,192,18568,2,0,L|407:247|407:247|374:301|374:301|360:362|360:362|330:307|330:307|314:246|314:246|276:196|276:196|238:146|238:146|211:52|211:52,1,536.666666666667,2|2,1:2|0:0,0:0:0:0:
211,192,19231,1,10,0:0:0:0:
211,192,19562,2,0,L|243:256|243:256|271:322|271:322|314:379|314:379|346:277|346:277,1,322,2|2,1:2|0:0,0:0:0:0:
76,192,20225,6,0,L|112:243|112:243|129:303|129:303|142:364|142:364|172:309|172:309|199:252|199:252|235:200|235:200|247:139|247:139|301:58|301:58,1,536.666666666667,2|2,1:2|0:0,0:0:0:0:
301,192,20888,1,10,0:0:0:0:
301,192,21219,2,0,L|277:260|277:260|230:314|230:314|220:385|220:385|166:293|166:293,1,322,2|2,1:2|0:0,0:0:0:0:
436,192,21882,2,0,L|417:252|417:252|380:303|380:303|365:364|365:364|319:322|319:322|313:260|313:260|278:208|278:208|261:148|261:148|211:64|211:64,1,536.666666666667,2|2,1:2|0:0,0:0:0:0:
211,192,22545,1,10,0:0:0:0:
211,192,22877,2,0,L|245:255|245:255|276:320|276:320|307:385|307:385|346:286|346:286,1,322,2|2,1:2|0:0,0:0:0:0:
76,192,23540,6,0,L|105:247|105:247|132:304|132:304|144:365|144:365|179:313|179:313|216:262|216:262|242:205|242:205|271:149|271:149|301:56|301:56,1,536.666666666667,2|2,1:2|0:0,0:0:0:0:
301,192,24203,1,10,0:0:0:0:
301,192,24534,2,0,L|273:258|273:258|239:321|239:321|224:251|224:251|166:161|166:161,1,322,2|2,1:2|0:0,0:0:0:0:
436,192,25197,2,0,L|410:249|410:249|374:300|374:300|359:361|359:361|319:313|319:313|311:251|311:251|286:194|286:194|262:136|262:136|211:53|211:53,1,536.666666666667,2|2,1:2|0:0,0:0:0:0:
211,192,25860,1,10,0:0:0:0:
211,192,26192,2,0,L|228:262|228:262|264:324|264:324|287:256|287:256|346:167|346:167,1,322,2|2,1:2|0:0,0:0:0:0:
76,192,26855,6,0,L|126:267|126:267|166:385|166:385,1,214.666666666667,6|2,1:2|0:0,0:0:0:0:
31,192,27407,1,2,0:0:0:0:
31,192,27518,2,0,L|65:255|65:255|87:323|87:323|112:256|112:256|166:164|166:164,1,322,10|2,0:0|1:2,0:0:0:0:
31,192,28181,1,2,0:0:0:0:
300,189,28512,2,0,L|271:274|271:274|210:383|210:383,1,214.666666666667,6|2,1:2|0:0,0:0:0:0:
345,189,29065,1,2,0:0:0:0:
345,189,29175,2,0,L|325:258|325:258|298:325|298:325|252:380|252:380|210:282|210:282,1,322,10|2,0:0|1:2,0:0:0:0:
345,189,29838,1,2,0:0:0:0:
76,192,30170,6,0,L|123:268|123:268|166:385|166:385,1,214.666666666667,6|2,1:2|0:0,0:0:0:0:
31,192,30722,1,2,0:0:0:0:
31,192,30833,2,0,L|57:259|57:259|81:326|81:326|128:380|128:380|166:280|166:280,1,322,10|2,0:0|1:2,0:0:0:0:
31,192,31496,1,2,0:0:0:0:
301,192,31827,2,0,L|279:251|279:251|241:301|241:301|215:358|215:358|191:300|191:300|170:241|170:241|139:187|139:187|121:127|121:127|76:40|76:40,1,536.666666666667,2|2,1:2|0:0,0:0:0:0:
76,192,32490,1,10,0:0:0:0:
211,192,32822,2,0,L|178:276|178:276|121:165|121:165,1,214.666666666667,2|2,1:2|0:0,0:0:0:0:
166,192,33153,1,2,0:0:0:0:
436,192,33485,6,0,L|384:265|384:265|346:384|346:384,1,214.666666666667,6|2,1:2|0:0,0:0:0:0:
481,192,34037,1,2,0:0:0:0:
481,192,34148,2,0,L|454:258|454:258|421:322|421:322|379:381|379:381|346:280|346:280,1,322,10|2,0:0|1:2,0:0:0:0:
481,192,34811,1,2,0:0:0:0:
212,189,35142,2,0,L|261:264|261:264|302:382|302:382,1,214.666666666667,6|2,1:2|0:0,0:0:0:0:
167,189,35695,1,2,0:0:0:0:
167,189,35805,2,0,L|184:259|184:259|225:318|225:318|260:381|260:381|302:283|302:283,1,322,10|2,0:0|1:2,0:0:0:0:
167,189,36468,1,2,0:0:0:0:
436,192,36800,6,0,L|392:271|392:271|346:155|346:155,1,214.666666666667,6|2,1:2|0:0,0:0:0:0:
481,192,37352,1,2,0:0:0:0:
481,192,37463,2,0,L|451:257|451:257|410:316|410:316|399:245|399:245|346:152|346:152,1,322,10|2,0:0|1:2,0:0:0:0:
481,192,38126,1,2,0:0:0:0:
211,192,38457,2,0,L|249:242|249:242|268:302|268:302|303:354|303:354|318:293|318:293|339:234|339:234|368:178|368:178|396:122|396:122|436:33|436:33,1,536.666666666667,2|2,1:2|0:0,0:0:0:0:
436,192,39120,1,10,0:0:0:0:
301,192,39452,2,0,L|327:278|327:278|391:385|391:385,1,214.666666666667,2|2,1:2|0:0,0:0:0:0:
346,192,39783,1,2,0:0:0:0:
76,192,40115,6,0,L|115:273|115:273|166:159|166:159,1,214.666666666667,6|2,1:2|0:0,0:0:0:0:
31,192,40667,1,2,0:0:0:0:
31,192,40778,2,0,L|51:261|51:261|100:313|100:313|121:382|121:382|166:285|166:285,1,322,10|2,0:0|1:2,0:0:0:0:
31,192,41441,1,2,0:0:0:0:
300,189,41772,2,0,L|271:274|271:274|210:383|210:383,1,214.666666666667,6|2,1:2|0:0,0:0:0:0:
345,189,42325,1,2,0:0:0:0:
345,189,42435,2,0,L|313:253|313:253|277:315|277:315|257:384|257:384|210:288|210:288,1,322,10|2,0:0|1:2,0:0:0:0:
345,189,43098,1,2,0:0:0:0:
76,192,43430,6,0,L|128:265|128:265|166:384|166:384,1,214.666666666667,6|2,1:2|0:0,0:0:0:0:
31,192,43982,1,2,0:0:0:0:
31,192,44093,2,0,L|58:258|58:258|87:323|87:323|121:260|121:260|166:163|166:163,1,322,10|2,0:0|1:2,0:0:0:0:
31,192,44756,1,2,0:0:0:0:
301,192,45087,2,0,L|287:253|287:253|262:310|262:310|230:364|230:364|189:316|189:316|174:255|174:255|131:209|131:209|106:151|106:151|76:58|76:58,1,536.666666666667,2|2,1:2|0:0,0:0:0:0:
76,192,45750,1,10,0:0:0:0:
211,192,46081,2,0,L|178:276|178:276|121:165|121:165,1,214.666666666667,2|2,1:2|0:0,0:0:0:0:
166,192,46412,1,2,0:0:0:0:
436,192,46744,6,0,L|412:279|412:279|346:385|346:385,1,214.666666666667,6|2,1:2|0:0,0:0:0:0:
481,192,47296,1,2,0:0:0:0:
481,192,47407,2,0,L|464:262|464:262|410:310|410:310|390:379|390:379|346:282|346:282,1,322,10|2,0:0|1:2,0:0:0:0:
481,192,48070,1,2,0:0:0:0:
212,189,48401,2,0,L|247:272|247:272|302:384|302:384,1,214.666666666667,6|2,1:2|0:0,0:0:0:0:
167,189,48954,1,2,0:0:0:0:
167,189,49064,2,0,L|199:253|199:253|236:314|236:314|257:383|257:383|302:286|302:286,1,322,10|2,0:0|1:2,0:0:0:0:
167,189,49727,1,2,0:0:0:0:
436,192,50059,6,0,L|391:270|391:270|346:154|346:154,1,214.666666666667,6|2,1:2|0:0,0:0:0:0:
481,192,50611,1,2,0:0:0:0:
481,192,50722,2,0,L|464:262|464:262|423:321|423:321|403:252|403:252|346:162|346:162,1,322,10|2,0:0|1:2,0:0:0:0:
481,192,51385,1,2,0:0:0:0:
211,192,51716,2,0,L|229:252|229:252|277:292|277:292|277:355|277:355|309:301|309:301|342:248|342:248|369:191|369:191|386:131|386:131|436:47|436:47,1,536.666666666667,2|2,1:2|0:0,0:0:0:0:
436,192,52379,1,10,0:0:0:0:
301,192,52711,2,0,L|337:274|337:274|391:161|391:161,1,214.666666666667,2|2,1:2|0:0,0:0:0:0:
346,192,53042,1,2,0:0:0:0:
76,192,53374,6,0,L|113:274|113:274|166:161|166:161,1,214.666666666667,6|2,1:2|0:0,0:0:0:0:
31,192,53926,1,2,0:0:0:0:
31,192,54037,2,0,L|70:252|70:252|89:321|89:321|130:380|130:380|166:280|166:280,1,322,10|2,0:0|1:2,0:0:0:0:
31,192,54700,1,2,0:0:0:0:
300,189,55031,2,0,L|267:273|267:273|210:384|210:384,1,214.666666666667,6|2,1:2|0:0,0:0:0:0:
345,189,55584,1,2,0:0:0:0:
345,189,55694,2,0,L|328:259|328:259|283:315|283:315|258:382|258:382|210:287|210:287,1,322,10|2,0:0|1:2,0:0:0:0:
345,189,56357,1,2,0:0:0:0:
76,192,56689,6,0,L|127:266|127:266|166:385|166:385,1,214.666666666667,6|2,1:2|0:0,0:0:0:0:
31,192,57241,1,2,0:0:0:0:
31,192,57352,2,0,L|72:251|72:251|87:321|87:321|122:384|122:384|166:287|166:287,1,322,10|2,0:0|1:2,0:0:0:0:
31,192,58015,1,2,0:0:0:0:
301,192,58346,2,0,L|278:251|278:251|257:310|257:310|228:366|228:366|200:310|200:310|177:252|177:252|143:199|143:199|127:138|127:138|76:55|76:55,1,536.666666666667,2|2,1:2|0:0,0:0:0:0:
76,192,59009,1,10,0:0:0:0:
211,192,59341,2,0,L|173:273|173:273|121:160|121:160,1,214.666666666667,2|2,1:2|0:0,0:0:0:0:
166,192,59672,1,2,0:0:0:0:
436,192,60004,6,0,L|387:267|387:267|346:385|346:385,1,214.666666666667,6|2,1:2|0:0,0:0:0:0:
481,192,60556,1,2,0:0:0:0:
481,192,60667,2,0,L|458:260|458:260|425:324|425:324|378:378|378:378|346:276|346:276,1,322,10|2,0:0|1:2,0:0:0:0:
481,192,61330,1,2,0:0:0:0:
212,189,61661,2,0,L|263:263|263:263|302:382|302:382,1,214.666666666667,6|2,1:2|0:0,0:0:0:0:
167,189,62214,1,2,0:0:0:0:
167,189,62324,2,0,L|186:258|186:258|214:324|214:324|269:370|269:370|302:269|302:269,1,322,10|2,0:0|1:2,0:0:0:0:
167,189,62987,1,2,0:0:0:0:
436,192,63319,6,0,L|410:278|410:278|346:385|346:385,1,214.666666666667,6|2,1:2|0:0,0:0:0:0:
481,192,63871,1,2,0:0:0:0:
481,192,63982,2,0,L|442:252|442:252|412:317|412:317|379:381|379:381|346:280|346:280,1,322,10|2,0:0|1:2,0:0:0:0:
481,192,64645,1,2,0:0:0:0:
211,192,64976,2,0,L|243:246|243:246|273:301|273:301|292:361|292:361|306:300|306:300|342:249|342:249|369:192|369:192|400:137|400:137|436:46|436:46,1,536.666666666667,2|2,1:2|0:0,0:0:0:0:
436,192,65639,1,10,0:0:0:0:
301,192,65971,2,0,L|327:278|327:278|391:385|391:385,1,214.666666666667,2|2,1:2|0:0,0:0:0:0:
346,192,66302,1,2,0:0:0:0:
76,192,66634,6,0,L|107:276|107:276|166:386|166:386,1,214.666666666667,6|2,1:2|0:0,0:0:0:0:
31,192,67186,1,2,0:0:0:0:
31,192,67297,2,0,L|66:255|66:255|79:326|79:326|133:374|133:374|166:273|166:273,1,322,10|2,0:0|1:2,0:0:0:0:
31,192,67960,1,2,0:0:0:0:
300,189,68291,2,0,L|262:271|262:271|210:384|210:384,1,214.666666666667,6|2,1:2|0:0,0:0:0:0:
345,189,68844,1,2,0:0:0:0:
345,189,68954,2,0,L|327:258|327:258|293:321|293:321|263:256|263:256|210:163|210:163,1,322,10|2,0:0|1:2,0:0:0:0:
345,189,69617,1,2,0:0:0:0:
76,192,69949,6,0,L|119:271|119:271|166:155|166:155,1,214.666666666667,6|2,1:2|0:0,0:0:0:0:
31,192,70501,1,2,0:0:0:0:
31,192,70612,2,0,L|60:258|60:258|99:318|99:318|109:247|109:247|166:157|166:157,1,322,10|2,0:0|1:2,0:0:0:0:
31,192,71275,1,2,0:0:0:0:
301,192,71606,2,0,L|268:245|268:245|255:306|255:306|211:351|211:351|202:289|202:289|177:231|177:231|152:173|152:173|124:117|124:117|76:32|76:32,1,536.666666666667,2|2,1:2|0:0,0:0:0:0:
76,192,72269,1,10,0:0:0:0:
211,192,72601,2,0,L|172:273|172:273|121:159|121:159,1,214.666666666667,2|2,1:2|0:0,0:0:0:0:
166,192,72932,1,2,0:0:0:0:
436,192,73264,6,0,L|404:276|404:276|346:165|346:165,1,214.666666666667,6|2,1:2|0:0,0:0:0:0:
481,192,73816,1,2,0:0:0:0:
481,192,73927,2,0,L|437:249|437:249|416:318|416:318|379:380|379:380|346:279|346:279,1,322,10|2,0:0|1:2,0:0:0:0:
481,192,74590,1,2,0:0:0:0:
212,189,74921,2,0,L|246:272|246:272|302:384|302:384,1,214.666666666667,6|2,1:2|0:0,0:0:0:0:
167,189,75474,1,2,0:0:0:0:
167,189,75584,2,0,L|208:248|208:248|239:313|239:313|248:384|248:384|302:292|302:292,1,322,10|2,0:0|1:2,0:0:0:0:
167,189,76247,1,2,0:0:0:0:
436,192,76579,6,0,L|393:271|393:271|346:155|346:155,1,214.666666666667,6|2,1:2|0:0,0:0:0:0:
481,192,77131,1,2,0:0:0:0:
481,192,77242,2,0,L|464:262|464:262|418:317|418:317|390:383|390:383|346:286|346:286,1,322,10|2,0:0|1:2,0:0:0:0:
481,192,77905,1,2,0:0:0:0:
211,192,78236,2,0,L|231:251|231:251|274:297|274:297|292:357|292:357|316:299|316:299|337:240|337:240|377:192|377:192|390:131|390:131|436:45|436:45,1,536.666666666667,2|2,1:2|0:0,0:0:0:0:
436,192,78899,1,10,0:0:0:0:
301,192,79231,2,0,L|339:273|339:273|391:160|391:160,1,214.666666666667,2|2,1:2|0:0,0:0:0:0:
346,192,79562,1,2,0:0:0:0:
76,191,79894,5,6,0:0:0:0:
211,191,80225,1,2,0:0:0:0:
346,189,80556,1,10,0:0:0:0:
76,191,81219,1,2,0:0:0:0:
346,189,81551,1,6,0:0:0:0:
211,191,81882,1,2,0:0:0:0:
76,191,82214,1,10,0:0:0:0:
346,189,82877,1,2,0:0:0:0:
76,191,83208,6,0,L|114:273|114:273|166:160|166:160,1,214.666666666667,6|2,0:0|0:0,0:0:0:0:
346,189,83871,1,10,0:0:0:0:
76,191,84534,1,2,0:0:0:0:
450,190,85087,1,2,0:0:0:0:
270,190,85529,1,10,0:0:0:0:
121,192,86081,1,2,0:0:0:0:
166,189,86192,1,2,0:0:0:0:
436,191,86523,5,6,0:0:0:0:
301,191,86855,1,2,0:0:0:0:
166,189,87186,1,10,0:0:0:0:
436,191,87849,1,2,0:0:0:0:
166,189,88181,1,6,0:0:0:0:
301,191,88512,1,2,0:0:0:0:
436,191,88844,1,10,0:0:0:0:
166,189,89507,1,2,0:0:0:0:
436,191,89838,6,0,L|403:275|403:275|346:164|346:164,1,214.666666666667,6|2,0:0|0:0,0:0:0:0:
166,189,90501,1,10,0:0:0:0:
436,191,91164,1,2,0:0:0:0:
53,191,91717,6,0,L|74:235|74:235|83:283|83:283|102:328|102:328|147:348|147:348|169:304|169:304|168:255|168:255|192:212|192:212|233:138|233:138,1,429.333333333333,2|10,0:0|0:0,0:0:0:0:
459,191,92711,2,0,L|453:240|453:240|418:274|418:274|407:322|407:322|390:368|390:368|353:336|353:336|333:291|333:291|302:253|302:253|279:172|279:172,1,429.333333333333,2|14,0:0|0:0,0:0:0:0:
53,191,93706,2,0,L|65:239|65:239|93:280|93:280|109:327|109:327|140:365|140:365|156:318|156:318|188:281|188:281|211:237|211:237|233:156|233:156,1,429.333333333333,2|10,0:0|0:0,0:0:0:0:
459,191,94700,2,0,L|473:238|473:238|457:285|457:285|459:334|459:334|452:383|452:383|472:338|472:338|460:290|460:290|463:241|463:241|459:157|459:157,1,429.333333333333,2|10,0:0|0:0,0:0:0:0:
53,191,95695,6,0,L|72:236|72:236|82:284|82:284|107:327|107:327|139:365|139:365|165:323|165:323|170:274|170:274|196:232|196:232|233:156|233:156,1,429.333333333333,2|10,0:0|0:0,0:0:0:0:
459,191,96689,2,0,L|441:237|441:237|422:283|422:283|389:319|389:319|383:368|383:368|341:342|341:342|344:293|344:293|315:253|315:253|279:177|279:177,1,429.333333333333,2|10,0:0|0:0,0:0:0:0:
53,191,97684,2,0,L|63:239|63:239|91:280|91:280|122:319|122:319|131:367|131:367|155:324|155:324|191:290|191:290|195:241|195:241|233:166|233:166,1,429.333333333333,2|10,0:0|0:0,0:0:0:0:
459,191,98678,2,0,L|435:234|435:234|406:274|406:274|401:323|401:323|383:369|383:369|350:332|350:332|348:283|348:283|323:240|323:240|279:168|279:168,1,429.333333333333,2|10,0:0|0:0,0:0:0:0:
53,191,99673,2,0,L|47:240|47:240|47:289|47:289|46:338|46:338|53:289|53:289|66:241|66:241|42:198|42:198|51:149|51:149|53:65|53:65,1,429.333333333333,2|10,0:0|0:0,0:0:0:0:
459,191,100667,6,0,L|438:235|438:235|418:280|418:280|384:316|384:316|367:362|367:362|350:316|350:316|325:273|325:273|325:224|325:224|279:153|279:153,1,429.333333333333,2|10,0:0|0:0,0:0:0:0:
53,191,101661,2,0,L|70:237|70:237|86:284|86:284|127:311|127:311|122:360|122:360|152:321|152:321|185:284|185:284|189:235|189:235|233:163|233:163,1,429.333333333333,2|10,0:0|0:0,0:0:0:0:
459,191,102656,2,0,L|444:238|444:238|410:274|410:274|398:322|398:322|388:370|388:370|370:324|370:324|347:280|347:280|302:259|302:259|279:178|279:178,1,429.333333333333,2|14,0:0|0:0,0:0:0:0:
53,191,103650,2,0,L|87:227|87:227|80:276|80:276|129:285|129:285|136:334|136:334|159:377|159:377|187:336|187:336|207:291|207:291|233:211|233:211,1,429.333333333333,2|10,0:0|0:0,0:0:0:0:
459,191,104645,1,2,0:0:0:0:
135,191,105087,2,0,B|89:257|89:257|80:337|80:337|27:277|27:277|26:197|26:197|8:119|8:119|-1:39|-1:39|13:118|13:118|49:190|49:190|86:272|86:272|135:157|135:157,1,858.666666666667,10|2,0:0|0:0,0:0:0:0:
460,191,106413,6,0,L|429:275|429:275|370:385|370:385,1,214.666666666667,6|2,1:2|0:0,0:0:0:0:
325,191,106744,2,0,L|348:259|348:259|387:319|387:319|424:381|424:381|460:281|460:281,1,322,2|10,0:0|0:0,0:0:0:0:
460,191,107407,2,0,L|437:259|437:259|389:312|389:312|367:380|367:380|325:282|325:282,1,322,2|2,1:2|0:0,0:0:0:0:
76,192,108070,2,0,L|97:251|97:251|119:310|119:310|161:357|161:357|173:295|173:295|213:246|213:246|238:189|238:189|254:128|254:128|301:42|301:42,1,536.666666666667,2|2,1:2|0:0,0:0:0:0:
301,192,108733,1,10,0:0:0:0:
301,192,109065,2,0,L|273:258|273:258|229:315|229:315|220:244|220:244|166:152|166:152,1,322,2|2,1:2|0:0,0:0:0:0:
436,192,109728,6,0,L|408:248|408:248|369:297|369:297|357:359|357:359|326:304|326:304|317:242|317:242|283:189|283:189|246:138|246:138|211:47|211:47,1,536.666666666667,2|2,1:2|0:0,0:0:0:0:
211,192,110391,1,10,0:0:0:0:
211,192,110722,2,0,L|255:248|255:248|282:315|282:315|299:385|299:385|346:289|346:289,1,322,2|2,1:2|0:0,0:0:0:0:
76,192,111385,2,0,L|93:252|93:252|121:308|121:308|150:363|150:363|184:310|184:310|213:255|213:255|223:193|223:193|258:141|258:141|301:53|301:53,1,536.666666666667,2|2,1:2|0:0,0:0:0:0:
301,192,112048,1,10,0:0:0:0:
301,192,112380,2,0,L|257:249|257:249|237:318|237:318|215:250|215:250|166:155|166:155,1,322,2|2,1:2|0:0,0:0:0:0:
436,192,113043,6,0,L|397:241|397:241|382:302|382:302|365:362|365:362|319:320|319:320|290:264|290:264|286:201|286:201|243:155|243:155|211:63|211:63,1,536.666666666667,2|2,1:2|0:0,0:0:0:0:
211,192,113706,1,10,0:0:0:0:
211,192,114037,2,0,L|251:252|251:252|259:323|259:323|292:259|292:259|346:167|346:167,1,322,2|2,1:2|0:0,0:0:0:0:
76,192,114700,2,0,L|111:244|111:244|120:306|120:306|143:364|143:364|167:306|167:306|200:253|200:253|234:200|234:200|272:150|272:150|301:57|301:57,1,536.666666666667,2|2,1:2|0:0,0:0:0:0:
301,192,115363,1,10,0:0:0:0:
301,192,115695,2,0,L|269:256|269:256|244:323|244:323|220:255|220:255|166:163|166:163,1,322,2|2,1:2|0:0,0:0:0:0:
436,192,116358,6,0,L|415:251|415:251|378:302|378:302|347:356|347:356|335:294|335:294|293:247|293:247|286:185|286:185|260:128|260:128|211:43|211:43,1,536.666666666667,2|2,1:2|0:0,0:0:0:0:
211,192,117021,1,10,0:0:0:0:
211,192,117352,2,0,L|230:261|230:261|264:324|264:324|300:262|300:262|346:166|346:166,1,322,2|2,1:2|0:0,0:0:0:0:
76,192,118015,2,0,L|96:252|96:252|129:305|129:305|165:356|165:356|195:301|195:301|216:242|216:242|241:185|241:185|264:127|264:127|301:37|301:37,1,536.666666666667,2|2,1:2|0:0,0:0:0:0:
301,192,118678,1,10,0:0:0:0:
301,192,119010,2,0,L|272:257|272:257|246:324|246:324|196:376|196:376|166:274|166:274,1,322,2|2,1:2|0:0,0:0:0:0:
436,192,119673,6,0,L|402:275|402:275|346:163|346:163,1,214.666666666667,6|2,1:2|0:0,0:0:0:0:
481,192,120225,1,2,0:0:0:0:
481,192,120335,1,10,0:0:0:0:
211,192,120667,2,0,L|243:256|243:256|260:326|260:326|297:264|297:264|346:169|346:169,1,322,2|2,1:2|0:0,0:0:0:0:
76,192,121330,2,0,L|102:278|102:278|166:385|166:385,1,214.666666666667,6|2,1:2|0:0,0:0:0:0:
31,192,121882,1,2,0:0:0:0:
31,192,121993,1,10,0:0:0:0:
301,192,122324,2,0,L|260:251|260:251|245:321|245:321|211:384|211:384|166:287|166:287,1,322,2|2,1:2|0:0,0:0:0:0:
436,192,122987,6,0,L|389:268|389:268|346:385|346:385,1,214.666666666667,6|2,1:2|0:0,0:0:0:0:
481,192,123540,1,2,0:0:0:0:
481,192,123650,2,0,L|461:261|461:261|430:326|430:326|392:265|392:265|346:169|346:169,1,322,10|2,0:0|1:2,0:0:0:0:
481,192,124313,1,2,0:0:0:0:
211,192,124645,2,0,L|237:249|237:249|265:305|265:305|293:361|293:361|314:302|314:302|335:243|335:243|367:189|367:189|403:137|403:137|436:45|436:45,1,536.666666666667,2|2,1:2|0:0,0:0:0:0:
436,192,125308,1,10,0:0:0:0:
436,192,125639,2,0,L|398:253|398:253|363:316|363:316|340:384|340:384|301:285|301:285,1,322,2|2,1:2|0:0,0:0:0:0:
64,192,126302,6,0,L|88:279|88:279|154:385|154:385,1,214.666666666667,6|2,1:2|0:0,0:0:0:0:
19,192,126854,1,2,0:0:0:0:
19,192,126964,1,10,0:0:0:0:
289,192,127296,2,0,L|269:261|269:261|232:322|232:322|190:380|190:380|154:280|154:280,1,322,2|2,1:2|0:0,0:0:0:0:
424,192,127959,2,0,L|392:276|392:276|334:165|334:165,1,214.666666666667,6|2,1:2|0:0,0:0:0:0:
469,192,128511,1,2,0:0:0:0:
469,192,128622,1,10,0:0:0:0:
199,192,128953,2,0,L|215:262|215:262|253:323|253:323|280:257|280:257|334:165|334:165,1,322,2|2,1:2|0:0,0:0:0:0:
64,192,129616,6,0,L|92:277|92:277|154:385|154:385,1,214.666666666667,6|2,1:2|0:0,0:0:0:0:
19,192,130169,1,2,0:0:0:0:
19,192,130280,2,0,L|63:248|63:248|93:313|93:313|115:381|115:381|154:282|154:282,1,322,10|2,0:0|1:2,0:0:0:0:
19,192,130942,1,2,0:0:0:0:
289,192,131274,2,0,L|270:252|270:252|235:304|235:304|196:353|196:353|179:293|179:293|150:237|150:237|133:176|133:176|91:129|91:129|64:35|64:35,1,536.666666666667,2|2,1:2|0:0,0:0:0:0:
64,192,131937,1,10,0:0:0:0:
64,192,132269,2,0,L|90:259|90:259|112:327|112:327|144:263|144:263|199:172|199:172,1,322,2|2,1:2|0:0,0:0:0:0:
448,192,132932,6,0,L|397:266|397:266|358:385|358:385,1,214.666666666667,6|2,1:2|0:0,0:0:0:0:
493,192,133484,1,2,0:0:0:0:
493,192,133594,1,10,0:0:0:0:
223,192,133926,2,0,L|253:257|253:257|294:316|294:316|310:246|310:246|358:151|358:151,1,322,2|2,1:2|0:0,0:0:0:0:
88,192,134589,2,0,L|128:272|128:272|178:158|178:158,1,214.666666666667,6|2,1:2|0:0,0:0:0:0:
43,192,135141,1,2,0:0:0:0:
43,192,135252,1,10,0:0:0:0:
313,192,135584,2,0,L|284:257|284:257|248:319|248:319|226:251|226:251|178:156|178:156,1,322,2|2,1:2|0:0,0:0:0:0:
448,192,136246,6,0,L|410:274|410:274|358:161|358:161,1,214.666666666667,6|2,1:2|0:0,0:0:0:0:
493,192,136799,1,2,0:0:0:0:
493,192,136909,2,0,L|459:255|459:255|419:315|419:315|402:385|402:385|358:288|358:288,1,322,10|2,0:0|1:2,0:0:0:0:
493,192,137572,1,2,0:0:0:0:
223,192,137904,2,0,L|249:249|249:249|270:308|270:308|313:354|313:354|333:295|333:295|351:235|351:235|391:187|391:187|419:131|419:131|448:38|448:38,1,536.666666666667,2|2,1:2|0:0,0:0:0:0:
448,192,138567,1,10,0:0:0:0:
448,192,138898,2,0,L|404:248|404:248|389:318|389:318|356:382|356:382|313:284|313:284,1,322,2|2,1:2|0:0,0:0:0:0:
64,192,139562,6,0,L|107:271|107:271|154:155|154:155,1,214.666666666667,6|2,1:2|0:0,0:0:0:0:
19,192,140114,1,2,0:0:0:0:
19,192,140224,1,10,0:0:0:0:
289,192,140556,2,0,L|261:258|261:258|222:318|222:318|190:382|190:382|154:282|154:282,1,322,2|2,1:2|0:0,0:0:0:0:
424,192,141219,2,0,L|396:277|396:277|334:385|334:385,1,214.666666666667,6|2,1:2|0:0,0:0:0:0:
469,192,141771,1,2,0:0:0:0:
469,192,141882,1,10,0:0:0:0:
199,192,142213,2,0,L|239:252|239:252|270:317|270:317|285:247|285:247|334:152|334:152,1,322,2|2,1:2|0:0,0:0:0:0:
64,192,142876,6,0,L|88:279|88:279|154:385|154:385,1,214.666666666667,6|2,1:2|0:0,0:0:0:0:
19,192,143429,1,2,0:0:0:0:
19,192,143539,2,0,L|45:259|45:259|68:327|68:327|102:264|102:264|154:171|154:171,1,322,10|2,0:0|1:2,0:0:0:0:
19,192,144202,1,2,0:0:0:0:
289,192,144534,2,0,L|255:245|255:245|230:302|230:302|209:361|209:361|185:303|185:303|148:253|148:253|126:194|126:194|100:137|100:137|64:46|64:46,1,536.666666666667,2|2,1:2|0:0,0:0:0:0:
64,192,145197,1,10,0:0:0:0:
64,192,145528,2,0,L|90:259|90:259|135:315|135:315|156:384|156:384|199:286|199:286,1,322,2|2,1:2|0:0,0:0:0:0:
469,191,146192,5,2,1:2:0:0:
199,192,146523,1,2,0:0:0:0:
256,192,146855,12,0,152822,0:0:0:0:
