osu file format v14

[General]
AudioFilename: audio.mp3
AudioLeadIn: 0
PreviewTime: -1
Countdown: 0
SampleSet: Normal
StackLeniency: 0.7
Mode: 0
LetterboxInBreaks: 0
WidescreenStoryboard: 0

[Editor]
DistanceSpacing: 1.4
BeatDivisor: 4
GridSize: 8
TimelineZoom: 1.4

[Metadata]
Title:King of Strangeness
TitleUnicode:King of Strangeness
Artist:Satoru Kosaki
ArtistUnicode:Satoru Kosaki
Creator:Ekin
Version:Strange
Source:Nisemonogatari
Tags:cenk
BeatmapID:1055490
BeatmapSetID:495847

[Difficulty]
HPDrainRate:6
CircleSize:4
OverallDifficulty:8
ApproachRate:9.6
SliderMultiplier:2.99999990463257
SliderTickRate:1

[Events]
//Background and Video events
0,0,"NEEDSsizechange.jpg",0,0
//Break Periods
//Storyboard Layer 0 (Background)
//Storyboard Layer 1 (Fail)
//Storyboard Layer 2 (Pass)
//Storyboard Layer 3 (Foreground)
//Storyboard Sound Samples

[TimingPoints]
520,659.340659340659,5,1,0,50,1,0
1838,476.190476190476,5,1,0,35,1,0
2076,618.556701030928,5,1,0,40,1,0
3625,618.556701030928,5,1,0,50,1,0
5455,636.947872340425,4,1,0,60,1,0
8002,616.326701030928,4,1,0,65,1,0
14165,-100,4,1,0,40,0,0
15397,-100,4,1,0,50,0,0
20328,631.578947368421,4,1,0,60,1,0
24275,-100,4,1,0,50,0,0
24275,-100,4,1,0,60,0,0
24433,-100,4,1,0,30,0,0
24591,-100,4,1,0,20,0,0
24749,-100,4,1,0,10,0,0
24906,-100,4,1,0,5,0,0
25260,616.656701030928,4,1,0,65,1,0
26493,-100,4,1,0,40,0,0
27726,-100,4,1,0,65,0,0
30193,638.297872340426,4,1,0,65,1,0
32740,618.556701030928,4,1,0,50,1,0
33977,-100,4,1,0,55,0,0
35214,606.060606060606,4,1,0,65,1,0
37638,625,4,1,0,65,1,0
40099,631.578947368421,4,1,0,60,1,0
42600,631.578947368421,4,1,0,100,1,0
43231,705.882352941176,4,1,0,100,1,0
44642,836.233333333333,4,1,0,100,1,0
45061,618.556701030928,4,1,0,100,1,0
87122,633.238947368421,4,1,0,100,1,0
87755,705.882352941176,4,1,0,100,1,0

[HitObjects]
152,64,520,6,0,B|88:232|88:232|128:272|248:256,1,299.999990463257
104,72,2076,5,0,0:0:0:0:
104,72,2230,1,0,0:0:0:0:
224,88,2385,1,0,0:0:0:0:
224,88,2539,1,0,0:0:0:0:
208,208,2694,1,0,0:0:0:0:
208,208,2848,1,0,0:0:0:0:
312,264,3003,5,0,0:0:0:0:
360,64,3625,6,0,B|424:232|424:232|384:272|264:256,1,299.999990463257
112,56,5455,6,0,L|216:72,1,74.9999976158143
336,72,5773,1,0,0:0:0:0:
240,184,5932,1,0,0:0:0:0:
112,352,6091,2,0,B|160:272|160:272|248:280|256:296,1,149.999995231629
424,168,6728,6,0,B|376:88|376:88|319:93,1,149.999995231629
80,208,7365,2,0,L|224:304,1,149.999995231629
416,304,8002,6,0,L|432:208,1,74.9999976158143
392,104,8310,2,0,P|360:112|320:104,1,74.9999976158143
192,56,8618,1,0,0:0:0:0:
48,216,8926,1,0,0:0:0:0:
112,272,9080,1,0,0:0:0:0:
176,328,9234,6,0,B|224:368|224:368|336:272,1,149.999995231629
384,208,9696,1,0,0:0:0:0:
432,80,9850,2,0,L|264:112,1,149.999995231629
168,24,10467,6,0,P|48:72|120:200,1,299.999990463257
104,328,11391,1,0,0:0:0:0:
416,16,11699,6,0,L|472:160,1,149.999995231629
96,368,12316,2,0,L|40:224,1,149.999995231629
424,352,12932,6,0,P|480:240|424:176,1,224.999992847443
336,72,13548,2,0,L|240:168,1,74.9999976158143
336,312,13857,2,0,L|240:216,1,74.9999976158143
40,192,14165,5,0,0:0:0:0:
176,160,14319,1,0,0:0:0:0:
448,192,14473,1,0,0:0:0:0:
312,224,14627,1,0,0:0:0:0:
72,184,14781,2,0,L|200:152,1,74.9999976158143
416,197,15089,2,0,L|344:216,1,74.9999976158143
248,304,15397,6,0,L|352:336,1,74.9999976158143
432,248,15706,2,0,L|328:216,1,74.9999976158143
232,176,16014,2,0,L|400:104,1,149.999995231629
104,88,16630,6,0,L|72:240,1,149.999995231629
438,234,17246,2,0,L|408:88,1,149.999995231629
208,272,17863,6,0,L|320:296,1,74.9999976158143
400,288,18171,2,0,L|488:264,1,74.9999976158143
424,144,18479,2,0,P|352:128|256:160,1,149.999995231629
200,216,18941,1,0,0:0:0:0:
125,292,19095,6,0,P|96:208|120:152,1,149.999995231629
192,80,19558,1,0,0:0:0:0:
288,32,19712,2,0,P|360:8|424:40,1,149.999995231629
104,112,20328,6,0,L|216:80,1,74.9999976158143
296,80,20643,2,0,L|424:96,1,74.9999976158143
400,208,20959,2,0,P|304:264|248:272,1,149.999995231629
120,80,21591,6,0,L|320:40,1,149.999995231629
120,304,22222,2,0,L|320:344,1,149.999995231629
352,88,22854,6,0,P|400:176|352:304,1,224.999992847443
256,328,23485,2,0,L|144:280,1,74.9999976158143
112,208,23801,2,0,L|136:96,1,74.9999976158143
256,192,24117,12,0,25064,0:0:0:0:
120,48,25260,5,0,0:0:0:0:
400,264,25568,2,0,L|288:304,1,74.9999976158143
232,224,25876,2,0,L|344:184,1,74.9999976158143
344,88,26184,2,0,L|232:128,1,74.9999976158143
168,48,26493,5,0,0:0:0:0:
88,136,26647,1,0,0:0:0:0:
88,256,26801,1,0,0:0:0:0:
168,344,26955,1,0,0:0:0:0:
288,344,27109,5,0,0:0:0:0:
368,256,27263,1,0,0:0:0:0:
368,136,27417,1,0,0:0:0:0:
288,48,27571,1,0,0:0:0:0:
448,320,27726,5,0,0:0:0:0:
128,56,28034,2,0,L|88:128,1,74.9999976158143
152,224,28343,2,0,L|192:152,1,74.9999976158143
304,136,28651,2,0,L|264:208,1,74.9999976158143
128,328,28959,6,0,L|232:304,1,74.9999976158143
336,280,29268,1,0,0:0:0:0:
336,280,29422,1,0,0:0:0:0:
336,104,29576,6,0,L|262:87,1,74.9999976158143
136,56,29885,1,0,0:0:0:0:
136,56,30039,1,0,0:0:0:0:
256,192,30193,5,0,0:0:0:0:
256,328,30512,2,0,L|184:264,1,74.9999976158143
119,193,30831,2,0,L|176:144,1,74.9999976158143
256,56,31150,2,0,L|312:105,1,74.9999976158143
256,192,31469,5,0,0:0:0:0:
256,328,31788,2,0,L|328:264,1,74.9999976158143
392,193,32107,2,0,L|336:144,1,74.9999976158143
256,56,32426,2,0,L|199:105,1,74.9999976158143
96,192,32740,5,0,0:0:0:0:
232,192,32894,2,0,L|312:192,2,74.9999976158143
232,336,33358,2,0,L|312:336,2,74.9999976158143
96,336,33822,1,0,0:0:0:0:
152,216,33977,6,0,P|256:176|360:224,1,224.999992847443
256,312,34595,1,0,0:0:0:0:
440,48,35214,5,0,0:0:0:0:
152,280,35517,2,0,L|272:304,1,74.9999976158143
296,216,35820,2,0,L|176:192,1,74.9999976158143
216,96,36123,2,0,L|336:120,1,74.9999976158143
320,208,36426,5,0,0:0:0:0:
192,160,36577,1,0,0:0:0:0:
320,224,36729,1,0,0:0:0:0:
200,136,36880,1,0,0:0:0:0:
312,248,37032,5,0,0:0:0:0:
216,112,37183,1,0,0:0:0:0:
296,264,37335,1,0,0:0:0:0:
232,96,37486,1,0,0:0:0:0:
72,336,37638,5,0,0:0:0:0:
360,104,37950,2,0,L|240:80,1,74.9999976158143
248,184,38253,2,0,L|174:169,1,74.9999976158143
152,264,38556,2,0,L|32:240,1,74.9999976158143
240,288,38888,6,0,L|313:302,1,74.9999976158143
392,232,39200,1,0,0:0:0:0:
392,128,39356,1,0,0:0:0:0:
272,96,39513,6,0,L|198:81,2,74.9999976158143
240,192,39981,1,0,0:0:0:0:
176,248,40099,6,0,P|240:288|304:240,1,149.999995231629
376,184,40572,1,0,0:0:0:0:
384,80,40730,2,0,L|288:56,1,74.9999976158143
224,120,41046,2,0,L|128:96,1,74.9999976158143
