osu file format v14

[General]
AudioFilename: audio.mp3
AudioLeadIn: 0
PreviewTime: 176699
Countdown: 0
SampleSet: Soft
StackLeniency: 0.7
Mode: 0
LetterboxInBreaks: 0
WidescreenStoryboard: 1

[Editor]
DistanceSpacing: 1
BeatDivisor: 4
GridSize: 32
TimelineZoom: 2.2

[Metadata]
Title:Ambitious World
TitleUnicode:Ambitious World
Artist:Satono Diamond (CV: Tachibana Hina), Kitasan Black (CV: Yano Hinaki)
ArtistUnicode:サトノダイヤモンド (CV: 立花日菜), キタサンブラック (CV: 矢野妃菜喜)
Creator:lushifer
Version:Wonderful World!
Source:ウマ娘 プリティーダービー
Tags:1st anniversary special animation WINNING LIVE 04 uma musume pretty derby umamusume video game anime ending full version japanese pop jpop j-pop female vocalist 大熊淳生 Okuma Atsuki 真崎エリカ Masaki Erika
BeatmapID:3501571
BeatmapSetID:1713615

[Difficulty]
HPDrainRate:5.3
CircleSize:3.8
OverallDifficulty:8.5
ApproachRate:9.3
SliderMultiplier:1.76
SliderTickRate:1

[Events]
//Background and Video events
0,0,"kitasato.jpg",0,0
//Break Periods
2,86736,95312
2,165402,170979
//Storyboard Layer 0 (Background)
//Storyboard Layer 1 (Fail)
//Storyboard Layer 2 (Pass)
//Storyboard Layer 3 (Foreground)
//Storyboard Layer 4 (Overlay)
//Storyboard Sound Samples

[TimingPoints]
-133,333.333333333333,4,2,1,60,1,0
1200,-133.333333333333,4,2,1,40,0,0
6533,-117.647058823529,4,2,1,60,0,0
9033,-100,4,2,1,60,0,0
9866,-100,4,2,1,55,0,0
10033,-100,4,2,1,60,0,0
10200,-100,4,2,1,65,0,0
10366,-100,4,2,1,70,0,0
10533,-200,4,2,1,70,0,0
11700,-100,4,2,1,70,0,0
14200,-100,4,2,3,70,0,0
14533,-142.857142857143,4,2,2,70,0,0
14866,-83.3333333333333,4,2,2,70,0,0
16366,-100,4,2,2,70,0,0
17200,-142.857142857143,4,2,2,70,0,0
17533,-83.3333333333333,4,2,2,70,0,0
18533,-66.6666666666667,4,2,2,70,0,0
18866,-76.9230769230769,4,2,2,70,0,0
19200,-100,4,2,2,70,0,0
19533,-125,4,2,2,70,0,0
19866,-142.857142857143,4,2,1,70,0,0
20200,-83.3333333333333,4,2,1,70,0,0
20700,-100,4,2,1,70,0,0
22533,-76.9230769230769,4,2,1,70,0,0
23033,-100,4,2,3,70,0,0
23366,-100,4,2,1,70,0,0
24366,-66.6666666666667,4,2,3,70,0,0
24700,-83.3333333333333,4,2,3,70,0,0
25200,-83.3333333333333,4,2,2,70,0,0
25533,-100,4,2,2,60,0,0
33866,-76.9230769230769,4,2,2,60,0,0
34533,-58.8235294117647,4,2,1,70,0,0
35033,-100,4,2,3,70,0,0
35366,-66.6666666666667,4,2,3,70,0,0
35866,-100,4,2,2,70,0,0
36200,-76.9230769230769,4,2,2,70,0,0
37033,-90.9090909090909,4,2,2,70,0,0
39366,-71.4285714285714,4,2,2,70,0,0
39700,-83.3333333333333,4,2,2,70,0,0
40866,-100,4,2,2,70,0,0
42533,-76.9230769230769,4,2,2,70,0,0
43700,-66.6666666666667,4,2,1,70,0,0
44200,-90.9090909090909,4,2,1,70,0,0
46866,-100,4,2,1,60,0,0
50533,-62.5,4,2,1,70,0,0
51533,-90.9090909090909,4,2,3,70,0,0
51866,-76.9230769230769,4,2,1,70,0,0
54866,-76.9230769230769,4,2,1,40,0,0
55200,-76.9230769230769,4,2,1,50,0,0
55533,-76.9230769230769,4,2,1,60,0,0
55866,-76.9230769230769,4,2,1,70,0,0
58366,-66.6666666666667,4,2,1,70,0,0
59866,-66.6666666666667,4,2,2,80,0,1
60366,-100,4,2,2,80,0,1
60700,-66.6666666666667,4,2,2,80,0,1
61033,-76.9230769230769,4,2,2,80,0,1
61866,-100,4,2,2,80,0,1
62200,-76.9230769230769,4,2,2,80,0,1
63700,-90.9090909090909,4,2,2,80,0,1
64533,-100,4,2,2,80,0,1
64866,-71.4285714285714,4,2,2,80,0,1
65200,-90.9090909090909,4,2,1,80,0,1
65533,-100,4,2,1,80,0,1
66533,-76.9230769230769,4,2,1,80,0,1
67200,-100,4,2,1,80,0,1
67533,-71.4285714285714,4,2,1,80,0,1
67866,-76.9230769230769,4,2,1,80,0,1
68366,-66.6666666666667,4,2,1,80,0,1
69033,-71.4285714285714,4,2,3,80,0,1
69700,-71.4285714285714,4,2,1,80,0,1
70533,-90.9090909090909,4,2,2,80,0,1
71033,-76.9230769230769,4,2,2,80,0,1
71700,-100,4,2,2,80,0,1
72033,-71.4285714285714,4,2,2,80,0,1
72533,-100,4,2,2,80,0,1
72866,-66.6666666666667,4,2,2,80,0,1
73700,-83.3333333333333,4,2,2,80,0,1
74033,-71.4285714285714,4,2,2,80,0,1
75366,-71.4285714285714,4,2,1,80,0,1
76533,-100,4,2,1,80,0,1
77200,-125,4,2,1,80,0,1
77700,-71.4285714285714,4,2,1,80,0,1
78366,-66.6666666666667,4,2,1,80,0,1
79866,-66.6666666666667,4,2,1,80,0,0
81200,-76.9230769230769,4,2,2,70,0,0
82200,-100,4,2,2,70,0,0
83033,-83.3333333333333,4,2,1,70,0,0
83866,-71.4285714285714,4,2,1,70,0,0
84366,-83.3333333333333,4,2,1,70,0,0
85700,-83.3333333333333,4,2,3,70,0,0
86033,-66.6666666666667,4,2,3,70,0,0
86533,-66.6666666666667,4,2,2,70,0,0
95866,-66.6666666666667,4,2,1,70,0,0
96366,-66.6666666666667,4,2,3,70,0,0
96700,-83.3333333333333,4,2,3,70,0,0
97200,-66.6666666666667,4,2,2,70,0,0
97533,-83.3333333333333,4,2,2,70,0,0
98366,-100,4,2,2,70,0,0
99533,-83.3333333333333,4,2,2,70,0,0
101700,-100,4,2,2,70,0,0
102533,-83.3333333333333,4,2,2,70,0,0
103200,-100,4,2,2,70,0,0
103533,-71.4285714285714,4,2,2,70,0,0
103866,-83.3333333333333,4,2,2,70,0,0
105033,-83.3333333333333,4,2,1,70,0,0
107866,-100,4,2,1,60,0,0
108866,-83.3333333333333,4,2,1,60,0,0
109200,-100,4,2,1,60,0,0
109866,-125,4,2,1,60,0,0
110533,-83.3333333333333,4,2,1,60,0,0
110866,-100,4,2,1,60,0,0
111866,-62.5,4,2,1,70,0,0
112866,-76.9230769230769,4,2,3,70,0,0
113200,-76.9230769230769,4,2,1,70,0,0
113700,-90.9090909090909,4,2,1,70,0,0
115033,-76.9230769230769,4,2,1,70,0,0
116200,-76.9230769230769,4,2,1,40,0,0
116533,-76.9230769230769,4,2,1,50,0,0
116866,-76.9230769230769,4,2,1,60,0,0
117200,-76.9230769230769,4,2,1,70,0,0
118366,-90.9090909090909,4,2,1,70,0,0
119700,-71.4285714285714,4,2,1,70,0,0
121200,-66.6666666666667,4,2,2,80,0,1
121700,-90.9090909090909,4,2,2,80,0,1
122033,-76.9230769230769,4,2,2,80,0,1
123200,-100,4,2,2,80,0,1
123533,-71.4285714285714,4,2,2,80,0,1
123866,-83.3333333333333,4,2,2,80,0,1
125033,-76.9230769230769,4,2,2,80,0,1
125866,-100,4,2,2,80,0,1
126200,-76.9230769230769,4,2,2,80,0,1
126533,-100,4,2,1,80,0,1
127866,-66.6666666666667,4,2,1,80,0,1
128200,-83.3333333333333,4,2,1,80,0,1
128866,-100,4,2,1,80,0,1
129200,-76.9230769230769,4,2,1,80,0,1
129700,-66.6666666666667,4,2,1,80,0,1
130366,-71.4285714285714,4,2,3,80,0,1
131033,-71.4285714285714,4,2,1,80,0,1
131866,-71.4285714285714,4,2,2,80,0,1
132366,-100,4,2,2,80,0,1
132700,-83.3333333333333,4,2,2,80,0,1
133033,-71.4285714285714,4,2,2,80,0,1
133866,-83.3333333333333,4,2,2,80,0,1
134200,-66.6666666666667,4,2,2,80,0,1
134533,-76.9230769230769,4,2,2,80,0,1
135033,-90.9090909090909,4,2,2,80,0,1
135366,-76.9230769230769,4,2,2,80,0,1
135700,-71.4285714285714,4,2,2,80,0,1
136700,-71.4285714285714,4,2,1,80,0,1
137866,-83.3333333333333,4,2,1,80,0,1
138533,-125,4,2,1,80,0,1
139033,-83.3333333333333,4,2,1,80,0,1
139366,-71.4285714285714,4,2,1,80,0,1
141200,-142.857142857143,4,2,1,80,0,0
142366,-71.4285714285715,4,2,1,70,0,0
143700,-71.4285714285715,4,2,3,70,0,0
144700,-71.4285714285715,4,2,1,70,0,0
145200,-71.4285714285715,4,2,2,70,0,0
145533,-83.3333333333333,4,2,2,70,0,0
146200,-125,4,2,2,70,0,0
146700,-100,4,2,2,70,0,0
147866,-100,4,2,1,70,0,0
148366,-71.4285714285714,4,2,1,70,0,0
149366,-76.9230769230769,4,2,1,70,0,0
149866,-125,4,2,1,70,0,0
150200,-71.4285714285714,4,2,1,70,0,0
150866,-83.3333333333333,4,2,1,70,0,0
152366,-100,4,2,1,70,0,0
152532,-100,4,2,1,55,0,0
152700,-100,4,2,1,60,0,0
153033,-76.9230769230769,4,2,1,70,0,0
153700,-76.9230769230769,4,2,1,50,0,0
154200,-76.9230769230769,4,2,1,60,0,0
154533,-100,4,2,2,70,0,0
155533,-83.3333333333333,4,2,2,70,0,0
155866,-100,4,2,2,70,0,0
156366,-83.3333333333333,4,2,2,70,0,0
157533,-90.9090909090909,4,2,2,70,0,0
158533,-66.6666666666667,4,2,1,70,0,0
158866,-76.9230769230769,4,2,1,70,0,0
159200,-100,4,2,1,70,0,0
159533,-125,4,2,1,70,0,0
160200,-83.3333333333333,4,2,1,70,0,0
161366,-100,4,2,1,70,0,0
161700,-83.3333333333333,4,2,1,70,0,0
171533,-83.3333333333333,4,2,1,60,0,0
172533,-100,4,2,1,60,0,0
173700,-83.3333333333333,4,2,1,60,0,0
175700,-66.6666666666667,4,2,1,70,0,0
177700,-83.3333333333333,4,2,1,70,0,0
179200,-71.4285714285714,4,2,1,70,0,0
179866,-71.4285714285714,4,2,2,80,0,1
180366,-83.3333333333333,4,2,2,80,0,1
181033,-76.9230769230769,4,2,2,80,0,1
181866,-90.9090909090909,4,2,2,80,0,1
182200,-76.9230769230769,4,2,2,80,0,1
182533,-76.9230769230769,4,2,1,80,0,1
182866,-100,4,2,1,80,0,1
183866,-76.9230769230769,4,2,1,80,0,1
184200,-90.9090909090909,4,2,1,80,0,1
184866,-76.9230769230769,4,2,1,80,0,1
185700,-66.6666666666667,4,2,1,80,0,1
186366,-76.9230769230769,4,2,3,80,0,1
187033,-76.9230769230769,4,2,1,80,0,1
187866,-90.9090909090909,4,2,2,80,0,1
188366,-71.4285714285714,4,2,2,80,0,1
189033,-90.9090909090909,4,2,2,80,0,1
189866,-100,4,2,2,80,0,1
190200,-76.9230769230769,4,2,2,80,0,1
190533,-83.3333333333333,4,2,2,80,0,1
191700,-71.4285714285714,4,2,1,80,0,1
193533,-83.3333333333333,4,2,1,80,0,1
194200,-76.9230769230769,4,2,1,80,0,1
194533,-100,4,2,1,80,0,1
195033,-76.9230769230769,4,2,3,80,0,1
195366,-100,4,2,3,80,0,1
195700,-83.3333333333333,4,2,1,80,0,1
196200,-100,4,2,1,80,0,1
197200,-71.4285714285714,4,2,1,80,0,1
197700,-71.4285714285714,4,2,3,80,0,1
198533,-71.4285714285714,4,2,1,80,0,1
200366,-76.9230769230769,4,2,3,80,0,1
200700,-90.9090909090909,4,2,3,80,0,1
201033,-76.9230769230769,4,2,1,80,0,1
202533,-111.111111111111,4,2,1,80,0,0
203866,-111.111111111111,4,2,1,70,0,0
205200,-83.3333333333333,4,2,2,70,0,0
206033,-100,4,2,2,70,0,0
207033,-76.9230769230769,4,2,2,70,0,0
207866,-83.3333333333333,4,2,2,70,0,0
208200,-90.9090909090909,4,2,2,70,0,0
209200,-66.6666666666667,4,2,2,70,0,0
209533,-76.9230769230769,4,2,2,70,0,0
209866,-100,4,2,2,70,0,0
210200,-125,4,2,2,70,0,0
210533,-100,4,2,1,70,0,0
211366,-83.3333333333333,4,2,1,70,0,0
212366,-76.9230769230769,4,2,1,70,0,0
212866,-90.9090909090909,4,2,1,70,0,0
213700,-100,4,2,3,70,0,0
214033,-100,4,2,1,70,0,0
214366,-76.9230769230769,4,2,1,70,0,0
214866,-83.3333333333333,4,2,1,70,0,0
215200,-83.3333333333333,4,2,3,70,0,0
215866,-83.3333333333333,4,2,1,70,0,0
216866,-83.3333333333333,4,2,3,70,0,0
217033,-100,4,2,1,70,0,0

[Colours]
Combo1 : 201,201,228
Combo2 : 213,255,174
Combo3 : 255,128,128
Combo4 : 219,197,164

[HitObjects]
32,64,1200,6,0,B|150:87|85:136|224:160,1,198,2|2,2:0|2:0,2:0:0:0:
202,155,2033,1,2,2:0:0:0:
318,85,2366,2,0,B|269:54|275:0|275:0|253:49|181:59,1,198,2|2,2:0|2:0,2:0:0:0:
0,152,3033,5,2,2:0:0:0:
0,152,3200,2,0,P|42:150|64:66,1,132,2|2,2:0|2:0,2:0:0:0:
271,232,3866,6,0,P|229:230|207:146,1,132,2|2,2:0|2:0,2:0:0:0:
384,26,4366,2,0,P|369:87|357:176,1,132,2|2,2:0|2:0,2:0:0:0:
358,155,5033,1,2,2:0:0:0:
256,192,5200,12,0,6366,2:0:0:0:
410,106,6533,6,0,P|424:167|430:208,1,74.8000000000003,4|0,1:2|2:0,2:0:0:0:
512,279,6866,2,0,P|452:260|413:245,1,74.8000000000003,2|0,1:2|2:0,2:0:0:0:
311,280,7200,2,0,P|356:237|389:211,1,74.8000000000003,0|0,1:2|2:0,2:0:0:0:
291,360,7533,5,2,1:2:0:0:
192,256,7700,1,0,1:2:0:0:
366,229,7866,2,0,B|308:209|308:209|300:187|300:187|226:160,1,149.600000000001,6|2,1:2|1:2,2:0:0:0:
227,77,8366,6,0,P|233:40|243:4,1,74.8000000000003,2|0,2:0|1:2,2:0:0:0:
137,151,8700,2,0,P|100:157|63:167,1,74.8000000000003,2|0,2:0|1:2,2:0:0:0:
12,9,9033,2,0,B|88:27|51:52|128:71,1,132,12|0,2:0|2:0,2:0:0:0:
146,71,9366,5,0,1:2:0:0:
291,21,9533,1,0,1:2:0:0:
352,192,9700,1,0,1:2:0:0:
294,6,9866,1,8,1:2:0:0:
211,126,10033,5,8,1:2:0:0:
352,192,10200,1,8,1:2:0:0:
180,244,10366,1,8,2:0:0:0:
390,59,10533,2,0,B|394:33|430:15|494:31|512:116|423:135|421:126|416:116|363:132|370:200,1,264,14|0,2:0|2:0,2:0:0:0:
371,193,11700,6,0,B|263:205|314:247|199:265,1,176,14|0,2:0|1:2,2:0:0:0:
64,298,12200,1,10,2:0:0:0:
241,152,12366,1,0,1:2:0:0:
208,342,12533,1,10,2:0:0:0:
91,150,12700,1,0,1:2:0:0:
106,384,12866,1,10,2:0:0:0:
282,236,13033,1,2,1:2:0:0:
468,185,13366,5,10,2:0:0:0:
314,152,13533,1,10,2:0:0:0:
157,212,13700,5,10,2:0:0:0:
3,245,13866,1,10,1:2:0:0:
124,58,14033,5,0,1:2:0:0:
124,58,14116,1,0,1:2:0:0:
124,58,14200,2,0,P|116:116|115:150,1,88,14|2,2:0|1:2,2:0:0:0:
0,333,14533,6,0,P|36:329|62:277,1,92.3999999999999,6|0,1:2|2:0,2:0:0:0:
3,245,14866,2,0,B|64:233|98:290|87:294|77:298|113:355|174:341,1,211.2,10|2,2:0|1:2,2:0:0:0:
245,208,15366,1,2,1:2:0:0:
245,208,15533,2,0,P|193:186|151:222,1,105.6,8|2,2:0|2:0,2:0:0:0:
32,160,15866,5,2,1:2:0:0:
192,64,16033,1,2,1:2:0:0:
96,0,16200,5,10,2:0:0:0:
248,118,16366,2,0,B|324:98|324:98|360:47|305:-1,1,176,2|2,1:2|1:2,2:0:0:0:
316,9,16866,1,10,2:0:0:0:
512,160,17033,5,2,1:2:0:0:
512,160,17200,2,0,P|471:160|454:102,1,92.3999999999999,2|0,1:2|2:0,2:0:0:0:
494,64,17533,2,0,L|467:292,1,211.2,10|2,2:0|1:2,2:0:0:0:
469,273,18033,1,2,1:2:0:0:
360,369,18200,2,0,P|307:372|256:383,1,105.6,8|2,2:0|1:2,2:0:0:0:
96,192,18533,6,0,P|81:276|188:281,1,198,4|0,1:3|2:0,2:0:0:0:
95,122,18866,2,0,P|24:161|47:243,1,171.6,4|0,1:3|2:0,2:0:0:0:
158,95,19200,2,0,P|99:69|59:117,1,132,4|0,1:3|2:0,2:0:0:0:
208,135,19533,2,0,P|201:101|170:87,1,70.4,2|2,1:2|2:0,2:0:0:0:
371,28,19866,6,0,P|406:36|411:100,1,92.3999999999999,6|0,1:2|2:0,2:0:0:0:
420,86,20200,2,0,B|294:65|356:19|222:0,1,211.2,10|2,2:0|1:2,2:0:0:0:
123,158,20700,2,0,P|195:137|229:132,1,88,2|8,1:2|2:0,2:0:0:0:
124,73,21033,1,2,2:0:0:0:
70,247,21200,5,2,1:2:0:0:
207,134,21366,1,2,1:2:0:0:
0,210,21533,5,10,2:0:0:0:
128,320,21700,2,0,B|238:295|238:295|199:294|173:260,1,176,6|0,1:2|1:2,2:0:0:0:
207,134,22200,5,10,2:0:0:0:
128,320,22366,1,2,1:2:0:0:
320,256,22533,6,0,B|456:287|456:287|408:288|375:330,1,228.8,2|10,1:2|1:2,2:0:0:0:
207,134,23033,2,0,P|201:87|229:47,1,88,6|0,1:2|2:0,2:0:0:0:
181,270,23366,5,10,2:3:0:0:
311,106,23533,1,10,2:0:0:0:
112,41,23700,2,0,P|106:88|208:133,1,176,6|2,1:2|1:2,2:0:0:0:
181,270,24200,5,2,1:2:0:0:
225,125,24366,2,0,P|283:147|357:181,1,132,12|0,2:0|2:0,2:0:0:0:
439,89,24700,6,0,B|499:80|480:46|512:0|512:0|448:0|442:58,1,211.2,12|0,2:0|1:2,2:0:0:0:
444,44,25089,1,0,1:2:0:0:
444,44,25144,1,0,1:2:0:0:
444,44,25200,1,6,1:2:0:0:
346,175,25533,6,0,P|363:238|368:274,1,88,2|0,1:2|2:0,2:0:0:0:
512,280,25866,2,0,P|499:237|491:194,1,88,2|0,1:2|2:0,2:0:0:0:
320,352,26200,5,2,1:2:0:0:
256,320,26366,2,0,P|211:327|170:339,1,88,2|0,2:0|1:2,2:0:0:0:
50,271,26700,2,0,B|92:254|92:254|125:283,1,88,2|0,2:0|1:2,2:0:0:0:
170,338,27033,5,2,2:0:0:0:
0,192,27200,1,2,1:2:0:0:
39,384,27366,2,0,P|32:339|20:298,1,88,2|0,2:0|1:2,2:0:0:0:
96,160,27700,5,0,2:0:0:0:
96,160,27866,2,0,P|139:166|181:178,1,88,2|2,1:2|2:0,2:0:0:0:
195,270,28200,1,2,1:2:0:0:
256,224,28366,1,2,2:0:0:0:
256,224,28533,2,0,B|356:213|307:164|421:159,1,176,2|2,1:2|1:2,2:0:0:0:
260,17,29033,2,0,P|247:57|268:94,1,88,2|0,1:2|1:2,2:0:0:0:
422,82,29533,5,2,1:2:0:0:
320,160,29700,2,0,B|420:171|371:220|485:225,1,176,2|2,2:0|2:0,2:0:0:0:
478,224,30200,1,2,1:2:0:0:
220,144,30366,5,2,1:2:0:0:
220,144,30450,1,2,1:2:0:0:
220,144,30533,2,0,P|251:118|320:173,1,132,2|0,1:2|2:0,2:0:0:0:
313,185,30866,2,0,P|308:229|301:272,1,88,2|0,1:2|2:0,2:0:0:0:
63,159,31200,6,0,B|74:59|123:108|128:-6,1,176,2|2,2:0|2:0,2:0:0:0:
229,184,31700,2,0,P|185:188|141:195,1,88,2|0,2:0|1:2,2:0:0:0:
0,281,32033,2,0,P|44:286|87:293,1,88,2|0,2:0|1:2,2:0:0:0:
98,95,32366,5,2,2:0:0:0:
229,184,32533,1,2,1:2:0:0:
186,69,32700,1,2,2:0:0:0:
166,250,32866,1,2,1:2:0:0:
327,168,33033,5,2,1:2:0:0:
327,168,33116,1,2,1:2:0:0:
327,168,33200,2,0,P|314:125|308:74,1,88,2|2,1:2|2:0,2:0:0:0:
147,164,33533,2,0,P|160:207|166:258,1,88,2|2,1:2|2:0,2:0:0:0:
256,374,33866,6,0,B|350:380|312:327|420:331,1,171.6,2|0,1:2|2:0,2:0:0:0:
417,330,34200,1,2,1:2:0:0:
447,176,34366,1,2,2:0:0:0:
244,260,34533,6,0,B|378:237|322:185|449:175,1,224.4,14|0,2:0|2:0,2:0:0:0:
512,208,34866,1,2,1:2:0:0:
320,32,35033,2,0,P|337:94|347:142,1,88,12|0,2:0|2:0,2:0:0:0:
164,226,35366,6,0,B|124:136|40:125|-16:183|18:246|48:252|94:225,1,264,12|2,2:0|1:2,2:0:0:0:
85,243,35783,1,2,1:2:0:0:
93,250,35866,2,0,P|102:292|111:343,1,88,6|0,1:2|2:0,2:0:0:0:
236,384,36200,6,0,B|189:335|233:280|235:278|240:276|283:222|236:170,1,228.8,10|2,2:0|1:2,2:0:0:0:
164,226,36700,1,0,1:2:0:0:
307,315,36866,1,10,2:0:0:0:
291,229,37033,2,0,B|279:282|279:282|308:316,1,96.8,2|0,1:2|2:0,2:0:0:0:
432,110,37366,2,0,P|422:161|415:208,1,96.8,2|8,1:2|2:0,2:0:0:0:
411,294,37700,5,2,2:0:0:0:
291,229,37866,1,2,1:2:0:0:
390,370,38033,1,2,1:2:0:0:
489,289,38200,2,0,P|500:241|515:179,1,96.8,10|2,2:0|2:0,2:0:0:0:
291,229,38533,6,0,P|249:203|197:207,1,96.8,2|2,1:2|2:0,2:0:0:0:
81,257,38866,1,10,2:0:0:0:
115,112,39033,1,2,2:0:0:0:
200,294,39200,1,2,1:2:0:0:
235,118,39366,6,0,P|179:103|113:113,1,123.2,2|8,1:2|2:0,2:0:0:0:
47,35,39700,2,0,B|166:47|104:99|235:118,1,211.2,2|2,1:2|1:2,2:0:0:0:
309,207,40200,1,10,2:0:0:0:
383,119,40366,2,0,P|406:57|409:10,1,105.6,2|0,1:2|2:0,2:0:0:0:
230,19,40700,5,2,1:2:0:0:
383,119,40866,2,0,P|435:125|478:144,1,88,10|0,2:0|2:0,2:0:0:0:
467,138,41200,1,0,1:2:0:0:
252,298,41533,6,0,P|244:343|236:395,1,88,10|0,2:0|2:0,2:0:0:0:
393,279,41866,1,2,1:2:0:0:
265,154,42033,1,0,1:2:0:0:
413,109,42200,2,0,P|421:154|429:206,1,88,10|0,2:0|2:0,2:0:0:0:
265,154,42533,6,0,B|138:174|138:174|194:152|203:84,1,228.8,2|10,1:2|2:0,2:0:0:0:
37,28,43033,2,0,P|22:85|77:118,1,114.4,2|0,1:2|2:0,2:0:0:0:
199,100,43366,2,0,P|214:43|159:10,1,114.4,2|8,1:2|2:0,2:0:0:0:
48,232,43700,6,0,B|37:201|0:191|0:191|52:178|93:215|86:220|79:228|121:277|175:263,1,264,6|2,1:2|1:2,2:0:0:0:
96,371,44200,2,0,P|50:361|-5:356,1,96.8,8|2,2:0|1:2,2:0:0:0:
186,252,44533,2,0,P|175:204|171:156,1,96.8,10|2,2:0|1:2,2:0:0:0:
100,286,44866,5,10,2:0:0:0:
288,352,45033,1,6,1:2:0:0:
171,156,45366,5,10,2:0:0:0:
171,156,45450,1,10,2:0:0:0:
171,156,45533,1,10,2:0:0:0:
384,96,45700,5,10,2:0:0:0:
384,96,45783,1,10,2:0:0:0:
384,96,45866,1,10,2:0:0:0:
220,5,46033,1,2,1:2:0:0:
171,156,46200,5,10,2:0:0:0:
292,90,46366,1,2,1:2:0:0:
171,156,46533,1,6,1:2:0:0:
464,266,46866,6,0,P|483:224|466:182,1,88,2|0,1:2|1:2,2:0:0:0:
327,169,47200,2,0,P|352:206|397:211,1,88,10|0,2:0|2:0,2:0:0:0:
478,98,47533,2,0,P|432:101|404:136,1,88,2|0,1:2|2:0,2:0:0:0:
389,355,47866,6,0,B|480:341|480:341|506:292|454:259,1,176,2|2,1:2|1:2,2:0:0:0:
352,288,48366,2,0,B|250:310|303:350|191:379,1,176,10|0,2:0|1:2,2:0:0:0:
128,256,48866,2,0,B|89:259|51:283|51:283|53:226|25:194,1,176,10|2,2:0|1:2,2:0:0:0:
224,192,49533,6,0,P|248:156|226:103,1,88,2|0,1:2|1:2,2:0:0:0:
187,0,49866,2,0,P|166:38|155:81,1,88,10|0,2:0|2:0,2:0:0:0:
318,77,50200,2,0,P|333:131|423:135,1,132,2|0,1:2|2:0,2:0:0:0:
414,144,50533,6,0,P|368:155|328:179,1,93.8666666666667,10|0,1:2|2:0,2:0:0:0:
217,353,50755,2,0,P|229:308|228:261,1,93.8666666666667,10|0,1:2|2:0,2:0:0:0:
135,77,50978,2,0,P|168:111|209:133,1,93.8666666666667,10|0,1:2|2:0,2:0:0:0:
256,192,51200,5,10,2:0:0:0:
29,255,51366,1,0,1:2:0:0:
29,255,51450,1,0,1:2:0:0:
29,255,51533,2,0,P|108:277|183:309,1,145.2,14|0,2:0|2:0,2:0:0:0:
217,353,51866,6,0,P|298:338|403:331,1,171.6,6|0,1:2|2:0,2:0:0:0:
387,331,52200,1,10,2:0:0:0:
512,224,52366,2,0,B|477:207|451:163|451:163|489:304,1,228.8,4|2,1:2|1:2,2:0:0:0:
487,299,52866,1,8,2:0:0:0:
349,219,53033,1,2,2:0:0:0:
506,294,53200,5,6,1:2:0:0:
333,381,53366,1,2,2:0:0:0:
416,139,53533,1,10,2:0:0:0:
256,288,53700,6,0,P|321:295|357:194,1,171.6,4|0,1:2|2:0,2:0:0:0:
347,179,54033,1,2,1:2:0:0:
192,32,54200,2,0,P|203:96|208:149,1,114.4,8|0,2:0|1:2,2:0:0:0:
207,145,54533,1,2,1:2:0:0:
58,249,54866,5,2,1:2:0:0:
186,164,55033,1,0,1:2:0:0:
48,147,55200,1,2,1:2:0:0:
177,252,55366,1,0,1:2:0:0:
116,67,55533,1,2,1:2:0:0:
43,265,55700,1,0,1:2:0:0:
290,108,55866,5,10,1:2:0:0:
33,131,56033,1,10,1:2:0:0:
192,268,56200,1,10,1:2:0:0:
190,66,56366,5,2,1:2:0:0:
213,42,56450,1,0,1:2:0:0:
253,42,56533,1,2,1:2:0:0:
281,70,56616,1,0,1:2:0:0:
290,108,56700,1,10,1:2:0:0:
311,142,56783,1,8,1:2:0:0:
347,158,56866,1,8,2:0:0:0:
392,153,56950,1,8,2:0:0:0:
420,128,57033,6,0,B|293:144|347:200|205:219,1,228.8,14|2,2:0|1:2,2:0:0:0:
292,25,57533,1,10,2:0:0:0:
420,128,57700,1,2,1:2:0:0:
420,128,57783,1,2,1:2:0:0:
420,128,57866,1,10,2:0:0:0:
448,32,58033,5,10,2:0:0:0:
349,222,58200,1,10,2:0:0:0:
256,128,58366,2,0,B|212:58|131:73|131:73|162:81|185:116,1,198,10|0,2:0|2:0,2:0:0:0:
174,101,58700,5,10,2:0:0:0:
349,54,58866,1,10,2:0:0:0:
224,352,59866,6,0,B|176:363|139:317|163:307|117:267|65:281|65:281|107:283|139:337,1,264,6|10,1:2|2:0,2:0:0:0:
221,265,60366,2,0,P|260:248|269:206,1,88,2|0,1:2|2:0,2:0:0:0:
22,157,60700,2,0,P|49:211|65:280,1,132,2|8,1:2|2:0,2:0:0:0:
311,374,61033,6,0,B|415:348|415:348|446:275|370:246,1,228.8,2|2,1:2|1:2,2:0:0:0:
300,274,61533,1,8,2:0:0:0:
223,376,61700,5,2,2:0:0:0:
286,159,61866,2,0,P|297:201|307:244,1,88,2|0,1:2|1:2,2:0:0:0:
486,351,62200,2,0,P|496:294|511:239,1,114.4,10|0,2:0|2:0,2:0:0:0:
342,53,62533,2,0,P|265:63|274:154,1,171.6,2|0,1:2|2:0,2:0:0:0:
286,159,62866,1,10,2:0:0:0:
442,21,63033,6,0,P|499:30|512:96,1,114.4,2|0,1:2|2:0,2:0:0:0:
286,159,63366,2,0,P|344:143|405:129,1,114.4,2|8,1:2|2:0,2:0:0:0:
224,288,63700,2,0,B|116:267|172:222|54:199,1,193.6,2|2,1:2|1:2,2:0:0:0:
17,104,64200,5,10,2:0:0:0:
191,180,64366,1,0,2:0:0:0:
78,284,64533,2,0,P|63:234|56:190,1,88,2|0,1:2|1:2,2:0:0:0:
330,78,64866,6,0,P|220:84|218:153,1,184.8,10|0,2:0|2:0,2:0:0:0:
286,159,65200,2,0,P|238:166|192:180,1,96.8,6|0,1:2|2:0,2:0:0:0:
32,0,65533,6,0,P|88:18|94:71,1,88,10|0,2:0|2:0,2:0:0:0:
70,192,65866,2,0,P|57:134|100:102,1,88,2|0,1:2|1:2,2:0:0:0:
218,63,66200,2,0,P|174:102|125:81,1,88,10|0,2:0|2:0,2:0:0:0:
188,350,66533,6,0,B|111:338|111:338|83:288|136:262,1,171.6,2|0,1:2|2:0,2:0:0:0:
137,261,66866,2,0,P|194:214|191:181,1,114.4,10|0,2:0|2:0,2:0:0:0:
0,323,67200,2,0,P|42:327|103:341,1,88,2|0,1:2|1:2,2:0:0:0:
307,120,67533,2,0,P|273:198|190:179,1,184.8,8|0,2:0|2:0,2:0:0:0:
189,178,67866,6,0,P|163:130|108:125,1,114.4,2|0,1:2|2:0,2:0:0:0:
45,175,68200,1,10,2:0:0:0:
241,82,68366,6,0,P|349:61|455:36,1,198,2|0,1:2|2:0,2:0:0:0:
443,65,68700,2,0,P|379:80|314:91,1,132,2|8,1:2|2:0,2:0:0:0:
438,314,69033,6,0,B|478:254|414:199|410:207|405:212|336:173|376:102,1,246.4,6|2,1:2|1:2,2:0:0:0:
340,265,69533,5,10,2:0:0:0:
483,173,69700,2,0,B|523:243|454:282|449:277|445:269|381:324|420:384,1,246.4,6|2,1:2|1:2,2:0:0:0:
419,383,70200,1,10,1:2:0:0:
347,144,70366,5,2,1:2:0:0:
347,144,70450,1,2,1:2:0:0:
347,144,70533,2,0,B|429:128|429:128|372:98,1,145.2,6|0,1:2|2:0,2:0:0:0:
374,99,70866,5,10,2:0:0:0:
192,192,71033,2,0,B|90:174|147:133|34:116,1,171.6,2|0,1:2|2:0,2:0:0:0:
42,117,71366,2,0,P|23:70|75:32,1,114.4,2|8,1:2|2:0,2:0:0:0:
170,277,71700,6,0,P|180:228|192:189,1,88,2|0,1:2|2:0,2:0:0:0:
0,351,72033,2,0,P|77:366|139:385,1,123.2,2|8,1:2|2:0,2:0:0:0:
247,245,72366,5,2,2:0:0:0:
247,245,72533,2,0,P|227:202|178:193,1,88,2|0,1:2|1:2,2:0:0:0:
276,323,72866,2,0,P|327:285|327:221,1,132,10|0,2:0|2:0,2:0:0:0:
236,129,73200,2,0,P|347:151|457:178,1,198,2|0,1:2|2:0,2:0:0:0:
512,194,73533,5,10,2:0:0:0:
512,192,73700,2,0,P|463:207|429:156,1,105.6,2|0,1:2|2:0,2:0:0:0:
346,368,74033,2,0,P|407:351|470:340,1,123.2,2|8,1:2|2:0,2:0:0:0:
339,278,74366,6,0,B|271:255|229:314|236:320|243:326|204:401|111:365,1,246.4,2|2,1:2|1:2,2:0:0:0:
132,371,74866,1,10,2:0:0:0:
122,262,75033,5,2,1:2:0:0:
122,262,75116,1,2,1:2:0:0:
122,262,75200,1,10,2:0:0:0:
399,218,75366,1,10,2:3:0:0:
305,353,75533,5,6,3:0:0:0:
262,214,75700,1,6,3:0:0:0:
219,75,75866,1,6,1:2:0:0:
219,75,76200,5,2,1:2:0:0:
399,218,76366,1,0,1:2:0:0:
399,218,76450,1,0,1:2:0:0:
399,218,76533,2,0,B|295:221|346:276|225:282,1,176,10|2,2:0|1:2,2:0:0:0:
271,168,77200,6,0,B|353:170|312:213|408:218,1,140.8,2|2,1:2|1:2,2:0:0:0:
512,0,77700,6,0,P|502:43|494:134,1,123.2,10|0,2:0|2:0,2:0:0:0:
271,168,78033,2,0,P|293:121|367:119,1,123.199996240234,2|8,1:2|2:0,2:0:0:0:
454,327,78366,6,0,B|417:309|371:308|371:308|336:240|399:216,1,198,6|0,1:2|2:0,2:0:0:0:
512,168,78700,1,0,1:2:0:0:
471,240,78866,1,0,1:2:0:0:
339,72,79033,1,0,1:2:0:0:
431,141,79200,1,8,1:2:0:0:
273,308,79366,1,8,1:2:0:0:
334,172,79533,1,8,1:2:0:0:
188,104,79700,1,8,2:0:0:0:
188,104,79783,1,8,2:0:0:0:
188,104,79866,1,14,2:0:0:0:
290,350,81200,6,0,P|358:334|371:267,1,114.4,6|0,1:2|2:0,2:0:0:0:
489,131,81533,2,0,B|516:175|479:209|479:209|437:191|389:192,1,171.6,10|0,2:0|2:0,2:0:0:0:
396,191,81866,5,2,1:2:0:0:
237,75,82033,1,2,1:2:0:0:
320,29,82200,2,0,P|333:70|344:113,1,88,8|2,2:0|1:2,2:0:0:0:
68,182,82533,5,2,1:2:0:0:
177,239,82700,1,2,1:2:0:0:
96,256,82866,5,10,2:0:0:0:
237,75,83033,2,0,B|196:127|241:177|245:178|250:181|283:221|246:272,1,211.2,6|0,1:2|1:2,2:0:0:0:
177,239,83533,5,10,2:0:0:0:
119,81,83700,1,2,1:2:0:0:
304,58,83866,2,0,P|277:133|185:123,1,184.8,2|0,1:2|2:0,2:0:0:0:
185,123,84200,5,10,1:2:0:0:
352,192,84366,2,0,B|440:217|440:217|470:273|400:323,1,211.2,6|10,1:2|1:3,2:0:0:0:
256,352,84866,5,10,2:0:0:0:
256,352,85033,2,0,B|164:335|217:291|107:277,1,158.4,6|0,1:2|2:0,2:0:0:0:
50,304,85366,1,2,1:2:0:0:
275,167,85533,5,2,1:2:0:0:
144,12,85700,2,0,B|115:36|125:64|125:64|148:82|161:106,1,105.6,14|0,2:0|2:0,2:0:0:0:
275,167,86033,6,0,B|444:142|444:142|393:160|372:203,1,264,14|0,2:0|1:2,2:0:0:0:
373,199,86422,1,0,1:2:0:0:
373,199,86478,1,0,1:2:0:0:
373,199,86533,1,6,1:2:0:0:
388,250,95866,6,0,P|338:197|372:141,1,132,14|0,2:0|1:2,2:0:0:0:
436,151,96200,1,0,1:2:0:0:
274,314,96366,1,14,2:0:0:0:
274,314,96700,6,0,B|360:341|360:341|426:307|403:218,1,211.2,14|2,2:0|1:2,2:0:0:0:
339,192,97116,5,2,1:2:0:0:
339,192,97200,2,0,B|226:159|226:159|275:161|320:117,1,198,6|0,1:2|2:0,2:0:0:0:
300,133,97533,2,0,B|186:160|251:216|103:247,1,211.2,10|2,2:0|1:2,2:0:0:0:
9,172,98033,5,0,1:2:0:0:
93,342,98200,1,10,2:0:0:0:
93,342,98366,2,0,P|43:331|-24:322,1,88,2|0,1:2|2:0,2:0:0:0:
95,96,98700,2,0,P|138:88|181:79,1,88,2|8,1:2|2:0,2:0:0:0:
156,194,99033,5,2,2:0:0:0:
95,96,99200,1,2,1:2:0:0:
9,172,99366,1,2,1:2:0:0:
182,79,99533,2,0,P|234:87|285:99,1,105.6,10|2,2:0|2:0,2:0:0:0:
388,0,99866,5,2,1:2:0:0:
417,189,100033,1,2,2:0:0:0:
512,132,100200,5,10,2:0:0:0:
463,78,100366,1,2,2:0:0:0:
341,165,100533,1,2,1:2:0:0:
478,307,100700,2,0,P|484:254|495:203,1,105.6,2|8,1:2|2:0,2:0:0:0:
411,348,101033,6,0,B|366:371|313:325|341:311|280:255|217:292,1,211.2,2|0,1:2|1:2,2:0:0:0:
225,287,101533,1,8,2:0:0:0:
341,165,101700,2,0,P|330:216|324:269,1,88,2|0,1:2|2:0,2:0:0:0:
388,347,102033,5,2,1:2:0:0:
216,195,102200,1,10,2:0:0:0:
341,165,102366,1,2,1:2:0:0:
160,320,102533,2,0,B|76:294|76:294|80:247|36:218,1,158.4,0|0,1:2|2:0,2:0:0:0:
5,285,102866,6,0,P|13:225|22:171,1,105.6,10|2,2:0|2:0,2:0:0:0:
202,38,103200,2,0,P|194:98|185:152,1,88,2|0,1:2|1:2,2:0:0:0:
439,121,103533,6,0,B|396:162|348:121|355:113|362:104|320:65|273:99,1,184.8,10|0,2:0|2:0,2:0:0:0:
277,96,103866,2,0,P|234:134|167:97,1,105.6,2|0,1:2|2:0,2:0:0:0:
361,92,104200,5,10,2:0:0:0:
320,288,104366,1,2,1:2:0:0:
310,307,104700,1,2,1:2:0:0:
448,224,104866,1,8,2:0:0:0:
300,326,105033,2,0,B|164:298|164:298|211:314|228:359,1,211.2,6|2,1:2|1:2,2:0:0:0:
219,341,105533,1,8,2:0:0:0:
370,207,105700,5,2,1:2:0:0:
370,207,105783,1,2,1:2:0:0:
370,207,105866,1,10,2:0:0:0:
512,64,106033,5,2,1:2:0:0:
512,64,106116,1,0,1:2:0:0:
512,64,106200,1,10,2:0:0:0:
441,129,106366,1,6,1:2:0:0:
14,76,106700,5,10,2:0:0:0:
14,76,106783,1,10,2:0:0:0:
14,76,106866,1,10,2:0:0:0:
192,160,107033,1,10,2:0:0:0:
0,249,107200,1,10,2:0:0:0:
98,141,107366,1,2,1:2:0:0:
152,236,107533,1,10,2:0:0:0:
20,170,107700,1,2,1:2:0:0:
56,361,107866,6,0,P|141:338|243:323,1,176,6|2,1:2|2:0,2:0:0:0:
227,324,108366,1,2,1:2:0:0:
149,210,108533,2,0,B|111:186|111:186|79:230,1,88,2|0,2:0|2:0,2:0:0:0:
256,256,108866,6,0,B|333:275|333:275|378:258|359:188,1,158.4,10|0,2:0|2:0,2:0:0:0:
363,209,109200,2,0,B|329:244|347:295|363:288|385:334|349:376,1,176,2|2,1:2|2:0,2:0:0:0:
447,262,109700,1,2,1:2:0:0:
335,108,109866,2,0,P|311:170|364:209,1,140.8,8|2,2:0|1:2,2:0:0:0:
215,253,110366,5,8,2:0:0:0:
215,253,110533,2,0,P|143:241|118:327,1,158.4,0|0,1:2|2:0,2:0:0:0:
123,336,110866,2,0,P|168:343|215:347,1,88,2|0,1:2|1:2,2:0:0:0:
329,204,111200,2,0,P|325:248|318:292,1,88,10|0,2:0|2:0,2:0:0:0:
384,384,111533,2,0,P|442:368|448:291,1,132,2|0,1:2|2:0,2:0:0:0:
415,239,111866,6,0,P|369:228|329:204,1,93.8666666666667,10|0,1:2|2:0,2:0:0:0:
217,31,112089,2,0,P|229:76|228:123,1,93.8666666666667,10|0,1:2|2:0,2:0:0:0:
135,307,112311,2,0,P|168:273|209:251,1,93.8666666666667,10|0,1:2|2:0,2:0:0:0:
256,192,112533,5,10,2:0:0:0:
488,115,112700,1,0,1:2:0:0:
488,115,112783,1,0,1:2:0:0:
488,115,112866,2,0,P|396:93|401:32,1,171.6,12|0,2:0|2:0,2:0:0:0:
416,13,113200,6,0,P|434:74|463:194,1,171.6,6|0,1:2|2:0,2:0:0:0:
459,178,113533,1,10,2:0:0:0:
342,330,113700,2,0,B|398:343|448:304|417:296|455:249|525:268,1,193.6,6|2,1:2|1:2,2:0:0:0:
383,220,114200,1,8,2:0:0:0:
512,265,114366,1,2,2:0:0:0:
354,143,114533,5,6,1:2:0:0:
250,231,114700,1,2,2:0:0:0:
354,143,114866,1,10,2:0:0:0:
416,352,115033,2,0,B|440:283|488:228|488:228|433:201|405:165,1,228.8,6|2,1:2|1:2,2:0:0:0:
323,277,115533,1,8,2:0:0:0:
354,143,115700,5,0,1:2:0:0:
354,143,115783,1,0,1:2:0:0:
354,143,115866,1,2,1:2:0:0:
354,143,116200,5,2,1:2:0:0:
271,102,116366,1,2,1:2:0:0:
415,67,116533,1,2,1:2:0:0:
331,219,116700,1,0,1:2:0:0:
235,30,116866,1,2,1:2:0:0:
436,175,117033,1,0,1:2:0:0:
181,150,117200,5,10,2:0:0:0:
353,25,117366,1,8,2:0:0:0:
312,230,117533,1,10,2:0:0:0:
157,10,117700,5,2,1:2:0:0:
113,0,117783,1,0,1:2:0:0:
79,30,117866,1,2,1:2:0:0:
73,68,117950,1,0,1:2:0:0:
86,107,118033,1,10,1:2:0:0:
110,139,118116,1,8,1:2:0:0:
145,157,118200,1,8,1:2:0:0:
164,192,118283,1,8,1:2:0:0:
166,232,118366,6,0,B|214:243|247:285|247:285|312:286|315:204,1,193.6,14|2,1:2|1:2,2:0:0:0:
251,114,118866,1,10,2:0:0:0:
402,261,119033,5,2,1:2:0:0:
402,261,119116,1,2,1:2:0:0:
402,261,119200,1,10,2:0:0:0:
499,117,119366,5,10,2:0:0:0:
499,117,119450,1,8,2:0:0:0:
499,117,119533,1,10,2:0:0:0:
352,128,119700,6,0,B|304:156|264:114|271:106|279:99|243:53|191:67,1,184.8,10|0,2:0|2:0,2:0:0:0:
136,101,120033,1,10,2:0:0:0:
323,30,120200,1,10,2:0:0:0:
256,192,120533,5,10,2:0:0:0:
256,192,120616,1,8,2:0:0:0:
256,192,120700,2,0,P|226:200|184:210,1,61.6,8|0,1:2|1:2,2:0:0:0:
117,321,120866,5,0,1:2:0:0:
82,349,120950,1,0,1:2:0:0:
39,348,121033,1,0,1:2:0:0:
7,317,121116,1,0,1:2:0:0:
11,270,121200,2,0,B|85:244|145:149|82:73|-21:121|16:201,1,264,6|10,1:2|2:0,2:0:0:0:
237,314,121700,6,0,P|181:327|126:342,1,96.8,2|0,1:2|2:0,2:0:0:0:
9,165,122033,2,0,P|42:215|108:193,1,114.4,2|8,1:2|2:0,2:0:0:0:
128,32,122366,6,0,B|170:98|170:98|25:61,1,228.8,2|2,1:2|1:2,2:0:0:0:
25,61,122866,1,8,2:0:0:0:
224,0,123033,5,2,2:0:0:0:
118,107,123200,2,0,P|108:51|130:29,1,88,2|0,1:2|1:2,2:0:0:0:
286,180,123533,2,0,P|268:263|183:259,1,184.8,10|0,2:0|2:0,2:0:0:0:
182,258,123866,2,0,P|179:199|169:145,1,105.6,2|0,1:2|2:0,2:0:0:0:
151,367,124200,5,10,2:0:0:0:
0,257,124366,2,0,P|48:281|104:246,1,105.6,2|0,1:2|2:0,2:0:0:0:
286,180,124700,2,0,P|233:181|181:190,1,105.6,2|8,1:2|2:0,2:0:0:0:
320,0,125033,6,0,B|280:53|331:103|341:99|355:94|403:144|363:207,1,228.8,2|2,1:2|1:2,2:0:0:0:
422,63,125533,1,10,2:0:0:0:
286,180,125700,1,2,2:0:0:0:
342,297,125866,6,0,P|372:251|360:206,1,88,2|0,1:2|1:2,2:0:0:0:
512,319,126200,2,0,P|427:304|342:297,1,171.6,10|0,2:0|2:0,2:0:0:0:
318,317,126533,2,0,P|262:321|208:330,1,88,6|0,1:2|2:0,2:0:0:0:
505,198,126866,6,0,P|487:254|434:260,1,88,10|0,2:0|2:0,2:0:0:0:
313,236,127200,2,0,P|371:223|403:266,1,88,2|0,1:2|1:2,2:0:0:0:
442,384,127533,2,0,P|403:340|424:291,1,88,10|0,2:0|2:0,2:0:0:0:
215,137,127866,6,0,B|225:176|196:210|196:210|262:204|323:241,1,198,2|0,1:2|2:0,2:0:0:0:
312,235,128200,2,0,P|342:289|288:351,1,105.6,10|0,2:0|2:0,2:0:0:0:
187,375,128533,5,2,1:2:0:0:
312,235,128700,1,0,1:2:0:0:
192,160,128866,2,0,P|147:175|88:182,1,88,10|0,2:0|2:0,2:0:0:0:
224,32,129200,6,0,B|272:5|310:54|310:54|311:103|351:120,1,171.6,2|0,1:2|2:0,2:0:0:0:
342,115,129533,1,10,2:0:0:0:
160,351,129700,6,0,P|139:243|114:137,1,198,2|0,1:2|2:0,2:0:0:0:
143,149,130033,2,0,P|158:213|169:278,1,132,2|8,1:2|2:0,2:0:0:0:
32,352,130366,6,0,B|105:368|105:368|176:287|176:287|248:301,1,246.4,6|2,1:2|1:2,2:0:0:0:
31,246,130866,1,10,2:0:0:0:
238,298,131033,6,0,B|165:314|165:314|94:233|94:233|32:246,1,246.4,6|2,1:2|1:2,2:0:0:0:
256,384,131533,5,10,1:2:0:0:
263,338,131616,1,2,1:2:0:0:
273,293,131700,1,2,1:2:0:0:
284,248,131783,1,2,1:2:0:0:
298,204,131866,2,0,P|240:170|191:269,1,184.8,6|0,1:2|2:0,2:0:0:0:
238,298,132200,5,10,2:0:0:0:
474,214,132366,2,0,P|478:170|489:127,1,88,2|0,1:2|2:0,2:0:0:0:
314,107,132700,2,0,P|308:54|294:3,1,105.6,2|8,1:2|2:0,2:0:0:0:
479,287,133033,2,0,B|530:285|523:190|455:175|418:237|419:243|424:250|405:292|349:288,1,246.4,2|2,1:2|1:2,2:0:0:0:
280,227,133533,5,8,2:0:0:0:
479,287,133700,1,2,2:0:0:0:
433,122,133866,2,0,P|418:179|408:244,1,105.6,2|0,1:2|1:2,2:0:0:0:
224,357,134200,6,0,P|214:313|186:223,1,132,10|0,2:0|2:0,2:0:0:0:
186,112,134533,2,0,P|118:87|62:161,1,171.6,2|0,1:2|2:0,2:0:0:0:
62,155,134866,1,10,2:0:0:0:
0,339,135033,6,0,P|53:320|76:261,1,96.8,2|0,1:2|2:0,2:0:0:0:
137,95,135366,2,0,P|87:101|65:169,1,114.4,2|8,1:2|2:0,2:0:0:0:
10,38,135700,6,0,P|51:113|136:94,1,184.8,2|0,1:2|2:0,2:0:0:0:
160,25,136033,1,2,1:2:0:0:
0,224,136200,1,10,2:0:0:0:
226,106,136366,5,2,1:2:0:0:
226,106,136450,1,2,1:2:0:0:
226,106,136533,1,10,2:0:0:0:
288,224,136700,1,10,2:3:0:0:
136,94,136866,5,6,3:0:0:0:
312,38,137033,1,6,3:0:0:0:
456,154,137200,1,6,1:2:0:0:
312,38,137533,5,2,1:2:0:0:
246,224,137700,1,0,1:2:0:0:
246,224,137783,1,0,1:2:0:0:
246,224,137866,2,0,B|129:195|129:195|102:146|152:113,1,211.2,10|2,2:0|1:2,2:0:0:0:
186,313,138533,6,0,P|239:300|242:219,1,140.8,2|2,1:2|1:2,2:0:0:0:
103,366,139033,2,0,P|29:376|-11:388,1,105.6,10|0,2:0|2:0,2:0:0:0:
121,231,139366,2,0,P|175:254|185:312,1,123.2,2|8,1:2|2:0,2:0:0:0:
102,28,139700,6,0,P|37:27|6:137,1,184.8,6|0,1:2|2:0,2:0:0:0:
0,126,140033,1,0,1:2:0:0:
117,148,140200,1,0,1:2:0:0:
1,36,140366,1,0,1:2:0:0:
79,266,140533,5,8,1:2:0:0:
191,66,140700,1,8,1:2:0:0:
0,199,140866,1,8,1:2:0:0:
160,224,141033,5,8,1:2:0:0:
160,224,141116,1,0,1:2:0:0:
160,224,141200,2,0,B|208:188|267:230|233:280|362:313|439:186|319:133|315:182,1,308,6|2,1:2|2:0,2:0:0:0:
92,305,142366,6,0,B|149:288|177:325|161:342|205:384|260:357,1,184.8,12|0,2:0|2:0,2:0:0:0:
253,359,142700,1,2,1:2:0:0:
114,204,142866,1,10,2:0:0:0:
288,192,143033,5,2,1:2:0:0:
288,192,143116,1,2,1:2:0:0:
288,192,143200,1,10,2:0:0:0:
112,359,143366,5,0,1:2:0:0:
224,256,143533,1,0,1:2:0:0:
0,96,143700,5,12,2:0:0:0:
3,126,144033,1,12,2:0:0:0:
6,156,144366,1,12,2:0:0:0:
6,156,144700,6,0,B|71:189|128:133|123:128|115:122|168:68|234:103,1,246.4,12|0,2:0|1:2,2:0:0:0:
228,100,145089,1,0,1:2:0:0:
228,100,145144,1,0,1:2:0:0:
228,100,145200,1,12,2:0:0:0:
503,242,145533,6,0,P|454:245|430:198,1,105.6,10|0,2:0|2:0,2:0:0:0:
466,52,145866,2,0,P|493:92|464:137,1,105.6,2|0,1:2|1:2,2:0:0:0:
320,179,146200,2,0,P|341:135|394:137,1,105.6,10|0,2:0|2:0,2:0:0:0:
429,200,146533,5,2,1:2:0:0:
256,301,146700,2,0,P|311:316|355:334,1,88,2|8,1:2|2:0,2:0:0:0:
232,135,147033,1,2,1:2:0:0:
320,179,147200,5,0,1:2:0:0:
256,301,147366,1,0,1:2:0:0:
365,350,147533,2,0,P|406:334|448:323,1,88,8|2,2:0|2:0,2:0:0:0:
512,208,147866,5,4,1:2:0:0:
360,251,148033,1,0,1:2:0:0:
512,371,148200,5,10,2:0:0:0:
291,235,148366,2,0,B|360:252|360:252|414:200|369:146,1,184.8,6|0,1:2|2:0,2:0:0:0:
352,143,148700,5,2,1:2:0:0:
224,288,148866,2,0,B|178:318|136:286|142:281|149:275|98:239|51:273,1,184.8,14|0,2:0|2:0,2:0:0:0:
33,290,149200,5,2,1:2:0:0:
134,384,149366,2,0,P|150:292|184:153,1,228.8,14|2,2:0|1:2,2:0:0:0:
61,100,149866,6,0,P|77:140|122:153,1,70.4,10|0,2:0|1:2,2:0:0:0:
181,160,150200,2,0,B|135:130|93:162|99:167|106:173|55:209|8:175,1,184.8,10|0,2:0|2:0,2:0:0:0:
9,176,150533,1,6,1:2:0:0:
279,11,150866,6,0,P|258:63|246:120,1,105.6,10|0,2:0|2:0,2:0:0:0:
62,61,151200,2,0,P|83:113|95:170,1,105.6,2|0,1:2|1:2,2:0:0:0:
247,111,151533,5,10,2:0:0:0:
93,161,151700,1,0,2:0:0:0:
272,199,151866,2,0,P|280:148|246:110,1,105.6,2|0,1:2|1:2,2:0:0:0:
160,288,152200,5,10,2:0:0:0:
304,377,152366,2,0,P|253:358|212:351,1,88,2|0,1:2|1:2,2:0:0:0:
119,362,152700,1,10,1:2:0:0:
119,362,152783,1,8,1:2:0:0:
119,362,152866,1,8,2:0:0:0:
384,320,153033,6,0,B|438:280|403:211|395:214|384:214|358:151|415:99,1,228.8,6|2,1:2|1:2,2:0:0:0:
512,171,153533,5,10,2:0:0:0:
490,188,153616,1,0,1:2:0:0:
462,191,153700,1,0,1:2:0:0:
437,178,153783,1,0,1:2:0:0:
423,146,153866,1,8,1:2:0:0:
436,108,153950,1,8,1:2:0:0:
436,61,154033,1,8,1:2:0:0:
402,29,154116,1,8,1:2:0:0:
357,37,154200,1,8,2:0:0:0:
321,76,154283,1,8,2:0:0:0:
301,128,154366,1,8,2:0:0:0:
250,151,154450,1,8,2:0:0:0:
198,133,154533,6,0,P|173:97|191:39,1,88,6|0,1:2|2:0,2:0:0:0:
301,128,154866,1,10,2:0:0:0:
128,224,155033,1,2,2:0:0:0:
198,133,155200,5,2,1:2:0:0:
243,303,155366,1,0,1:2:0:0:
34,267,155533,2,0,P|60:200|128:223,1,158.4,8|0,2:0|2:0,2:0:0:0:
128,224,155866,6,0,P|113:294|111:328,1,88,2|0,1:2|1:2,2:0:0:0:
32,384,156200,1,10,2:0:0:0:
6,179,156366,2,0,B|61:205|123:158|83:147|140:109|203:134,1,211.2,2|2,1:2|1:2,2:0:0:0:
197,132,156866,1,10,2:0:0:0:
405,264,157033,5,2,1:2:0:0:
405,264,157116,1,0,1:2:0:0:
405,264,157200,1,2,1:2:0:0:
256,352,157366,5,0,1:2:0:0:
168,220,157533,2,0,P|145:261|159:305,1,96.8,10|0,2:0|2:0,2:0:0:0:
405,264,157866,5,2,1:2:0:0:
263,181,158033,1,2,1:2:0:0:
430,275,158200,2,0,P|446:221|462:183,1,96.8,10|2,2:0|1:2,2:0:0:0:
391,112,158533,6,0,P|475:127|480:20,1,198,6|0,1:2|2:0,2:0:0:0:
321,113,158866,2,0,P|360:184|442:161,1,171.6,6|0,1:2|2:0,2:0:0:0:
294,50,159200,2,0,P|268:109|316:149,1,132,6|0,1:2|2:0,2:0:0:0:
334,0,159533,2,0,P|300:7|286:38,1,70.4,6|0,1:2|2:0,2:0:0:0:
176,176,159866,6,0,P|235:202|269:159,1,105.6,2|0,1:2|2:0,2:0:0:0:
262,180,160200,2,0,L|11:153,1,211.2,10|2,2:0|1:2,2:0:0:0:
52,157,160700,1,2,1:2:0:0:
160,65,160866,1,10,2:0:0:0:
203,302,161033,1,2,2:0:0:0:
364,183,161200,5,2,1:2:0:0:
289,106,161366,2,0,P|258:141|268:190,1,88,2|10,1:2|2:0,2:0:0:0:
482,72,161700,2,0,B|366:35|366:35|426:34|465:1,1,211.2,2|2,1:2|1:2,2:0:0:0:
512,147,162200,2,0,P|491:199|475:255,1,105.6,10|0,2:0|2:0,2:0:0:0:
477,246,162533,1,2,1:2:0:0:
288,320,162866,5,10,2:0:0:0:
477,246,163033,1,2,1:2:0:0:
477,246,163116,1,2,1:2:0:0:
477,246,163200,1,10,2:0:0:0:
281,169,163366,5,2,1:2:0:0:
281,169,163450,1,2,1:2:0:0:
281,169,163533,1,10,2:0:0:0:
477,246,163700,1,6,1:2:0:0:
256,192,163866,12,0,165200,2:0:0:0:
512,204,171533,5,0,1:2:0:0:
322,128,171866,1,12,2:0:0:0:
242,168,172200,5,2,1:2:0:0:
322,128,172366,1,0,1:2:0:0:
256,0,172533,2,0,P|239:49|220:89,1,88,2|0,1:2|1:2,2:0:0:0:
149,207,172866,2,0,P|135:165|117:125,1,88,2|0,1:2|1:2,2:0:0:0:
273,238,173200,5,2,1:2:0:0:
318,331,173366,1,2,1:2:0:0:
412,286,173533,1,2,1:2:0:0:
322,128,173700,6,0,P|256:105|202:79,1,105.6,2|0,1:2|1:2,2:0:0:0:
61,229,174033,2,0,P|109:208|159:191,1,105.6,10|0,1:2|1:2,2:0:0:0:
96,0,174366,2,0,P|28:22|42:131,1,158.4,12|0,1:2|2:0,2:0:0:0:
15,100,174700,5,2,1:2:0:0:
224,32,174866,1,10,2:0:0:0:
131,122,175033,1,2,1:2:0:0:
131,122,175116,1,2,1:2:0:0:
131,122,175200,1,10,2:0:0:0:
157,323,175366,5,2,1:2:0:0:
298,143,175533,1,10,2:0:0:0:
140,204,175700,6,0,B|190:173|236:218|228:221|221:224|272:269|328:236,1,198,6|0,1:2|2:0,2:0:0:0:
320,240,176033,1,10,2:0:0:0:
131,122,176200,1,10,2:0:0:0:
256,384,177200,6,0,B|216:319|274:260|277:270|281:279|339:213|297:141,1,264,6|10,1:2|2:0,2:0:0:0:
326,337,177700,2,0,P|385:325|437:319,1,105.6,2|0,1:2|2:0,2:0:0:0:
430,305,178033,2,0,P|377:311|325:322,1,105.6,2|0,1:2|1:2,2:0:0:0:
182,242,178366,6,0,P|198:155|303:174,1,211.2,12|2,2:0|1:2,2:0:0:0:
300,169,178783,1,2,1:2:0:0:
300,169,178866,1,10,2:0:0:0:
274,321,179033,5,14,2:0:0:0:
73,361,179200,2,0,P|93:297|105:229,1,123.2,2|2,1:2|2:0,2:0:0:0:
99,63,179533,5,10,1:2:0:0:
43,68,179616,1,8,1:2:0:0:
6,108,179700,1,8,2:0:0:0:
0,162,179783,1,8,2:0:0:0:
30,207,179866,2,0,B|127:212|91:151|208:157,1,184.8,6|0,1:2|2:0,2:0:0:0:
202,156,180200,5,10,2:0:0:0:
75,0,180366,2,0,P|54:57|77:90,1,105.6,2|0,2:0|1:2,2:0:0:0:
241,227,180700,2,0,P|184:205|128:198,1,105.6,2|8,1:2|2:0,2:0:0:0:
320,128,181033,2,0,B|376:86|389:47|371:-17|319:-34|275:9|304:61,1,228.8,2|2,1:2|1:2,2:0:0:0:
343,244,181533,5,10,2:0:0:0:
241,227,181700,1,2,2:0:0:0:
320,346,181866,2,0,P|367:335|415:327,1,96.8,2|0,1:2|1:2,2:0:0:0:
192,384,182200,2,0,B|118:366|118:366|87:306|143:273,1,171.6,10|0,2:0|2:0,2:0:0:0:
131,280,182533,1,6,1:2:0:0:
512,384,182866,6,0,P|494:328|441:322,1,88,10|0,2:0|2:0,2:0:0:0:
320,346,183200,2,0,P|378:359|410:316,1,88,2|0,1:2|1:2,2:0:0:0:
449,198,183533,2,0,P|410:242|431:291,1,88,10|0,2:0|2:0,2:0:0:0:
224,64,183866,6,0,P|248:141|336:126,1,171.6,2|0,1:2|2:0,2:0:0:0:
326,136,184200,2,0,P|364:101|407:118,1,96.8,10|0,2:0|2:0,2:0:0:0:
449,198,184533,5,2,1:2:0:0:
306,48,184700,1,0,1:2:0:0:
241,227,184866,2,0,B|194:193|149:237|149:237|142:279|89:291,1,171.6,10|0,2:0|2:0,2:0:0:0:
105,286,185200,6,0,P|168:295|228:312,1,114.4,2|0,1:2|2:0,2:0:0:0:
28,177,185533,1,10,2:0:0:0:
145,92,185700,6,0,P|124:200|99:306,1,198,2|0,1:2|2:0,2:0:0:0:
128,294,186033,2,0,P|143:230|154:165,1,132,2|8,1:2|2:0,2:0:0:0:
268,155,186366,6,0,B|329:131|368:195|360:200|355:206|403:268|458:242,1,228.8,6|2,1:2|1:2,2:0:0:0:
217,308,186866,1,10,2:0:0:0:
490,215,187033,6,0,B|434:189|386:251|391:257|399:262|360:326|300:302,1,228.8,6|2,1:2|1:2,2:0:0:0:
300,302,187533,1,10,1:2:0:0:
365,134,187700,5,2,1:2:0:0:
365,134,187783,1,2,1:2:0:0:
365,134,187866,2,0,B|282:131|315:84|235:80,1,145.2,6|0,1:2|2:0,2:0:0:0:
215,82,188200,5,10,2:0:0:0:
54,0,188366,2,0,B|51:61|93:92|103:63|143:92|142:156,1,184.8,2|0,1:2|2:0,2:0:0:0:
141,149,188700,2,0,P|80:197|37:176,1,123.2,2|8,1:2|2:0,2:0:0:0:
215,82,189033,2,0,P|265:90|312:105,1,96.8,2|0,1:2|2:0,2:0:0:0:
307,266,189366,5,2,1:2:0:0:
200,296,189533,1,8,2:0:0:0:
324,192,189700,1,2,2:0:0:0:
192,384,189866,2,0,P|198:329|202:270,1,88,2|0,1:2|1:2,2:0:0:0:
455,240,190200,2,0,P|428:308|360:304,1,114.4,10|0,2:0|2:0,2:0:0:0:
324,192,190533,2,0,P|317:149|411:105,1,158.4,2|0,1:2|2:0,2:0:0:0:
468,144,190866,5,10,2:0:0:0:
382,0,191033,2,0,P|389:43|406:105,1,105.6,2|0,1:2|2:0,2:0:0:0:
324,192,191366,5,2,1:2:0:0:
510,117,191533,1,8,2:0:0:0:
405,102,191700,2,0,B|342:116|309:64|309:64|298:9|242:11,1,184.8,6|0,1:2|2:0,2:0:0:0:
263,12,192033,5,2,1:2:0:0:
203,120,192200,1,10,2:0:0:0:
318,227,192366,5,2,1:2:0:0:
318,227,192450,1,0,1:2:0:0:
318,227,192533,2,0,P|357:234|415:239,1,61.6,8|8,2:0|2:0,2:0:0:0:
510,117,192700,2,0,P|470:109|412:104,1,61.6,8|8,2:0|2:0,2:0:0:0:
213,58,192866,6,0,P|206:89|202:119,1,61.6,8|8,2:0|2:0,2:0:0:0:
316,8,193033,1,8,1:2:0:0:
316,8,193116,1,8,1:2:0:0:
316,8,193200,2,0,P|300:86|290:202,1,184.8,6|0,1:2|2:0,2:0:0:0:
232,236,193533,6,0,P|176:230|164:176,1,105.6,8|0,2:0|2:0,2:0:0:0:
185,115,193866,1,2,1:2:0:0:
31,227,194033,1,0,1:2:0:0:
115,356,194200,2,0,P|156:346|243:337,1,114.4,10|0,2:0|2:0,2:0:0:0:
370,249,194533,6,0,P|379:309|328:354,1,132,2|0,1:2|2:0,2:0:0:0:
287,294,194866,1,10,2:0:0:0:
408,165,195033,6,0,B|359:184|319:136|348:120|316:80|264:94,1,171.6,6|0,1:2|2:0,2:0:0:0:
214,136,195366,2,0,P|276:134|295:107,1,88,2|8,1:2|2:0,2:0:0:0:
470,255,195700,6,0,P|487:150|512:48,1,211.2,6|0,1:2|1:2,2:0:0:0:
312,42,196200,2,0,P|282:96|296:126,1,88,10|0,2:0|2:0,2:0:0:0:
344,174,196533,2,0,P|311:121|278:118,1,88,2|0,1:2|1:2,2:0:0:0:
214,136,196866,2,0,P|276:134|295:107,1,88,10|0,2:0|2:0,2:0:0:0:
172,311,197200,6,0,B|126:338|72:297|101:279|50:246|-9:273,1,184.8,6|0,1:2|2:0,2:0:0:0:
5,267,197533,1,10,2:0:0:0:
199,222,197700,1,6,1:2:0:0:
199,222,198033,5,6,1:2:0:0:
93,123,198200,1,8,2:0:0:0:
194,319,198366,5,2,1:2:0:0:
194,319,198450,1,2,1:2:0:0:
194,319,198533,2,0,P|254:302|325:294,1,123.2,6|0,1:2|2:0,2:0:0:0:
199,222,198866,5,10,2:0:0:0:
361,0,199033,1,0,1:2:0:0:
361,276,199200,5,10,2:0:0:0:
199,54,199366,1,0,1:2:0:0:
460,138,199533,5,10,2:0:0:0:
199,222,199700,1,0,1:2:0:0:
361,276,199866,5,10,2:0:0:0:
313,111,200033,1,0,1:2:0:0:
313,111,200116,1,0,1:2:0:0:
313,111,200200,1,10,2:0:0:0:
199,222,200366,6,0,B|125:232|125:232|68:200|107:140,1,171.6,6|0,1:2|2:0,2:0:0:0:
100,150,200700,2,0,P|114:105|87:66,1,96.8,2|8,1:2|2:0,2:0:0:0:
31,332,201033,2,0,P|18:276|0:222,1,114.4,4|0,1:2|2:0,2:0:0:0:
219,335,201366,5,0,1:2:0:0:
95,251,201533,1,0,1:2:0:0:
138,382,201700,1,0,1:2:0:0:
255,231,201866,1,8,2:0:0:0:
47,312,202033,5,8,2:0:0:0:
268,237,202200,1,8,2:0:0:0:
68,96,202366,1,8,2:0:0:0:
320,32,202533,6,0,B|297:-13|247:-25|154:1|183:146|272:176|326:135|457:36|482:122|524:231|465:319|396:312|342:248|376:201,1,594.000000000001,6|0,1:2|2:0,2:0:0:0:
371,209,203866,6,0,P|319:232|276:241,1,79.2000000000001,8|0,2:0|1:2,2:0:0:0:
393,56,204200,2,0,P|416:108|425:151,1,79.2000000000001,8|0,2:0|1:2,2:0:0:0:
243,145,204533,5,8,1:2:0:0:
243,145,204616,1,0,1:2:0:0:
243,145,204700,2,0,P|273:151|297:160,1,39.6,2|0,1:2|1:2,2:0:0:0:
182,270,204866,5,8,2:0:0:0:
130,262,204950,1,8,2:0:0:0:
85,289,205033,1,8,2:0:0:0:
66,337,205116,1,8,2:0:0:0:
84,384,205200,6,0,P|93:318|-10:284,1,158.4,6|0,1:2|2:0,2:0:0:0:
23,272,205533,2,0,P|19:217|8:153,1,105.6,10|0,2:0|2:0,2:0:0:0:
188,66,205866,1,2,1:2:0:0:
188,66,206033,2,0,P|194:109|197:153,1,88,2|8,1:2|2:0,2:0:0:0:
130,262,206366,1,2,2:0:0:0:
20,109,206533,5,2,1:2:0:0:
196,164,206700,1,2,1:2:0:0:
283,142,206866,1,10,2:0:0:0:
130,262,207033,6,0,B|183:222|247:281|240:285|233:291|286:343|338:311,1,228.8,6|2,1:2|1:2,2:0:0:0:
333,313,207533,1,10,2:0:0:0:
448,224,207700,1,2,1:2:0:0:
352,128,207866,6,0,P|317:129|275:25,1,158.4,2|0,1:2|2:0,2:0:0:0:
270,32,208200,2,0,P|213:69|185:66,1,96.8,10|0,2:0|2:0,2:0:0:0:
150,0,208533,5,2,1:2:0:0:
64,186,208700,2,0,P|54:138|39:92,1,96.8,2|8,1:2|2:0,2:0:0:0:
146,191,209033,1,2,1:2:0:0:
121,298,209200,6,0,P|205:313|210:206,1,198,4|0,1:3|2:0,2:0:0:0:
51,299,209533,2,0,P|90:370|172:347,1,171.6,4|0,1:3|2:0,2:0:0:0:
24,236,209866,2,0,P|-2:295|77:332,1,132,4|0,1:3|2:0,2:0:0:0:
64,186,210200,2,0,P|30:193|16:224,1,70.4,2|2,1:2|2:0,2:0:0:0:
226,105,210533,6,0,P|169:70|123:112,1,132,6|0,1:2|2:0,2:0:0:0:
124,105,210866,2,0,P|138:150|147:200,1,88,10|0,2:0|2:0,2:0:0:0:
288,224,211200,5,2,1:2:0:0:
192,384,211366,2,0,P|203:323|222:265,1,105.6,2|8,1:2|2:0,2:0:0:0:
145,190,211700,1,2,2:0:0:0:
362,172,211866,5,2,1:2:0:0:
216,281,212033,1,2,1:2:0:0:
256,160,212200,5,10,2:0:0:0:
384,282,212366,2,0,B|465:264|465:264|487:215|441:181,1,171.6,6|0,1:2|2:0,2:0:0:0:
445,184,212700,1,0,1:2:0:0:
288,224,212866,2,0,P|302:269|311:331,1,96.8,10|2,2:0|1:2,2:0:0:0:
500,130,213200,6,0,P|438:108|463:-7,1,193.6,2|10,1:2|1:2,2:0:0:0:
341,138,213700,2,0,P|297:146|255:159,1,88,6|0,1:2|2:0,2:0:0:0:
45,237,214033,5,10,2:3:0:0:
218,95,214200,1,10,2:0:0:0:
86,0,214366,2,0,B|47:46|99:101|110:100|120:97|166:137|130:212,1,228.8,6|2,1:2|1:2,2:0:0:0:
134,202,214866,2,0,P|187:209|210:155,1,105.6,10|2,1:2|1:2,2:0:0:0:
0,182,215200,6,0,P|16:245|35:346,1,158.4,14|0,1:2|2:0,2:0:0:0:
103,365,215533,2,0,P|144:337|135:287,1,105.6,14|0,1:2|2:0,2:0:0:0:
256,96,215866,5,12,2:0:0:0:
323,143,216033,1,2,1:2:0:0:
275,210,216200,1,2,1:2:0:0:
211,384,216366,5,10,2:0:0:0:
170,319,216533,1,2,1:2:0:0:
233,274,216700,1,2,1:2:0:0:
207,159,216866,5,12,2:0:0:0:
309,290,217033,2,0,B|245:286|242:394|334:412|401:351|395:342|388:335|423:263|495:256|534:284|538:357|520:388|452:380,1,440,14|0,2:0|2:0,2:0:0:0:
