osu file format v14

[General]
AudioFilename: audio.mp3
AudioLeadIn: 0
PreviewTime: 59390
Countdown: 0
SampleSet: Soft
StackLeniency: 0.7
Mode: 0
LetterboxInBreaks: 0
WidescreenStoryboard: 1

[Editor]
DistanceSpacing: 1
BeatDivisor: 4
GridSize: 8
TimelineZoom: 1.4

[Metadata]
Title:Ambitious World (PV Size)
TitleUnicode:Ambitious World (PV Size)
Artist:Satono Diamond (CV: Tachibana Hina), Kitasan Black (CV: Yano Hinaki)
ArtistUnicode:サトノダイヤモンド (CV:立花日菜), キタサンブラック (CV:矢野妃菜喜)
Creator:Zekk
Version:ckharv's Easy
Source:ウマ娘 プリティーダービー
Tags:horse girls uma musume pretty derby japanese pop video game anime kowari ckharv satonodiamond nanoya koldnoodl
BeatmapID:3666654
BeatmapSetID:1789487

[Difficulty]
HPDrainRate:2
CircleSize:3
OverallDifficulty:2
ApproachRate:3
SliderMultiplier:0.899999999999999
SliderTickRate:1

[Events]
//Background and Video events
0,0,"kitasato.jpg",0,0
//Break Periods
//Storyboard Layer 0 (Background)
//Storyboard Layer 1 (Fail)
//Storyboard Layer 2 (Pass)
//Storyboard Layer 3 (Foreground)
//Storyboard Layer 4 (Overlay)
//Storyboard Sound Samples

[TimingPoints]
1224,333.333333333333,4,2,1,45,1,0
5057,-100,4,2,1,50,0,0
6557,-100,4,2,1,55,0,0
8140,-100,4,2,1,55,0,0
8223,-100,4,2,1,55,0,0
11723,-100,4,2,1,50,0,0
14557,-100,4,2,1,60,0,0
25057,-100,4,2,1,50,0,0
34223,-100,4,2,1,55,0,0
34557,-100,4,2,1,55,0,0
35890,-100,4,2,1,60,0,0
42473,-100,4,2,1,60,0,0
42557,-100,4,2,1,60,0,0
46557,-100,4,2,1,50,0,0
49473,-100,4,2,1,50,0,0
49557,-100,4,2,1,50,0,0
50557,-100,4,2,1,65,0,0
51890,-100,4,2,1,60,0,0
54557,-100,4,2,1,65,0,0
55057,-100,4,2,1,65,0,0
55890,-100,4,2,1,70,0,0
58390,-100,4,2,1,69,0,0
59890,-100,4,2,1,80,0,0
61307,-100,4,2,1,80,0,0
61390,-100,4,2,1,80,0,0
63973,-100,4,2,1,80,0,0
64057,-100,4,2,1,80,0,0
65473,-100,4,2,1,80,0,0
65557,-100,4,2,1,80,0,0
67807,-100,4,2,1,80,0,0
67890,-100,4,2,1,80,0,0
71973,-100,4,2,1,80,0,0
72057,-100,4,2,1,80,0,0
74640,-100,4,2,1,80,0,0
74723,-100,4,2,1,80,0,0
75890,-100,4,2,1,60,0,0
76140,-100,4,2,1,60,0,0
76223,-100,4,2,1,60,0,0
81223,-100,4,2,1,70,0,0

[Colours]
Combo1 : 204,100,91
Combo2 : 143,202,119
Combo3 : 129,198,221
Combo4 : 233,182,77
Combo5 : 228,135,67

[HitObjects]
42,360,1224,6,0,B|127:342|127:342|174:358|174:358|266:340,1,225,2|2,2:0|2:0,0:0:0:0:
320,273,2390,2,0,B|316:199|279:228|273:146,1,135,2|2,2:0|2:0,0:0:0:0:
316,70,3223,1,0,0:0:0:0:
144,14,3890,6,0,P|85:18|35:78,1,135,2|2,2:0|2:0,0:0:0:0:
86,147,4723,1,2,2:0:0:0:
58,232,5057,1,2,2:0:0:0:
295,360,6557,6,0,L|394:342,1,89.9999999999999,6|2,1:2|1:2,0:0:0:0:
454,288,7223,2,0,P|463:256|438:195,1,89.9999999999999,2|2,1:2|1:2,0:0:0:0:
377,144,7890,1,6,1:2:0:0:
281,239,8390,1,2,2:0:0:0:
193,259,8723,1,2,2:0:0:0:
105,280,9057,1,14,2:0:0:0:
51,31,10557,5,14,2:0:0:0:
146,181,11723,2,0,L|282:154,1,135,6|10,1:2|2:0,0:0:0:0:
341,90,12557,2,0,L|435:106,1,89.9999999999999,10|10,2:0|2:0,0:0:0:0:
464,133,13057,1,2,1:2:0:0:
484,220,13390,2,0,B|470:272|470:272|484:298|484:298|471:357,1,135,10|10,2:0|2:0,0:0:0:0:
387,376,14223,1,14,2:0:0:0:
312,325,14557,5,6,1:2:0:0:
238,377,14890,1,10,2:0:0:0:
164,325,15223,2,0,L|60:304,1,89.9999999999999,2|10,1:2|2:0,0:0:0:0:
26,231,15890,2,0,P|16:188|64:110,1,135,2|2,1:2|1:2,0:0:0:0:
167,192,16890,1,10,2:0:0:0:
241,141,17223,5,2,1:2:0:0:
213,54,17557,1,10,2:0:0:0:
289,7,17890,2,0,L|394:21,1,89.9999999999999,2|10,1:2|2:0,0:0:0:0:
452,69,18557,2,0,P|464:99|451:162,1,89.9999999999999,6|10,1:2|2:0,0:0:0:0:
382,207,19223,2,0,P|370:237|383:300,1,89.9999999999999,2|10,1:2|2:0,0:0:0:0:
331,369,19890,5,6,1:2:0:0:
241,379,20223,1,10,2:0:0:0:
166,328,20557,2,0,P|149:274|159:224,1,89.9999999999999,2|10,1:2|2:0,0:0:0:0:
217,179,21223,2,0,L|357:200,2,135,6|2|10,1:2|1:2|2:0,0:0:0:0:
154,113,22557,5,6,1:2:0:0:
52,202,23057,2,0,P|52:296|129:352,1,180,2|6,1:2|1:2,0:0:0:0:
289,313,24390,2,0,L|391:325,1,89.9999999999999,10|14,2:0|2:0,0:0:0:0:
473,228,25223,6,0,P|487:179|446:46,1,180,6|2,1:2|1:2,0:0:0:0:
327,12,26390,2,0,L|224:25,1,89.9999999999999,2|2,2:0|2:0,0:0:0:0:
162,132,27223,1,2,1:2:0:0:
75,106,27557,1,2,1:2:0:0:
20,177,27890,2,0,P|5:246|51:343,1,180,2|2,1:2|1:2,0:0:0:0:
180,376,29057,2,0,B|286:364|239:317|358:307,1,180,2|2,2:0|2:0,0:0:0:0:
448,223,30223,1,0,1:0:0:0:
375,169,30557,6,0,L|199:203,1,180,2|2,1:2|1:2,0:0:0:0:
72,153,31723,2,0,P|58:108|72:62,1,89.9999999999999,2|2,2:0|2:0,0:0:0:0:
186,1,32557,1,2,1:2:0:0:
275,11,32890,1,2,1:2:0:0:
341,71,33223,6,0,B|331:162|275:130|282:242,1,180,2|2,1:2|1:2,0:0:0:0:
294,325,34223,1,2,1:2:0:0:
217,373,34557,2,0,L|84:345,1,135,4|0,1:2|1:0,0:0:0:0:
16,286,35390,1,10,2:0:0:0:
111,190,35890,5,6,1:2:0:0:
72,108,36223,1,10,2:0:0:0:
122,33,36557,2,0,L|257:59,1,135,2|2,1:2|1:2,0:0:0:0:
338,26,37390,1,2,1:2:0:0:
444,109,37890,2,0,P|464:143|460:197,1,89.9999999999999,2|10,1:2|2:0,0:0:0:0:
419,271,38557,5,2,1:2:0:0:
337,233,38890,1,10,2:0:0:0:
282,304,39223,1,0,1:0:0:0:
170,228,39723,2,0,P|149:174|194:59,1,180,6|2,1:2|2:0,0:0:0:0:
310,4,40890,1,10,2:0:0:0:
393,37,41223,5,4,1:2:0:0:
472,78,41557,2,0,L|456:186,1,89.9999999999999,10|2,2:0|1:2,0:0:0:0:
451,256,42223,1,10,2:0:0:0:
440,345,42557,5,2,1:2:0:0:
307,371,43057,1,2,1:2:0:0:
218,355,43390,1,2,1:2:0:0:
161,285,43723,2,0,B|170:154|221:208|240:69,1,225,6|0,1:2|1:0,0:0:0:0:
183,7,44890,1,8,2:0:0:0:
57,53,45390,6,0,P|33:101|50:185,1,135,10|8,2:0|2:0,0:0:0:0:
105,246,46223,1,4,2:3:0:0:
191,219,46557,1,6,1:2:0:0:
262,54,47223,6,0,P|331:38|424:106,1,180,10|2,2:0|1:2,0:0:0:0:
480,214,48390,2,0,L|459:349,1,135,10|10,2:0|2:0,0:0:0:0:
294,274,49557,5,2,2:0:0:0:
216,228,49890,2,0,L|117:252,1,89.9999999999999,10|2,2:0|1:2,0:0:0:0:
47,208,50557,1,10,2:0:0:0:
130,48,51223,2,0,L|232:71,1,89.9999999999999,0|14,1:0|2:0,0:0:0:0:
301,34,51890,5,6,1:2:0:0:
403,121,52390,2,0,P|409:167|383:210,1,89.9999999999999,2|2,1:2|2:0,0:0:0:0:
293,299,53223,2,0,B|247:290|247:290|221:308|221:308|162:298,1,135,4|2,1:2|1:2,0:0:0:0:
54,220,54223,1,10,2:0:0:0:
23,135,54557,5,12,2:0:0:0:
71,59,54890,2,0,P|109:37|159:44,1,89.9999999999999,4|8,2:3|2:3,0:0:0:0:
232,85,55557,1,0,1:0:0:0:
290,153,55890,2,0,B|300:207|300:207|283:232|283:232|295:298,1,135,10|10,2:0|2:0,0:0:0:0:
347,351,56723,1,10,2:0:0:0:
435,334,57057,6,0,P|467:290|383:57,1,315,14|0,2:0|1:2,0:0:0:0:
361,38,58390,1,14,2:0:0:0:
302,106,58723,2,0,L|244:114,1,45,14|14,2:0|2:0,0:0:0:0:
39,277,59890,6,0,L|174:254,1,135,6|2,1:2|2:0,0:0:0:0:
247,303,60723,1,2,1:2:0:0:
304,234,61057,2,0,B|305:157|256:187|254:103,1,135,2|10,1:2|2:0,0:0:0:0:
303,37,61890,1,0,1:0:0:0:
389,13,62223,1,10,2:0:0:0:
468,55,62557,6,0,P|495:98|488:184,1,135,2|2,1:2|1:2,0:0:0:0:
436,251,63390,1,2,1:2:0:0:
358,204,63723,2,0,B|305:214|305:214|289:237|289:237|236:248,1,135,2|10,1:2|2:0,0:0:0:0:
163,299,64557,1,0,1:2:0:0:
74,285,64890,1,10,2:0:0:0:
36,203,65223,6,0,P|32:168|55:112,1,89.9999999999999,6|10,1:2|2:0,0:0:0:0:
122,62,65890,1,2,1:2:0:0:
210,77,66223,1,10,2:0:0:0:
262,150,66557,2,0,L|359:132,1,89.9999999999999,2|10,1:2|2:0,0:0:0:0:
437,157,67223,1,2,1:2:0:0:
459,244,67557,1,10,2:0:0:0:
427,328,67890,6,0,P|383:360|290:352,1,135,2|2,1:2|1:2,0:0:0:0:
233,304,68723,1,2,1:2:0:0:
291,235,69057,2,0,B|285:132|226:171|226:66,1,180,6|6,1:2|1:2,0:0:0:0:
343,4,70223,1,10,2:0:0:0:
432,18,70557,6,0,P|472:66|461:154,1,135,6|2,1:2|1:2,0:0:0:0:
422,211,71390,1,2,1:2:0:0:
345,163,71723,2,0,L|203:138,1,135,2|10,1:2|2:0,0:0:0:0:
149,74,72557,1,0,1:0:0:0:
60,87,72890,1,10,2:0:0:0:
16,165,73223,6,0,P|10:238|47:300,1,135,2|2,1:2|1:2,0:0:0:0:
105,351,74057,1,2,1:2:0:0:
171,289,74390,2,0,B|291:287|231:365|392:363,1,225,2|8,1:2|2:3,0:0:0:0:
450,312,75557,1,4,2:3:0:0:
406,233,75890,5,6,1:2:0:0:
490,73,76557,1,10,2:0:0:0:
320,14,77223,2,0,L|172:42,1,135,2|10,1:2|2:0,0:0:0:0:
121,101,78057,1,2,1:2:0:0:
44,53,78390,1,6,1:2:0:0:
299,367,79890,5,10,2:0:0:0:
485,227,81223,2,0,L|386:211,1,89.9999999999999,6|10,1:2|2:0,0:0:0:0:
318,166,81890,1,2,1:2:0:0:
354,83,82223,1,10,2:0:0:0:
282,28,82557,2,0,P|224:16|158:61,1,135,6|2,1:2|1:2,0:0:0:0:
92,169,83557,1,10,2:0:0:0:
113,256,83890,5,6,1:2:0:0:
239,209,84390,1,2,1:2:0:0:
342,356,85057,2,0,P|379:323|472:331,1,135,6|10,1:2|2:0,0:0:0:0:
505,246,85890,1,14,2:0:0:0:
459,167,86223,1,14,2:0:0:0:
375,200,86557,6,0,B|308:187|308:187|262:213|262:213|197:203,1,180,6|2,1:2|2:0,0:0:0:0:
139,141,87557,2,0,L|154:83,1,45,14|14,2:0|2:0,0:0:0:0:
