osu file format v14

[General]
AudioFilename: audio.mp3
AudioLeadIn: 0
PreviewTime: 440
Countdown: 0
SampleSet: Soft
StackLeniency: 0.7
Mode: 0
LetterboxInBreaks: 0
WidescreenStoryboard: 1

[Editor]
Bookmarks: 440,7471,7940,14040,15454,23223,23799,25043,28612,29417
DistanceSpacing: 0.5
BeatDivisor: 16
GridSize: 8
TimelineZoom: 1.6

[Metadata]
Title:Bessou Futaba de Orgel!
TitleUnicode:別荘・フタバでオルゴール!
Artist:Sato Hitomi, Nohara Satoshi
ArtistUnicode:佐藤仁美, 野原悟史
Creator:Gazza
Version:Twinleaf
Source:ポケットモンスター プラチナ
Tags:instrumental videogame video game vgm pokemon diamond pearl platinum nintendo game freak creature inc. TPCi Junichin Masuda Gō Ichinose Morikazu Aoki Ken Sugimori twinleaf town Pokémon ost original soundtrack Villa Music Box: Twinleaf Tune Bessō Orugooru sut_son garzah
BeatmapID:3095598
BeatmapSetID:1511821

[Difficulty]
HPDrainRate:3
CircleSize:5
OverallDifficulty:3.5
ApproachRate:5
SliderMultiplier:2.2
SliderTickRate:1

[Events]
//Background and Video events
0,0,"Twinleaf_Town_Pt_waifu2x_art_scale_tta_1_waifu2x_art_scale_tta_1.jpg",0,0
//Break Periods
//Storyboard Layer 0 (Background)
//Storyboard Layer 1 (Fail)
//Storyboard Layer 2 (Pass)
//Storyboard Layer 3 (Foreground)
//Storyboard Layer 4 (Overlay)
//Storyboard Sound Samples

[TimingPoints]
440,937.5,4,2,5,50,1,0
674,-100,4,2,1,10,0,0
908,-100,4,2,1,30,0,0
1377,-100,4,2,17,50,0,0
1611,-100,4,2,1,10,0,0
1846,-100,4,2,1,30,0,0
2315,-100,4,2,10,50,0,0
2549,-100,4,2,1,10,0,0
2783,-100,4,2,17,50,0,0
3018,-100,4,2,1,10,0,0
3721,-100,4,2,20,50,0,0
4190,-100,4,2,23,50,0,0
4424,-100,4,2,1,10,0,0
4658,-100,4,2,1,30,0,0
4893,-100,4,2,1,10,0,0
5127,-100,4,2,3,50,0,0
5361,-100,4,2,1,10,0,0
5596,-100,4,2,8,50,0,0
6533,-100,4,2,12,50,0,0
6768,-100,4,2,1,10,0,0
7002,-100,4,2,1,30,0,0
7236,-100,4,2,1,10,0,0
7471,-100,4,2,1,20,0,0
7705,-100,4,2,1,10,0,0
7940,-100,4,2,8,50,0,0
8408,-100,4,2,1,40,0,0
8877,-100,4,2,20,50,0,0
9111,-100,4,2,0,15,0,0
9346,-100,4,2,1,50,0,0
9815,-100,4,2,14,50,0,0
10049,-100,4,2,1,45,0,0
10283,-100,4,2,20,50,0,0
10518,-100,4,2,1,45,0,0
11221,-100,4,2,23,50,0,0
11690,-100,4,2,29,50,0,0
12627,952.380952380952,4,2,28,50,1,0
13103,937.5,4,2,5,50,1,0
13571,-100,4,2,1,5,0,0
14040,-100,4,2,3,50,0,0
15454,983.606557377049,4,2,20,50,1,0
15945,-100,4,2,1,15,0,0
16437,-100,4,2,17,45,0,0
16929,-100,4,2,1,25,0,0
17413,1025.64102564103,4,2,5,50,1,0
17925,1016.94915254237,4,2,17,50,1,0
18433,1008.40336134454,4,2,1,25,1,0
18937,-100,4,2,3,50,0,0
19441,1039.86135181976,4,2,10,35,1,0
19960,1016.08806096528,4,2,1,50,1,0
19960,-100,4,2,1,40,0,0
20468,1081.08108108108,4,2,8,50,1,0
21008,1064.77373558119,4,2,1,50,1,0
21540,1111.11111111111,4,2,20,50,1,0
22095,-100,4,2,1,5,0,0
22651,1145.03816793893,4,2,25,40,1,0
23223,1153.84615384615,4,2,23,40,1,0
23799,1214.57489878543,4,2,1,45,1,0
24405,1276.59574468085,4,2,1,45,1,0
25043,1279.31769722815,4,2,29,50,1,0
25682,1363.63636363636,4,2,17,40,1,0
26363,1411.76470588235,4,2,17,50,1,0
27068,1500,4,2,1,40,1,0
27818,1589.40397350993,4,2,20,50,1,0
28612,1610.73825503356,4,2,1,35,1,0
29417,1630.4347826087,4,2,10,35,1,0
30232,1632.65306122449,4,2,1,30,1,0
31048,-100,4,2,17,25,0,0
31864,1604.27807486631,4,2,1,25,1,0
32666,1623.81596752368,4,2,8,20,1,0
34289,1630.4347826087,4,2,3,17,1,0
35104,1621.62162162162,4,2,20,15,1,0
35914,1043.47826086957,4,2,16,15,1,0
36044,-100,4,2,22,10,0,0
36174,-100,4,2,17,8,0,0

[Colours]
Combo1 : 127,255,0
Combo2 : 234,255,0
Combo3 : 255,50,0

[HitObjects]
128,264,440,6,0,B|120:250|129:235|150:223|150:223|171:211,1,55,2|0,0:0|0:0,0:0:0:0:
208,198,908,1,0,0:0:0:0:
279,100,1377,2,0,B|287:86|278:71|257:59|257:59|236:47,1,55,2|0,0:0|0:0,0:0:0:0:
199,33,1845,1,0,0:0:0:0:
85,75,2315,2,0,P|78:100|85:132,1,55,2|0,0:0|0:0,0:0:0:0:
125,171,2783,2,0,P|133:198|127:225,1,55,2|0,0:0|0:0,0:0:0:0:
178,341,3721,1,2,0:0:0:0:
178,341,4190,6,0,B|167:302|186:319|172:272,1,55,2|0,0:0|0:0,0:0:0:0:
202,232,4658,2,0,B|230:203|224:227|258:191,1,55
306,187,5127,2,0,B|344:196|320:204|367:215,1,55,2|0,0:0|0:0,0:0:0:0:
399,254,5596,1,2,0:0:0:0:
507,113,6533,2,0,B|484:124|470:110|470:110|439:79,1,55,2|0,0:0|0:0,0:0:0:0:
418,54,7002,2,0,B|405:78|372:87,1,55
320,59,7471,2,0,B|303:81|291:116,1,55
260,157,7940,6,0,B|234:142|233:105|233:105|204:92|200:53,1,110,2|0,0:0|0:0,0:0:0:0:
102,1,8877,2,0,P|93:30|75:54,1,55,2|0,0:0|0:0,0:0:0:0:
44,102,9346,1,0,0:0:0:0:
44,102,9580,1,0,0:0:0:0:
15,155,9815,2,0,P|15:185|35:213,1,55,2|0,0:0|0:0,0:0:0:0:
46,263,10283,2,0,P|71:247|86:216,1,55,2|0,0:0|0:0,0:0:0:0:
78,166,10752,1,0,0:0:0:0:
150,68,11221,2,0,B|169:76|169:108|169:108|169:140,1,55,2|0,0:0|0:0,0:0:0:0:
169,176,11690,5,2,0:0:0:0:
277,228,12158,1,0,0:0:0:0:
260,346,12627,2,0,B|231:344|200:320,1,55,2|0,0:0|0:0,0:0:0:0:
155,355,13103,2,0,P|183:308|183:250,1,110,2|0,0:0|0:0,0:0:0:0:
64,273,14040,1,2,0:0:0:0:
10,21,15454,6,0,B|11:49|32:69|32:69|54:77|97:49,1,110,2|0,0:0|0:0,0:0:0:0:
170,142,16437,2,0,B|169:170|148:190|148:190|126:198|83:170,1,110,2|0,0:0|0:0,0:0:0:0:
14,258,17413,1,2,0:0:0:0:
14,258,17925,2,0,B|19:281|47:295|47:295|39:325|59:356,1,110,2|0,0:0|0:0,0:0:0:0:
167,303,18937,1,2,0:0:0:0:
274,256,19441,6,0,P|256:295|310:308,1,110,2|0,0:0|0:0,0:0:0:0:
387,384,20468,1,2,0:0:0:0:
355,265,21008,1,0,0:0:0:0:
440,187,21540,2,0,B|419:190|419:190|395:168|360:166|360:166|345:130,1,110,2|0,0:0|0:0,0:0:0:0:
327,28,22651,1,2,0:0:0:0:
445,8,23223,1,2,0:0:0:0:
495,111,23799,6,0,B|517:144|489:173|489:173|455:207,1,110
448,305,25043,1,2,0:0:0:0:
366,348,25682,1,2,0:0:0:0:
282,313,26363,1,2,0:0:0:0:
230,247,27068,1,0,0:0:0:0:
153,231,27818,1,2,0:0:0:0:
98,284,28612,1,0,0:0:0:0:
86,359,29417,6,0,B|61:359|41:349|30:323|30:323|15:277,1,110,2|0,0:0|0:0,0:0:0:0:
45,220,31048,1,2,0:0:0:0:
22,156,31864,1,0,0:0:0:0:
74,116,32666,1,2,0:0:0:0:
184,44,34289,5,2,0:0:0:0:
240,19,35104,1,2,0:0:0:0:
318,61,35914,6,0,L|306:97,2,27.5,2|2|2,0:0|0:0|0:0,0:0:0:0:
