osu file format v14

[General]
AudioFilename: audio.mp3
AudioLeadIn: 0
PreviewTime:21506
Countdown: 0
SampleSet: Soft
StackLeniency: 0.7
Mode: 0
LetterboxInBreaks: 0
WidescreenStoryboard: 1

[Editor]
Bookmarks: 11657,17237,21598,22918
DistanceSpacing: 0.9
BeatDivisor: 4
GridSize: 8
TimelineZoom: 1.9

[Metadata]
Title:Kurogane City (Hiru)
TitleUnicode:クロガネシティ (昼)
Artist:Sato Hitomi
ArtistUnicode:佐藤仁美
Creator:Kingling
Version:Ultra Ball
Source:ポケットモンスター ダイヤモンド・パール
Tags:roark diamond pearl platinum pokemon sinnoh region pokémon pocket monsters poketto monsuta electronic 8bit 8 bit instrumental eight nintendo DS apo11o mrowswares apollo oreburgh city day satou (day)
BeatmapID:2811097
BeatmapSetID:1342228

[Difficulty]
HPDrainRate:5
CircleSize:4.5
OverallDifficulty:7
ApproachRate:7.5
SliderMultiplier:1.6
SliderTickRate:1

[Events]
//Background and Video events
0,0,"Oreburgh_City_DPPt.png",0,0
//Break Periods
//Storyboard Layer 0 (Background)
//Storyboard Layer 1 (Fail)
//Storyboard Layer 2 (Pass)
//Storyboard Layer 3 (Foreground)
//Storyboard Layer 4 (Overlay)
//Storyboard Sound Samples

[TimingPoints]
330,352.941176470588,4,2,1,70,1,0
2447,-80,4,2,1,70,0,0
3153,-100,4,2,1,70,0,0
5447,-111.111111111111,4,2,1,70,0,0
5977,-100,4,2,1,70,0,0
8094,-74.0740740740741,4,2,1,70,0,0
8447,-86.9565217391304,4,2,1,70,0,0
8800,-100,4,2,1,70,0,0
18329,-74.0740740740741,4,2,1,70,0,0
18682,-100,4,2,1,70,0,0
23447,-74.0740740740741,4,2,1,70,0,0
23977,-100,4,2,1,70,0,0
31388,-74.0740740740741,4,2,1,70,0,0
32271,-100,4,2,1,70,0,0
32800,-74.0740740740741,4,2,1,70,0,0
33859,-100,4,2,1,70,0,0
34212,-74.0740740740741,4,2,1,70,0,0
36153,-86.9565217391304,4,2,1,70,0,0
37035,-100,4,2,1,70,0,0

[Colours]
Combo1 : 113,36,0
Combo2 : 101,77,20
Combo3 : 128,128,0

[HitObjects]
88,80,330,6,0,B|136:72|152:32|152:32|168:72|208:78,1,160,6|8,3:2|0:0,0:0:0:0:
313,99,859,2,0,P|346:41|279:38,1,160,2|2,0:1|0:0,0:0:0:0:
207,101,1388,2,0,P|192:141|189:186,1,80,10|0,0:0|0:0,0:0:0:0:
247,234,1741,6,0,L|252:320,1,80,2|0,3:1|0:0,0:0:0:0:
337,270,2094,2,0,L|332:356,1,80,10|0,0:0|0:0,0:0:0:0:
173,355,2447,2,0,L|167:254,1,100,2|0,3:2|0:0,0:0:0:0:
25,295,2800,2,0,L|30:194,1,100,10|0,0:1|0:0,0:0:0:0:
91,93,3153,6,0,P|113:52|31:56,1,160,2|8,3:1|0:0,0:0:0:0:
45,173,3682,2,0,B|84:200|124:174|124:174|163:150|200:172,1,160,2|2,0:1|0:0,0:0:0:0:
254,234,4212,2,0,P|298:234|333:222,1,80,10|0,0:0|0:0,0:0:0:0:
472,204,4565,6,0,L|463:122,1,80,2|0,3:1|0:0,0:0:0:0:
378,49,4918,2,0,L|370:129,1,80,10|0,0:0|0:0,0:0:0:0:
360,208,5271,1,2,3:1:0:0:
456,347,5447,2,0,P|500:341|460:285,1,143.999995605469,2|0,0:0|0:0,0:0:0:0:
356,383,5977,6,0,B|309:373|292:335|292:335|274:373|235:383,1,160,6|8,3:2|0:0,0:0:0:0:
153,264,6506,2,0,P|211:239|213:316,1,160,2|2,0:1|0:0,0:0:0:0:
141,378,7035,2,0,P|103:390|64:384,1,80,10|0,0:0|0:0,0:0:0:0:
0,309,7388,6,0,L|14:222,1,80,2|0,3:1|0:0,0:0:0:0:
154,228,7741,2,0,L|140:141,1,80,10|0,0:0|0:0,0:0:0:0:
27,15,8094,2,0,L|136:32,1,108.000000411987,2|0,3:1|0:0,0:0:0:0:
166,164,8447,2,0,L|275:146,1,92.0000017547608,10|0,0:0|0:0,0:0:0:0:
366,82,8800,6,0,P|390:20|316:50,1,160,2|8,3:1|0:0,0:0:0:0:
333,160,9329,2,0,B|369:184|410:162|410:162|445:142|484:169,1,160,2|2,0:1|0:0,0:0:0:0:
512,253,9859,2,0,P|510:293|494:334,1,80,10|0,0:0|0:0,0:0:0:0:
416,369,10212,6,0,L|331:347,1,80,2|0,3:1|0:0,0:0:0:0:
341,251,10565,2,0,L|256:273,1,80,10|0,0:0|0:0,0:0:0:0:
195,327,10918,1,2,3:2:0:0:
53,305,11094,2,0,P|36:258|127:197,1,160,2|0,0:1|0:0,0:0:0:0:
250,182,11624,6,0,P|291:157|307:125,2,80,6|2|0,3:1|0:0|0:0,0:0:0:0:
231,105,12153,2,0,P|247:59|239:24,2,80,10|2|0,0:0|3:2|0:0,0:0:0:0:
171,59,12682,1,10,0:1:0:0:
3,29,13388,1,10,0:1:0:0:
27,105,13741,2,0,B|71:94|81:47,2,80,10|2|2,0:1|0:0|0:0,0:0:0:0:
62,249,14447,6,0,P|34:288|32:324,2,80,2|2|0,3:1|0:0|0:0,0:0:0:0:
110,311,14976,2,0,P|113:358|135:387,2,80,10|2|0,0:0|3:2|0:0,0:0:0:0:
184,329,15505,1,10,0:1:0:0:
376,347,16212,1,10,0:1:0:0:
352,271,16565,2,0,B|308:282|298:329,2,80,10|2|2,0:1|0:0|0:0,0:0:0:0:
368,123,17271,6,0,P|439:91|512:120,1,160,10|2,3:1|0:0,0:0:0:0:
442,206,17800,2,0,P|370:237|297:208,1,160,10|2,0:1|0:0,0:0:0:0:
251,112,18329,2,0,B|199:85|148:126|148:126|95:166|51:133,1,216.000000823975,10|2,0:1|0:1,0:0:0:0:
70,57,18859,1,0,0:0:0:0:
139,163,19035,6,0,L|145:250,1,80,10|2,1:0|0:0,0:0:0:0:
153,318,19388,1,2,0:0:0:0:
25,384,19565,2,0,L|30:304,1,80,10|0,1:0|0:0,0:0:0:0:
38,222,19918,1,0,0:0:0:0:
116,54,20094,6,0,L|210:62,1,80,10|2,3:1|0:0,0:0:0:0:
267,166,20447,2,0,L|361:158,1,80,10|2,0:1|0:0,0:0:0:0:
391,89,20800,1,10,3:1:0:0:
470,242,20977,2,0,L|376:234,1,80,2|8,0:1|0:0,0:0:0:0:
325,288,21329,1,2,0:1:0:0:
238,368,21506,5,2,3:1:0:0:
152,382,21682,1,2,3:2:0:0:
123,298,21859,1,10,3:1:0:0:
37,284,22035,1,2,3:2:0:0:
0,202,22212,2,0,L|79:195,1,80,2|2,3:1|3:2,0:0:0:0:
74,110,22565,2,0,L|153:116,1,80,10|2,3:1|3:2,0:0:0:0:
236,167,22918,6,0,P|273:178|309:162,1,80,6|0,3:2|0:0,0:0:0:0:
347,83,23271,1,8,0:0:0:0:
474,129,23447,2,0,B|440:177|468:235|468:235|492:290|452:333,1,216.000000823975,2|2,0:1|0:2,0:0:0:0:
373,376,23977,2,0,L|289:360,1,80,10|0,0:0|0:0,0:0:0:0:
218,326,24329,5,2,3:2:0:0:
140,356,24506,1,2,0:0:0:0:
24,261,24682,2,0,P|54:237|93:231,1,80,10|2,0:0|0:0,0:0:0:0:
155,274,25035,1,2,3:1:0:0:
214,227,25212,2,0,P|245:202|284:196,2,80,2|8|0,0:0|0:0|0:0,0:0:0:0:
281,273,25741,6,0,P|319:281|357:268,1,80,2|0,3:2|0:0,0:0:0:0:
377,192,26094,1,8,0:0:0:0:
317,26,26271,2,0,P|281:86|346:114,1,160,2|2,0:1|0:2,0:0:0:0:
399,37,26800,2,0,P|443:29|486:47,1,80,10|0,0:1|0:0,0:0:0:0:
510,133,27153,5,2,3:1:0:0:
472,211,27329,1,2,0:0:0:0:
509,299,27506,2,0,L|413:281,1,80,10|2,0:1|0:0,0:0:0:0:
350,265,27859,1,2,3:2:0:0:
252,344,28035,2,0,L|159:360,1,80,2|8,0:1|0:0,0:0:0:0:
102,320,28388,1,0,0:0:0:0:
147,204,28565,6,0,P|164:271|94:272,1,160,6|8,3:2|0:0,0:0:0:0:
103,140,29094,2,0,B|146:117|186:138|186:138|226:162|277:130,1,160,2|2,0:1|0:2,0:0:0:0:
307,78,29624,2,0,L|393:89,1,80,10|0,0:0|0:0,0:0:0:0:
427,156,29977,6,0,L|341:167,1,80,2|0,3:2|0:0,0:0:0:0:
310,236,30329,2,0,L|396:247,1,80,10|0,0:2|0:0,0:0:0:0:
436,310,30682,1,2,3:1:0:0:
372,359,30859,2,0,B|325:374|289:354|289:354|249:332|217:347,1,160,0|0,3:2|3:2,0:0:0:0:
110,362,31388,6,0,P|95:310|101:257,1,108.000000411987,6|0,3:2|0:0,0:0:0:0:
208,248,31741,2,0,P|214:194|200:142,1,108.000000411987,10|0,0:1|0:0,0:0:0:0:
111,80,32094,1,2,3:2:0:0:
8,101,32271,2,0,P|42:157|142:180,1,160,2|0,0:1|0:0,0:0:0:0:
209,110,32800,6,0,P|256:84|309:83,2,108.000000411987,2|2|2,3:1|0:0|0:0,0:0:0:0:
286,168,33329,2,0,B|305:213|370:182|370:182|416:165|468:189|477:244|458:271,1,216.000000823975,10|8,0:1|0:0,0:0:0:0:
457,321,33859,1,2,0:0:0:0:
263,367,34212,6,0,L|156:350,1,108.000000411987,2|0,3:1|0:0,0:0:0:0:
62,245,34565,2,0,L|168:228,1,108.000000411987,10|0,0:1|0:0,0:0:0:0:
264,248,34918,1,2,3:2:0:0:
379,321,35094,2,0,B|424:308|424:308|440:132,1,216.000000823975,2|0,0:1|0:0,0:0:0:0:
426,42,35624,6,0,B|469:51|469:51|515:-1,2,108.000000411987,2|2|2,3:1|0:0|0:0,0:0:0:0:
334,7,36153,2,0,L|121:38,1,184.000003509522,10|10,0:1|0:1,0:0:0:0:
66,14,36682,1,2,0:0:0:0:
9,102,36859,1,0,0:0:0:0:
61,202,37035,6,0,P|114:223|166:207,1,80,6|0,3:2|0:0,0:0:0:0:
235,168,37388,2,0,L|253:262,1,80,10|2,0:1|0:0,0:0:0:0:
165,359,37741,2,0,L|183:265,1,80,2|2,3:2|0:0,0:0:0:0:
487,384,38447,6,0,L|408:369,1,80,2|2,3:1|0:0,0:0:0:0:
330,293,38800,2,0,L|408:278,1,80,10|2,0:1|3:2,0:0:0:0:
480,243,39153,1,0,0:0:0:0:
500,166,39329,1,10,3:2:0:0:
421,125,39506,2,0,B|406:101|406:101|434:31,1,80,10|2,0:0|0:1,0:0:0:0:
511,40,39859,5,2,3:1:0:0:
406,202,40212,2,0,L|306:215,1,80,10|0,0:1|0:0,0:0:0:0:
236,122,40565,1,2,3:2:0:0:
308,136,40741,1,2,0:2:0:0:
185,304,41271,5,10,3:1:0:0:
154,228,41447,1,10,0:2:0:0:
230,197,41624,1,10,3:1:0:0:
261,273,41800,1,10,3:2:0:0:
31,351,42153,5,2,3:2:0:0:
37,296,42329,1,10,3:1:0:0:
92,303,42506,1,10,0:2:0:0:
84,357,42682,1,6,3:2:0:0:
