osu file format v14

[General]
AudioFilename: audio.mp3
AudioLeadIn: 0
PreviewTime:21506
Countdown: 0
SampleSet: Soft
StackLeniency: 0.7
Mode: 0
LetterboxInBreaks: 0
WidescreenStoryboard: 1

[Editor]
Bookmarks: 11657,17237,21506
DistanceSpacing: 1
BeatDivisor: 4
GridSize: 16
TimelineZoom: 1.9

[Metadata]
Title:Kurogane City (Hiru)
TitleUnicode:クロガネシティ (昼)
Artist:Sato Hitomi
ArtistUnicode:佐藤仁美
Creator:Kingling
Version:Premier Ball
Source:ポケットモンスター ダイヤモンド・パール
Tags:roark diamond pearl platinum pokemon sinnoh region pokémon pocket monsters poketto monsuta electronic 8bit 8 bit instrumental eight nintendo DS apo11o mrowswares apollo oreburgh city day satou (day)
BeatmapID:2780506
BeatmapSetID:1342228

[Difficulty]
HPDrainRate:3
CircleSize:3
OverallDifficulty:3
ApproachRate:4
SliderMultiplier:0.999999999999999
SliderTickRate:1

[Events]
//Background and Video events
0,0,"Oreburgh_City_DPPt.png",0,0
//Break Periods
//Storyboard Layer 0 (Background)
//Storyboard Layer 1 (Fail)
//Storyboard Layer 2 (Pass)
//Storyboard Layer 3 (Foreground)
//Storyboard Layer 4 (Overlay)
//Storyboard Sound Samples

[TimingPoints]
330,352.941176470588,4,2,1,70,1,0

[Colours]
Combo1 : 113,36,0
Combo2 : 101,77,20
Combo3 : 128,128,0

[HitObjects]
16,101,330,6,0,P|65:118|167:83,1,150,6|2,3:2|0:1,0:0:0:0:
279,8,1388,1,10,0:0:0:0:
370,49,1741,2,0,L|389:154,1,99.9999999999999,2|10,3:1|0:0,0:0:0:0:
487,160,2447,2,0,L|468:265,1,99.9999999999999,2|10,3:2|0:1,0:0:0:0:
432,351,3153,2,0,P|351:379|276:357,1,150,2|2,3:1|0:1,0:0:0:0:
215,248,4212,1,10,0:0:0:0:
265,161,4565,2,0,P|325:153|374:165,1,99.9999999999999,2|10,3:1|0:0,0:0:0:0:
461,178,5271,2,0,L|468:112,1,50,2|2,3:1|0:0,0:0:0:0:
348,35,5977,6,0,P|253:61|192:42,1,150,6|2,3:2|0:1,0:0:0:0:
52,17,7035,1,10,0:0:0:0:
4,105,7388,2,0,L|12:207,1,99.9999999999999,2|10,3:1|0:0,0:0:0:0:
23,304,8094,1,2,3:1:0:0:
118,273,8447,1,10,0:0:0:0:
176,354,8800,2,0,P|221:372|332:353,1,150,2|2,3:1|0:1,0:0:0:0:
414,249,9859,1,10,0:0:0:0:
511,224,10212,2,0,L|473:119,1,99.9999999999999,2|10,3:1|0:0,0:0:0:0:
418,48,10918,2,0,L|354:33,1,50,2|2,3:2|0:1,0:0:0:0:
219,43,11624,6,0,P|173:64|73:33,2,150,6|10|10,3:1|0:0|0:1,0:0:0:0:
418,49,13388,2,0,L|414:157,1,99.9999999999999,10|10,0:1|0:1,0:0:0:0:
371,344,14447,2,0,P|418:366|515:346,2,150,2|10|10,3:1|0:0|0:1,0:0:0:0:
176,297,16212,2,0,L|180:187,1,99.9999999999999,10|10,0:1|0:1,0:0:0:0:
155,99,16918,1,2,0:0:0:0:
56,82,17271,6,0,P|32:157|33:229,2,150,10|10|10,3:1|0:1|0:1,0:0:0:0:
123,8,18682,1,2,0:1:0:0:
209,55,19035,2,0,P|252:80|302:80,1,99.9999999999999,10|2,1:0|0:0,0:0:0:0:
334,42,19565,2,0,P|383:41|426:66,1,99.9999999999999,10|0,1:0|0:0,0:0:0:0:
459,103,20094,5,10,3:1:0:0:
441,201,20447,1,10,0:1:0:0:
504,278,20800,2,0,L|512:345,1,50,10|2,3:1|0:1,0:0:0:0:
360,336,21506,2,0,P|314:353|251:350,1,99.9999999999999,2|10,3:1|3:1,0:0:0:0:
213,265,22212,2,0,P|165:248|116:248,1,99.9999999999999,2|10,3:1|3:1,0:0:0:0:
45,320,22918,6,0,P|16:238|31:165,1,150,6|2,3:2|0:1,0:0:0:0:
86,42,23977,1,10,0:0:0:0:
179,75,24329,2,0,P|234:75|281:52,1,99.9999999999999,2|10,3:2|0:0,0:0:0:0:
367,19,25035,2,0,L|382:88,1,50,2|2,3:1|0:0,0:0:0:0:
407,215,25741,6,0,P|318:172|252:182,1,150,2|2,3:2|0:1,0:0:0:0:
137,246,26800,1,10,0:1:0:0:
166,341,27153,2,0,P|207:375|263:373,1,99.9999999999999,2|10,3:1|0:1,0:0:0:0:
303,290,27859,2,0,L|358:309,1,50,2|2,3:2|0:1,0:0:0:0:
489,361,28565,6,0,P|515:275|500:202,1,150,6|2,3:2|0:1,0:0:0:0:
469,76,29624,1,10,0:0:0:0:
376,38,29977,2,0,P|318:58|264:46,1,99.9999999999999,2|10,3:2|0:2,0:0:0:0:
188,14,30682,2,0,L|143:61,1,50,2|0,3:1|3:2,0:0:0:0:
4,72,31388,6,0,P|0:123|14:176,1,99.9999999999999,6|10,3:2|0:1,0:0:0:0:
111,173,32094,2,0,L|100:238,1,50,2|2,3:2|0:1,0:0:0:0:
69,368,32800,2,0,P|129:345|230:366,1,150,2|10,3:1|0:1,0:0:0:0:
362,368,33859,1,2,0:0:0:0:
446,314,34212,6,0,P|431:263|387:221,1,99.9999999999999,2|10,3:1|0:1,0:0:0:0:
300,239,34918,2,0,L|237:254,1,50,2|2,3:2|0:1,0:0:0:0:
101,265,35624,2,0,P|85:207|128:112,1,150,2|10,3:1|0:1,0:0:0:0:
185,53,36506,2,0,L|248:45,1,50,10|2,0:1|0:0,0:0:0:0:
331,21,37035,6,0,P|331:65|348:125,1,99.9999999999999,6|10,3:2|0:1,0:0:0:0:
396,204,37741,1,2,3:2:0:0:
377,302,38094,1,8,0:0:0:0:
287,347,38447,2,0,P|189:346|152:302,1,150,2|2,3:1|3:2,0:0:0:0:
122,166,39506,1,10,0:0:0:0:
215,129,39859,6,0,L|231:24,1,99.9999999999999,2|10,3:1|0:1,0:0:0:0:
330,34,40565,2,0,L|340:97,1,50,2|2,3:2|0:2,0:0:0:0:
487,95,41271,2,0,L|471:200,1,99.9999999999999,10|10,3:1|3:1,0:0:0:0:
423,207,41800,2,0,L|438:311,1,99.9999999999999,10|2,3:2|3:2,0:0:0:0:
410,348,42329,2,0,L|342:353,1,50,10|10,3:1|0:2,0:0:0:0:
319,322,42682,1,6,3:2:0:0:
