osu file format v14

[General]
AudioFilename: audio.mp3
AudioLeadIn: 0
PreviewTime:21506
Countdown: 0
SampleSet: Soft
StackLeniency: 0.7
Mode: 0
LetterboxInBreaks: 0
WidescreenStoryboard: 1

[Editor]
Bookmarks: 11624,17271,21506
DistanceSpacing: 1.2
BeatDivisor: 4
GridSize: 16
TimelineZoom: 1.9

[Metadata]
Title:Kurogane City (Hiru)
TitleUnicode:クロガネシティ (昼)
Artist:Sato Hitomi
ArtistUnicode:佐藤仁美
Creator:Kingling
Version:Poke Ball
Source:ポケットモンスター ダイヤモンド・パール
Tags:roark diamond pearl platinum pokemon sinnoh region pokémon pocket monsters poketto monsuta electronic 8bit 8 bit instrumental eight nintendo DS apo11o mrowswares apollo oreburgh city day satou (day)
BeatmapID:3118359
BeatmapSetID:1342228

[Difficulty]
HPDrainRate:3.5
CircleSize:3.5
OverallDifficulty:5
ApproachRate:5.5
SliderMultiplier:1.2
SliderTickRate:1

[Events]
//Background and Video events
0,0,"Oreburgh_City_DPPt.png",0,0
//Break Periods
//Storyboard Layer 0 (Background)
//Storyboard Layer 1 (Fail)
//Storyboard Layer 2 (Pass)
//Storyboard Layer 3 (Foreground)
//Storyboard Layer 4 (Overlay)
//Storyboard Sound Samples

[TimingPoints]
330,352.941176470588,4,2,1,70,1,0
7388,-80,4,2,1,70,0,0
8800,-100,4,2,1,70,0,0
18329,-80,4,2,1,70,0,0
20094,-100,4,2,1,70,0,0

[Colours]
Combo1 : 113,36,0
Combo2 : 101,77,20
Combo3 : 128,128,0

[HitObjects]
0,40,330,6,0,P|55:20|112:36,1,120,6|8,3:2|0:0,0:0:0:0:
150,82,859,2,0,P|206:98|262:78,1,120,2|2,0:1|0:0,0:0:0:0:
305,37,1388,1,10,0:0:0:0:
421,7,1741,2,0,B|404:40|404:40|434:129,1,120,2|10,3:1|0:0,0:0:0:0:
511,207,2447,2,0,B|528:240|528:240|498:329,1,120,2|10,3:2|0:1,0:0:0:0:
381,331,3153,6,0,P|336:378|273:381,1,120,2|8,3:1|0:0,0:0:0:0:
229,357,3682,2,0,P|184:310|121:307,1,120,2|2,0:1|0:0,0:0:0:0:
76,329,4212,1,10,0:0:0:0:
1,235,4565,1,2,3:1:0:0:
14,115,4918,1,10,0:0:0:0:
113,46,5271,1,2,3:1:0:0:
113,46,5447,1,2,0:0:0:0:
367,85,5977,6,0,P|346:137|278:157,1,120,6|8,3:2|0:0,0:0:0:0:
230,144,6506,2,0,P|175:163|152:217,1,120,2|2,0:1|0:0,0:0:0:0:
169,275,7035,1,10,0:0:0:0:
276,377,7388,2,0,B|294:337|294:337|410:330,1,150,2|10,3:1|0:0,0:0:0:0:
491,209,8094,2,0,B|473:249|473:249|357:256,1,150,2|10,3:1|0:0,0:0:0:0:
253,222,8800,6,0,P|246:160|287:116,1,120,2|8,3:1|0:0,0:0:0:0:
340,128,9329,2,0,P|397:142|449:116,1,120,2|2,0:1|0:0,0:0:0:0:
453,56,9859,1,10,0:0:0:0:
343,5,10212,1,2,3:1:0:0:
234,56,10565,1,10,0:0:0:0:
125,5,10918,1,2,3:2:0:0:
125,5,11094,1,2,0:1:0:0:
134,192,11624,6,0,P|139:238|41:311,2,180,6|10|10,3:1|0:0|0:1,0:0:0:0:
31,104,13388,2,0,L|53:236,1,120,10|10,0:1|0:1,0:0:0:0:
293,234,14447,6,0,P|247:229|174:327,2,180,2|10|10,3:1|0:0|0:1,0:0:0:0:
377,331,16212,2,0,L|258:311,1,120,10|10,0:1|0:1,0:0:0:0:
463,185,17271,6,0,P|437:235|372:244,1,120,10|2,3:1|0:0,0:0:0:0:
329,210,17800,2,0,P|303:160|238:151,1,120,10|2,0:1|0:0,0:0:0:0:
209,197,18329,2,0,P|163:247|113:202,1,150,10|2,0:1|0:1,0:0:0:0:
53,48,19035,2,0,P|106:14|142:15,2,75,10|2|2,1:0|0:0|0:0,0:0:0:0:
3,47,19565,2,0,P|29:118|25:192,1,150,10|0,1:0|0:0,0:0:0:0:
26,251,20094,6,0,P|61:309|127:326,1,120,10|10,3:1|0:1,0:0:0:0:
256,328,20800,1,10,3:1:0:0:
256,328,20977,1,2,0:1:0:0:
395,380,21329,1,2,0:1:0:0:
395,380,21506,2,0,L|398:316,1,60,2|2,3:1|3:2,0:0:0:0:
438,294,21859,2,0,L|435:230,1,60,10|2,3:1|3:2,0:0:0:0:
395,206,22212,2,0,L|392:142,1,60,2|2,3:1|3:2,0:0:0:0:
429,115,22565,2,0,L|432:51,1,60,10|2,3:1|3:2,0:0:0:0:
391,30,22918,6,0,P|324:-3|272:12,1,120,6|8,3:2|0:0,0:0:0:0:
250,56,23447,2,0,P|222:88|133:72,1,120,2|2,0:1|0:2,0:0:0:0:
95,58,23977,1,10,0:0:0:0:
6,138,24329,2,0,L|16:208,1,60,2|2,3:2|0:0,0:0:0:0:
50,245,24682,1,10,0:0:0:0:
167,211,25035,1,2,3:1:0:0:
167,211,25212,1,2,0:0:0:0:
380,193,25741,6,0,P|335:229|324:294,1,120,2|8,3:2|0:0,0:0:0:0:
304,345,26271,2,0,P|252:373|194:362,1,120,2|2,0:1|0:2,0:0:0:0:
162,311,26800,1,10,0:1:0:0:
232,213,27153,2,0,L|245:131,1,60,2|2,3:1|0:0,0:0:0:0:
220,97,27506,1,10,0:1:0:0:
122,36,27859,1,2,3:2:0:0:
122,36,28035,1,2,0:1:0:0:
19,205,28565,6,0,P|69:236|126:224,1,120,6|8,3:2|0:0,0:0:0:0:
143,166,29094,2,0,P|192:135|250:147,1,120,2|2,0:1|0:2,0:0:0:0:
279,200,29624,1,10,0:0:0:0:
259,318,29977,1,2,3:2:0:0:
362,379,30329,1,10,0:2:0:0:
472,336,30682,1,2,3:1:0:0:
472,336,30859,1,0,3:2:0:0:
468,96,31388,6,0,P|423:132|358:124,1,120,6|10,3:2|0:1,0:0:0:0:
274,54,32094,1,2,3:2:0:0:
274,54,32271,1,2,0:1:0:0:
53,58,32800,2,0,L|42:122,1,60,2|2,3:1|0:0,0:0:0:0:
39,176,33153,1,2,0:0:0:0:
75,223,33329,2,0,P|114:266|119:325,1,120,10|8,0:1|0:0,0:0:0:0:
89,378,33859,1,2,0:0:0:0:
210,334,34212,6,0,P|261:362|320:355,1,120,2|10,3:1|0:1,0:0:0:0:
415,275,34918,1,2,3:2:0:0:
415,275,35094,1,2,0:1:0:0:
444,81,35624,2,0,L|382:103,1,60,2|2,3:1|0:0,0:0:0:0:
327,101,35977,1,2,0:0:0:0:
281,63,36153,2,0,P|252:19|170:19,1,120,10|10,0:1|0:1,0:0:0:0:
132,30,36682,1,2,0:0:0:0:
98,145,37035,5,6,3:2:0:0:
173,238,37388,2,0,B|196:204|196:204|292:191,1,120,10|2,0:1|3:2,0:0:0:0:
322,230,37918,1,2,0:0:0:0:
467,335,38447,2,0,B|501:312|501:312|514:216,1,120,2|10,3:1|0:1,0:0:0:0:
466,193,38977,2,0,B|432:170|432:170|419:74,1,120,2|10,3:2|3:2,0:0:0:0:
397,36,39506,2,0,L|322:19,1,60,10|2,0:0|0:1,0:0:0:0:
278,27,39859,1,2,3:1:0:0:
209,125,40212,5,10,0:1:0:0:
256,240,40565,1,2,3:2:0:0:
256,240,40741,1,2,0:2:0:0:
113,350,41271,2,0,B|80:343|80:343|71:251,1,120,10|10,3:1|3:1,0:0:0:0:
110,211,41800,2,0,B|143:204|143:204|152:112,1,120,10|2,3:2|3:2,0:0:0:0:
141,58,42329,2,0,L|81:39,1,60,10|10,3:1|0:2,0:0:0:0:
26,57,42682,1,6,3:2:0:0:
