osu file format v14

[General]
AudioFilename: audio.mp3
AudioLeadIn: 0
PreviewTime:21506
Countdown: 0
SampleSet: Soft
StackLeniency: 0.7
Mode: 0
LetterboxInBreaks: 0
WidescreenStoryboard: 1

[Editor]
Bookmarks: 11624,17271,21598,31388,37035,42682
DistanceSpacing: 1
BeatDivisor: 4
GridSize: 16
TimelineZoom: 1.9

[Metadata]
Title:Kurogane City (Hiru)
TitleUnicode:クロガネシティ (昼)
Artist:Sato Hitomi
ArtistUnicode:佐藤仁美
Creator:Kingling
Version:Great Ball
Source:ポケットモンスター ダイヤモンド・パール
Tags:roark diamond pearl platinum pokemon sinnoh region pokémon pocket monsters poketto monsuta electronic 8bit 8 bit instrumental eight nintendo DS apo11o mrowswares apollo oreburgh city day satou (day)
BeatmapID:3130253
BeatmapSetID:1342228

[Difficulty]
HPDrainRate:4
CircleSize:4
OverallDifficulty:6
ApproachRate:6.5
SliderMultiplier:1.5
SliderTickRate:1

[Events]
//Background and Video events
0,0,"Oreburgh_City_DPPt.png",0,0
//Break Periods
//Storyboard Layer 0 (Background)
//Storyboard Layer 1 (Fail)
//Storyboard Layer 2 (Pass)
//Storyboard Layer 3 (Foreground)
//Storyboard Layer 4 (Overlay)
//Storyboard Sound Samples

[TimingPoints]
330,352.941176470588,4,2,1,70,1,0
2447,-83.3333333333333,4,2,1,70,0,0
3153,-100,4,2,1,70,0,0
8094,-76.9230769230769,4,2,1,70,0,0
8800,-100,4,2,1,70,0,0
18329,-80,4,2,1,70,0,0
19035,-90.9090909090909,4,2,1,70,0,0
27506,-80,4,2,1,70,0,0
28565,-90.9090909090909,4,2,1,70,0,0
34212,-80,4,2,1,70,0,0
37388,-100,4,2,1,70,0,0

[Colours]
Combo1 : 113,36,0
Combo2 : 101,77,20
Combo3 : 128,128,0

[HitObjects]
15,66,330,6,0,P|65:118|57:190,1,150,6|8,3:2|0:0,0:0:0:0:
18,283,859,2,0,P|30:215|98:223,1,150,2|2,0:1|0:0,0:0:0:0:
124,315,1388,2,0,L|198:323,1,75,10|0,0:0|0:0,0:0:0:0:
287,380,1741,2,0,B|309:367|309:367|314:317,1,75,2|0,3:1|0:0,0:0:0:0:
248,246,2094,2,0,B|226:233|226:233|220:183,1,75,10|0,0:0|0:0,0:0:0:0:
316,116,2447,2,0,B|342:100|342:100|348:41,1,89.9999972534181,2|0,3:2|0:0,0:0:0:0:
479,133,2800,2,0,B|505:148|505:148|511:207,1,89.9999972534181,10|0,0:1|0:0,0:0:0:0:
501,348,3153,6,0,P|431:368|373:325,1,150,2|8,3:1|0:0,0:0:0:0:
377,226,3682,2,0,P|387:288|302:275,1,150,2|2,0:1|0:0,0:0:0:0:
257,218,4212,2,0,L|177:235,1,75,10|0,0:0|0:0,0:0:0:0:
70,307,4565,2,0,B|47:296|47:296|42:246,1,75,2|0,3:1|0:0,0:0:0:0:
95,183,4918,2,0,B|118:172|118:172|122:122,1,75,10|0,0:0|0:0,0:0:0:0:
69,0,5271,1,2,3:1:0:0:
10,58,5447,2,0,B|26:86|26:86|144:94,1,150,2|0,0:0|0:0,0:0:0:0:
265,38,5977,6,0,P|325:78|336:150,1,150,6|8,3:2|0:0,0:0:0:0:
261,209,6506,2,0,P|343:176|358:233,1,150,2|2,0:1|0:0,0:0:0:0:
319,346,7035,2,0,L|244:359,1,75,10|0,0:0|0:0,0:0:0:0:
187,299,7388,2,0,B|169:276|169:276|123:273,1,75,2|0,3:1|0:0,0:0:0:0:
17,222,7741,2,0,B|35:199|35:199|81:196,1,75,10|0,0:0|0:0,0:0:0:0:
130,86,8094,2,0,B|153:115|153:115|212:119,1,97.4999955368044,2|0,3:1|0:0,0:0:0:0:
292,33,8447,2,0,B|315:3|315:3|374:0,1,97.4999955368044,10|0,0:0|0:0,0:0:0:0:
490,60,8800,6,0,P|502:140|429:182,1,150,2|8,3:1|0:0,0:0:0:0:
364,180,9329,2,0,P|432:184|432:253,1,150,2|2,0:1|0:0,0:0:0:0:
374,339,9859,2,0,L|300:345,1,75,10|0,0:0|0:0,0:0:0:0:
218,290,10212,2,0,B|194:272|194:272|192:226,1,75,2|0,3:1|0:0,0:0:0:0:
266,171,10565,2,0,B|289:153|289:153|291:107,1,75,10|0,0:0|0:0,0:0:0:0:
226,10,10918,1,2,3:2:0:0:
79,51,11094,2,0,B|91:89|91:89|205:105,1,150,2|0,0:1|0:0,0:0:0:0:
328,38,11624,6,0,B|359:20|406:36|409:86|409:86|409:132|460:154|494:135,2,225,6|10|10,3:1|0:0|0:1,0:0:0:0:
202,149,13388,2,0,P|248:142|273:104,1,75,10|0,0:1|0:0,0:0:0:0:
297,18,13741,1,10,0:1:0:0:
13,60,14447,6,0,B|27:33|55:26|55:26|86:85|173:93|209:36,2,225,2|10|10,3:1|0:0|0:1,0:0:0:0:
71,244,16212,2,0,P|91:207|81:161,1,75,10|0,0:1|0:0,0:0:0:0:
18,83,16565,1,10,0:1:0:0:
19,326,17271,6,0,B|41:360|41:360|160:354,1,150,10|2,3:1|0:0,0:0:0:0:
187,258,17800,2,0,B|209:224|209:224|328:230,1,150,10|2,0:1|0:0,0:0:0:0:
398,329,18329,2,0,B|356:316|356:316|340:155,1,187.5,10|2,0:1|0:1,0:0:0:0:
381,40,18859,1,0,0:0:0:0:
427,112,19035,2,0,B|453:119|453:119|501:84,2,82.5000025177003,10|2|2,1:0|0:0|0:0,0:0:0:0:
283,49,19565,2,0,B|260:17|260:17|134:22,1,165.000005035401,10|0,1:0|0:0,0:0:0:0:
29,59,20094,6,0,B|8:77|8:77|16:131,1,82.5000025177003,10|2,3:1|0:0,0:0:0:0:
118,154,20447,2,0,B|139:172|139:172|130:226,1,82.5000025177003,10|2,0:1|0:0,0:0:0:0:
78,346,20800,1,10,3:1:0:0:
27,279,20977,2,0,B|56:246|56:246|174:269,1,165.000005035401,2|2,0:1|0:1,0:0:0:0:
257,377,21506,5,2,3:1:0:0:
345,357,21682,1,2,3:2:0:0:
403,283,21859,2,0,B|393:252|393:252|344:239,1,82.5000025177003,10|2,3:1|3:2,0:0:0:0:
288,171,22212,1,2,3:1:0:0:
217,154,22388,1,2,3:2:0:0:
170,95,22565,2,0,B|178:70|178:70|233:55,1,82.5000025177003,10|2,3:1|3:2,0:0:0:0:
426,26,22918,6,0,B|398:31|398:31|386:83,1,82.5000025177003,6|0,3:2|0:0,0:0:0:0:
429,232,23271,1,8,0:0:0:0:
474,162,23447,2,0,B|456:124|456:124|334:106,1,165.000005035401,2|2,0:1|0:2,0:0:0:0:
255,173,23977,2,0,B|244:197|244:197|188:201,1,82.5000025177003,10|0,0:0|0:0,0:0:0:0:
44,157,24329,1,2,3:2:0:0:
118,120,24506,1,2,0:0:0:0:
173,182,24682,2,0,L|178:276,1,82.5000025177003,10|2,0:0|0:0,0:0:0:0:
117,375,25035,1,2,3:1:0:0:
67,314,25212,2,0,B|94:284|94:284|238:313,1,165.000005035401,2|0,0:0|0:0,0:0:0:0:
373,384,25741,6,0,B|401:370|401:370|410:319,1,82.5000025177003,2|0,3:2|0:0,0:0:0:0:
337,195,26094,1,8,0:0:0:0:
307,272,26271,2,0,B|337:308|337:308|466:271,1,165.000005035401,2|2,0:1|0:2,0:0:0:0:
512,209,26800,2,0,L|504:126,1,82.5000025177003,10|0,0:1|0:0,0:0:0:0:
456,12,27153,1,2,3:1:0:0:
416,90,27329,1,2,0:0:0:0:
330,20,27506,2,0,B|312:1|312:1|245:7,1,93.75,10|2,0:1|0:0,0:0:0:0:
154,119,27859,1,2,3:2:0:0:
76,76,28035,2,0,B|116:52|116:52|247:105,1,187.5,2|0,0:1|0:0,0:0:0:0:
339,215,28565,6,0,P|318:279|208:287,1,165.000005035401,6|8,3:2|0:0,0:0:0:0:
144,267,29094,2,0,P|214:300|154:348,1,165.000005035401,2|2,0:1|0:2,0:0:0:0:
37,338,29624,2,0,B|26:249,1,82.5000025177003,10|0,0:0|0:0,0:0:0:0:
46,154,29977,2,0,B|61:177|61:177|116:182,1,82.5000025177003,2|0,3:2|0:0,0:0:0:0:
154,99,30329,2,0,B|169:76|169:76|224:71,1,82.5000025177003,10|0,0:2|0:0,0:0:0:0:
351,63,30682,1,2,3:1:0:0:
307,1,30859,2,0,B|267:17|267:17|246:137,1,165.000005035401,0|0,3:2|3:2,0:0:0:0:
307,206,31388,6,0,L|389:223,1,82.5000025177003,6|0,3:2|0:0,0:0:0:0:
461,306,31741,2,0,L|379:323,1,82.5000025177003,10|0,0:1|0:0,0:0:0:0:
288,345,32094,1,2,3:2:0:0:
196,284,32271,2,0,B|178:322|178:322|56:337,1,165.000005035401,2|0,0:1|0:0,0:0:0:0:
0,221,32800,2,0,B|8:239|8:239|69:247,1,82.5000025177003,2|2,3:1|0:0,0:0:0:0:
147,205,33153,1,2,0:0:0:0:
100,94,33329,2,0,B|115:56|115:56|252:48,1,165.000005035401,10|8,0:1|0:0,0:0:0:0:
317,88,33859,1,2,0:0:0:0:
512,108,34212,6,0,L|493:16,1,93.75,2|0,3:1|0:0,0:0:0:0:
411,96,34565,2,0,L|392:187,1,93.75,10|0,0:1|0:0,0:0:0:0:
449,322,34918,1,2,3:2:0:0:
512,273,35094,2,0,B|499:228|499:228|347:209,1,187.5,2|0,0:1|0:0,0:0:0:0:
308,288,35624,2,0,B|301:309|301:309|229:318,1,93.75,2|2,3:1|0:0,0:0:0:0:
113,311,35977,1,2,0:0:0:0:
150,384,36153,2,0,B|194:371|194:371|214:219,1,187.5,10|10,0:1|0:1,0:0:0:0:
132,193,36682,2,0,B|111:186|111:186|102:116,1,93.75,2|0,0:0|0:0,0:0:0:0:
153,40,37035,1,6,3:2:0:0:
235,188,37388,6,0,L|309:196,1,75,10|2,0:1|0:0,0:0:0:0:
382,107,37741,2,0,L|307:115,1,75,2|2,3:2|0:0,0:0:0:0:
351,384,38447,2,0,L|360:309,1,75,2|2,3:1|0:0,0:0:0:0:
394,195,38800,1,10,0:1:0:0:
462,252,38977,2,0,B|441:281|441:281|315:287,1,150,2|10,3:2|3:2,0:0:0:0:
275,211,39506,2,0,B|264:192|264:192|205:189,1,75,10|2,0:0|0:1,0:0:0:0:
151,239,39859,5,2,3:1:0:0:
38,364,40212,2,0,B|15:356|15:356|4:293,1,75,10|0,0:1|0:0,0:0:0:0:
56,232,40565,1,2,3:2:0:0:
67,154,40741,1,2,0:2:0:0:
5,45,41271,6,0,B|26:13|26:13|141:32,1,150,10|10,3:1|3:1,0:0:0:0:
154,112,41800,2,0,B|175:144|175:144|290:125,1,150,10|2,3:2|3:2,0:0:0:0:
318,47,42329,2,0,L|394:64,1,75,10|10,3:1|0:2,0:0:0:0:
469,166,42682,1,6,3:2:0:0:
