osu file format v14

[General]
AudioFilename: audio.mp3
AudioLeadIn: 0
PreviewTime: 3186
Countdown: 0
SampleSet: Normal
StackLeniency: 0.7
Mode: 1
LetterboxInBreaks: 0
WidescreenStoryboard: 1

[Editor]
DistanceSpacing: 1.1
BeatDivisor: 4
GridSize: 32
TimelineZoom: 1.1

[Metadata]
Title:Hodomoe City
TitleUnicode:ホドモエシティ
Artist:Sato Hitomi
ArtistUnicode:佐藤仁美
Creator:GIGACHAD
Version:Futsuu
Source:ポケットモンスターブラック・ホワイト
Tags:emre1504 dako Satou pokemon pokémon pocket monsters black and white Driftveil nintendo the company video game instrumental freak unova
BeatmapID:2960657
BeatmapSetID:1438881

[Difficulty]
HPDrainRate:9
CircleSize:2
OverallDifficulty:3
ApproachRate:9.6
SliderMultiplier:1.4
SliderTickRate:1

[Events]
//Background and Video events
0,0,"maxresdefault.jpg",0,0
//Break Periods
//Storyboard Layer 0 (Background)
//Storyboard Layer 1 (Fail)
//Storyboard Layer 2 (Pass)
//Storyboard Layer 3 (Foreground)
//Storyboard Layer 4 (Overlay)
//Storyboard Sound Samples

[TimingPoints]
742,444.444444444444,4,1,0,50,1,0
20297,-100,4,1,0,50,0,1
34964,-100,4,1,0,50,0,0
38075,-100,4,1,0,50,0,1
39853,-100,4,1,0,50,0,0
44297,-100,4,1,0,40,0,0
45186,-100,4,1,0,25,0,0
46075,-100,4,1,0,10,0,0
46964,-100,4,1,0,5,0,0

[HitObjects]
280,253,742,5,0,0:0:0:0:
344,207,1186,1,8,0:0:0:0:
155,151,1630,1,0,0:0:0:0:
263,153,2075,1,0,0:0:0:0:
320,249,2297,1,8,0:0:0:0:
238,218,2519,1,0,0:0:0:0:
238,218,2741,1,0,0:0:0:0:
238,218,2964,1,12,0:0:0:0:
311,197,3630,1,0,0:0:0:0:
233,133,3853,1,12,0:0:0:0:
364,177,4297,1,0,0:0:0:0:
364,177,4964,1,8,0:0:0:0:
248,225,5186,1,0,0:0:0:0:
247,177,5630,1,8,0:0:0:0:
258,59,5853,1,8,0:0:0:0:
365,177,6075,1,0,0:0:0:0:
350,243,6519,1,8,0:0:0:0:
267,225,6964,1,0,0:0:0:0:
139,236,7186,1,0,0:0:0:0:
367,133,7408,1,8,0:0:0:0:
367,133,7853,1,0,0:0:0:0:
364,177,8519,1,8,0:0:0:0:
248,225,8741,1,0,0:0:0:0:
247,177,9185,1,8,0:0:0:0:
258,59,9408,1,8,0:0:0:0:
365,177,9630,1,0,0:0:0:0:
263,186,10075,1,0,0:0:0:0:
284,205,10519,1,8,0:0:0:0:
284,205,10741,1,8,0:0:0:0:
284,205,10964,1,0,0:0:0:0:
350,288,11408,1,8,0:0:0:0:
232,183,11853,1,0,0:0:0:0:
232,183,12075,1,8,0:0:0:0:
232,183,12297,1,0,0:0:0:0:
232,183,12741,1,0,0:0:0:0:
232,183,13185,1,8,0:0:0:0:
337,154,13630,1,8,0:0:0:0:
345,163,13853,1,0,0:0:0:0:
350,171,14075,1,8,0:0:0:0:
322,232,14519,1,0,0:0:0:0:
355,263,14741,1,0,0:0:0:0:
249,187,14964,1,12,0:0:0:0:
249,187,15408,1,12,0:0:0:0:
305,142,16075,1,0,0:0:0:0:
273,216,16297,1,8,0:0:0:0:
273,216,16519,1,0,0:0:0:0:
372,223,16741,1,8,0:0:0:0:
303,311,17186,1,8,0:0:0:0:
303,311,17408,1,8,0:0:0:0:
303,311,17630,1,0,0:0:0:0:
295,282,18075,1,0,0:0:0:0:
329,179,18519,1,8,0:0:0:0:
203,130,18741,1,0,0:0:0:0:
329,179,18964,1,8,0:0:0:0:
309,239,19630,1,0,0:0:0:0:
378,179,19853,1,12,0:0:0:0:
394,241,20297,1,12,0:0:0:0:
270,302,20741,1,8,0:0:0:0:
331,151,20964,1,0,0:0:0:0:
365,306,21408,1,0,0:0:0:0:
398,247,21630,1,8,0:0:0:0:
398,247,21853,1,0,0:0:0:0:
398,247,22075,1,8,0:0:0:0:
216,280,22519,1,8,0:0:0:0:
216,280,22741,1,0,0:0:0:0:
201,100,23186,1,8,0:0:0:0:
216,280,23408,1,0,0:0:0:0:
297,224,23630,1,0,0:0:0:0:
201,100,23853,1,12,0:0:0:0:
342,102,24297,1,8,0:0:0:0:
342,102,24519,1,0,0:0:0:0:
368,203,24964,1,8,0:0:0:0:
368,203,25186,1,0,0:0:0:0:
290,233,25630,1,8,0:0:0:0:
183,170,25853,1,8,0:0:0:0:
307,96,26075,1,0,0:0:0:0:
287,112,26964,1,8,0:0:0:0:
287,112,27186,1,0,0:0:0:0:
355,210,27408,1,12,0:0:0:0:
287,275,27853,1,8,0:0:0:0:
287,275,28075,1,0,0:0:0:0:
287,275,28519,1,0,0:0:0:0:
287,275,28741,1,8,0:0:0:0:
344,186,29186,1,8,0:0:0:0:
344,186,29408,1,0,0:0:0:0:
344,262,29853,1,0,0:0:0:0:
298,312,30075,1,0,0:0:0:0:
259,257,30297,1,12,0:0:0:0:
262,144,30741,1,0,0:0:0:0:
259,257,30964,1,12,0:0:0:0:
277,122,31408,1,8,0:0:0:0:
331,231,31630,1,0,0:0:0:0:
388,288,31853,1,0,0:0:0:0:
232,224,32297,1,8,0:0:0:0:
232,224,32519,1,0,0:0:0:0:
232,224,32741,1,8,0:0:0:0:
316,150,33186,1,0,0:0:0:0:
316,150,33408,1,0,0:0:0:0:
340,225,33630,1,8,0:0:0:0:
340,225,34075,1,8,0:0:0:0:
199,140,34519,1,0,0:0:0:0:
199,140,34741,1,0,0:0:0:0:
199,140,34964,1,12,0:0:0:0:
331,233,35630,1,0,0:0:0:0:
344,179,35853,1,12,0:0:0:0:
188,129,36297,1,12,0:0:0:0:
254,281,36741,1,8,0:0:0:0:
356,189,37186,1,0,0:0:0:0:
292,217,37630,1,8,0:0:0:0:
404,239,37853,1,0,0:0:0:0:
327,123,38075,1,8,0:0:0:0:
298,217,38408,1,0,0:0:0:0:
350,216,38741,1,8,0:0:0:0:
346,258,39075,1,0,0:0:0:0:
463,313,39408,1,8,0:0:0:0:
275,293,39853,1,4,0:0:0:0:
254,198,40297,1,8,0:0:0:0:
254,198,40519,1,8,0:0:0:0:
381,167,40741,1,0,0:0:0:0:
217,113,41186,1,8,0:0:0:0:
308,240,41408,1,0,0:0:0:0:
278,162,41630,1,8,0:0:0:0:
278,162,41853,1,0,0:0:0:0:
335,244,42075,1,12,0:0:0:0:
210,203,42741,1,0,0:0:0:0:
211,118,42964,1,12,0:0:0:0:
44,118,43408,1,0,0:0:0:0:
256,192,43630,12,0,46964,0:0:0:0:
