osu file format v14

[General]
AudioFilename: audio.mp3
AudioLeadIn: 0
PreviewTime: 45327
Countdown: 0
SampleSet: Soft
StackLeniency: 0.7
Mode: 0
LetterboxInBreaks: 0
WidescreenStoryboard: 0

[Editor]
DistanceSpacing: 1.2
BeatDivisor: 4
GridSize: 8
TimelineZoom: 1

[Metadata]
Title:Futaba Town (Hiru)
TitleUnicode:フタバタウン (昼)
Artist:Sato Hitomi
ArtistUnicode:佐藤仁美
Creator:Kingling
Version:Premier Ball
Source:ポケットモンスター ダイヤモンド・パール
Tags:twinleaf town (day) diamond pearl platinum pokemon sinnoh region pokémon pocket monsters poketto monsuta electronic 8bit 8 eight bit instrumental folk video game nintendo DS satou deviouspanda wanpachi verychill cycopton
BeatmapID:3130371
BeatmapSetID:1530448

[Difficulty]
HPDrainRate:2
CircleSize:2
OverallDifficulty:2
ApproachRate:3
SliderMultiplier:1
SliderTickRate:1

[Events]
//Background and Video events
0,0,"Twinleaf_Town_Pt_waifu2x_art_scale_tta_1_waifu2x_art_scale_tta_1.jpg",0,0
//Break Periods
//Storyboard Layer 0 (Background)
//Storyboard Layer 1 (Fail)
//Storyboard Layer 2 (Pass)
//Storyboard Layer 3 (Foreground)
//Storyboard Layer 4 (Overlay)
//Storyboard Sound Samples

[TimingPoints]
421,750,4,2,1,40,1,0
1452,-100,4,2,1,5,0,0
1546,-100,4,2,1,40,0,0
3327,-100,4,2,1,5,0,0
3421,-100,4,2,1,40,0,0
7452,-100,4,2,1,5,0,0
7546,-100,4,2,1,40,0,0
8202,-100,4,2,1,5,0,0
8296,-100,4,2,1,40,0,0
10452,-100,4,2,1,5,0,0
10546,-100,4,2,1,40,0,0
12702,-100,4,2,1,5,0,0
12796,-100,4,2,1,40,0,0
14202,-100,4,2,1,5,0,0
14296,-100,4,2,1,40,0,0
15702,-100,4,2,1,5,0,0
15796,-100,4,2,1,40,0,0
35577,-100,4,2,1,5,0,0
35671,-100,4,2,1,40,0,0
38577,-100,4,2,1,5,0,0
38671,-100,4,2,1,40,0,0
41577,-100,4,2,1,5,0,0
41671,-100,4,2,1,40,0,0
47671,-100,4,2,3,30,0,0
47921,-100,4,2,1,40,0,0
48046,-100,4,2,4,30,0,0
48171,-100,4,2,1,40,0,0
48421,-100,4,2,1,60,0,1
60421,-100,4,2,1,40,0,0
75467,-100,4,2,1,5,0,0

[Colours]
Combo1 : 241,150,223
Combo2 : 90,171,50
Combo3 : 142,232,75
Combo4 : 42,164,115
Combo5 : 66,205,172
Combo6 : 239,97,49
Combo7 : 255,132,65
Combo8 : 221,74,158

[HitObjects]
44,100,421,6,0,P|93:111|143:106,1,100,6|2,3:2|0:0,0:0:0:0:
238,35,1921,2,0,P|287:24|337:29,1,100,2|0,0:0|0:0,0:0:0:0:
395,22,3046,1,2,0:0:0:0:
440,60,3421,2,0,B|427:86|427:86|436:156,1,100,6|2,3:2|0:0,0:0:0:0:
485,189,4546,2,0,B|498:215|498:215|489:285,1,100,2|2,3:2|0:0,0:0:0:0:
318,225,6421,6,0,P|270:213|222:227,1,100,6|2,3:2|0:0,0:0:0:0:
149,323,7921,2,0,P|101:334|53:320,1,100,2|8,0:0|0:0,0:0:0:0:
11,278,9046,1,2,0:0:0:0:
50,232,9421,2,0,B|74:215|74:215|80:133,1,100,6|2,3:2|0:0,0:0:0:0:
36,102,10546,2,0,B|12:85|12:85|6:3,1,100,2|2,3:2|0:0,0:0:0:0:
196,24,12421,102,0,P|210:68|198:130,1,100,6|10,3:2|0:0,0:0:0:0:
118,206,13921,2,0,L|128:274,1,50,2|2,3:2|0:0,0:0:0:0:
218,331,15046,1,2,3:2:0:0:
270,302,15421,2,0,P|314:324|363:326,1,100,6|2,3:2|0:0,0:0:0:0:
465,263,16921,2,0,L|472:157,1,100,2|2,3:2|0:0,0:0:0:0:
453,105,18046,1,2,3:2:0:0:
288,32,19171,6,0,P|231:20|181:37,2,100,2|6|2,0:0|3:2|0:0,0:0:0:0:
385,101,21421,2,0,B|365:135|365:135|374:194,1,100,2|2,3:2|0:0,0:0:0:0:
254,202,22921,2,0,B|274:236|274:236|264:295,1,100,2|0,3:2|3:0,0:0:0:0:
220,337,24046,1,10,0:0:0:0:
160,323,24421,6,0,P|113:336|65:323,1,100,6|8,3:2|0:0,0:0:0:0:
25,278,25546,2,0,L|33:178,1,100,0|2,0:0|0:0,0:0:0:0:
38,118,26671,2,0,P|15:89|7:20,2,100,2|14|6,0:0|3:2|0:0,0:0:0:0:
95,99,28546,1,2,0:0:0:0:
205,51,29296,2,0,P|256:54|305:51,1,100,4|2,0:0|3:2,0:0:0:0:
361,30,30421,6,0,P|392:71|394:139,1,100,6|10,0:0|0:0,0:0:0:0:
371,171,31546,2,0,L|265:177,1,100,2|6,0:0|0:0,0:0:0:0:
213,158,32671,1,2,0:0:0:0:
94,177,33421,2,0,P|59:212|48:260,1,100,6|2,0:0|0:0,0:0:0:0:
72,315,34546,2,0,L|178:326,1,100,2|6,0:0|0:0,0:0:0:0:
216,285,35671,2,0,L|265:282,1,50,10|2,0:0|0:0,0:0:0:0:
317,313,36421,1,6,3:2:0:0:
431,348,37171,101,2,0:0:0:0:
482,317,37546,2,0,P|493:269|486:213,1,100,2|2,0:0|0:0,0:0:0:0:
406,131,39046,2,0,L|306:133,1,100,2|8,0:0|0:0,0:0:0:0:
251,157,40171,5,2,0:0:0:0:
220,208,40546,2,0,P|175:222|115:205,1,100,2|2,0:0|0:0,0:0:0:0:
26,140,42046,1,8,0:3:0:0:
50,85,42421,38,0,B|68:55|68:55|138:46,1,100,2|6,0:0|0:0,0:0:0:0:
247,81,43921,2,0,B|265:111|265:111|335:120,1,100,4|4,0:0|0:0,0:0:0:0:
446,90,45421,5,6,0:0:0:0:
511,190,46171,1,4,0:0:0:0:
456,297,46921,2,0,P|407:322|356:320,1,100,12|8,0:0|3:0,0:0:0:0:
319,280,48046,1,8,3:0:0:0:
346,226,48421,70,0,L|349:122,1,100,6|10,0:1|0:1,0:0:0:0:
273,33,49921,1,6,2:0:0:0:
223,66,50296,2,0,P|181:74|120:59,1,100,2|2,0:0|0:0,0:0:0:0:
73,33,51421,2,0,B|53:62|53:62|61:128,1,100,6|10,0:0|0:1,0:0:0:0:
175,160,52921,2,0,B|195:189|195:189|187:255,1,100,6|10,0:0|0:1,0:0:0:0:
122,353,54421,5,6,0:1:0:0:
14,300,55171,1,10,0:1:0:0:
36,182,55921,2,0,L|85:187,1,50,6|2,0:0|0:0,0:0:0:0:
190,130,57046,1,2,0:0:0:0:
223,81,57421,2,0,P|273:77|320:94,1,100,6|10,0:0|0:1,0:0:0:0:
368,204,58921,2,0,P|417:207|464:190,1,100,8|6,0:0|0:2,0:0:0:0:
512,79,60421,37,6,0:1:0:0:
404,25,61171,2,0,L|347:21,1,50,10|0,0:0|0:0,0:0:0:0:
317,68,61921,2,0,L|260:72,1,50,6|0,0:0|0:0,0:0:0:0:
93,24,63421,5,6,0:0:0:0:
190,94,64171,2,0,L|194:153,1,50,10|0,0:0|0:0,0:0:0:0:
141,175,64921,2,0,L|137:234,1,50,2|0,0:0|0:0,0:0:0:0:
298,306,66421,1,6,0:0:0:0:
256,192,66796,12,0,69421,3:0:0:0:
342,248,70171,102,0,P|387:242|442:261,2,100,2|2|2,0:0|0:0|0:0,0:0:0:0:
249,324,72421,2,0,P|197:335|141:326,1,100,2|2,0:1|0:0,0:0:0:0:
60,250,73921,2,0,L|56:186,1,50,2|2,0:1|0:0,0:0:0:0:
106,165,74671,2,0,L|110:101,1,50,2|2,0:0|0:0,0:0:0:0:
77,64,75421,1,6,3:2:0:0:
256,192,75608,12,0,79546,0:0:0:0:
