osu file format v14

[General]
AudioFilename: audio.mp3
AudioLeadIn: 0
PreviewTime: 24500
Countdown: 0
SampleSet: Soft
StackLeniency: 0.7
Mode: 2
LetterboxInBreaks: 0
WidescreenStoryboard: 0

[Editor]
DistanceSpacing: 0.6
BeatDivisor: 4
GridSize: 8
TimelineZoom: 1

[Metadata]
Title:Futaba Town (Hiru)
TitleUnicode:フタバタウン (昼)
Artist:Sato Hitomi
ArtistUnicode:佐藤仁美
Creator:Daletto
Version:Cup
Source:ポケットモンスター ダイヤモンド・パール
Tags:pokemon diamond pearl platinum nintendo game freak creature inc. TPCi Junichin Masuda Gō Ichinose Morikazu Aoki Ken Sugimori twinleaf town ost wonjae
BeatmapID:2067901
BeatmapSetID:988577

[Difficulty]
HPDrainRate:3
CircleSize:3
OverallDifficulty:5
ApproachRate:5
SliderMultiplier:2.1
SliderTickRate:2

[Events]
//Background and Video events
0,0,"Twinleaf_Town_Pt_waifu2x_art_scale_tta_1_waifu2x_art_scale_tta_1.jpg",0,0
//Break Periods
//Storyboard Layer 0 (Background)
//Storyboard Layer 1 (Fail)
//Storyboard Layer 2 (Pass)
//Storyboard Layer 3 (Foreground)
//Storyboard Sound Samples

[TimingPoints]
547,750,4,2,1,40,1,0
24547,-100,4,2,1,30,0,0
48547,-100,4,2,1,35,0,0
60547,-100,4,2,1,40,0,0
67297,-100,4,2,1,30,0,0
68047,-100,4,2,1,20,0,0
68797,-100,4,2,1,30,0,0
70297,-100,4,2,1,20,0,0
71797,-100,4,2,1,15,0,0
72547,-100,4,2,1,25,0,0

[Colours]
Combo1 : 0,106,213
Combo2 : 0,170,0
Combo3 : 170,85,0

[HitObjects]
256,192,547,6,0,P|200:192|200:64,1,210,2|2,0:0|0:0,0:0:0:0:
400,160,2047,2,0,B|456:160|456:160|400:152,1,105,2|2,0:0|0:0,0:0:0:0:
240,152,3172,1,2,0:0:0:0:
120,152,3547,6,0,L|336:152,1,210,8|2,3:0|0:0,0:0:0:0:
208,152,4672,2,0,P|144:152|40:48,2,210,0|2|8,3:0|0:0|3:0,0:0:0:0:
360,160,6547,6,0,L|144:160,1,210,2|2,0:0|0:0,0:0:0:0:
280,152,8047,1,2,0:0:0:0:
368,152,8422,2,0,P|432:152|432:32,1,210,2|2,0:0|0:0,0:0:0:0:
304,160,9547,6,0,P|240:160|240:40,1,210,8|2,3:0|0:0,0:0:0:0:
376,112,10672,2,0,P|480:112|480:24,1,210,0|2,0:0|0:0,0:0:0:0:
376,112,11797,1,8,3:0:0:0:
192,192,12547,6,0,P|152:152|240:64,1,210,2|2,0:3|2:0,0:0:0:0:
448,160,14047,1,2,3:0:0:0:
336,160,14422,2,0,P|232:160|296:96,1,210,2|4,0:0|3:0,0:0:0:0:
384,176,15547,6,0,L|160:176,1,210,2|2,0:0|3:0,0:0:0:0:
360,168,17047,2,0,P|432:168|432:48,1,210,2|2,3:0|0:0,0:0:0:0:
312,200,18172,6,0,P|312:144|440:144,1,210,2|2,0:0|0:0,0:0:0:0:
304,176,19297,2,0,L|88:176,2,210,2|2|2,0:0|0:0|0:0,0:0:0:0:
160,192,21547,6,0,P|56:192|56:104,1,210,2|2,0:0|0:0,0:0:0:0:
272,192,23047,2,0,L|56:192,1,210,2|0,0:0|0:0,0:0:0:0:
336,224,24547,5,4,0:0:0:0:
240,168,24922,1,0,3:0:0:0:
240,168,25297,1,2,3:0:0:0:
344,224,25672,1,2,0:0:0:0:
208,184,26422,5,6,0:0:0:0:
296,184,26797,1,2,0:0:0:0:
384,184,27172,1,0,3:0:0:0:
232,184,27547,6,0,P|120:184|120:96,1,210,2|2,0:0|0:0,0:0:0:0:
232,160,28672,2,0,L|456:160,1,210,2|2,0:0|0:0,0:0:0:0:
200,192,30547,6,0,L|88:192,3,105,2|0|2|2,0:0|3:0|0:0|0:0,0:0:0:0:
320,176,32422,5,6,2:0:0:0:
224,176,32797,1,2,0:0:0:0:
128,176,33172,1,0,3:3:0:0:
280,176,33547,6,0,L|504:176,1,210,6|2,0:0|0:0,0:0:0:0:
336,192,34672,2,0,P|272:192|272:72,1,210,0|2,0:0|0:0,0:0:0:0:
376,184,35797,1,0,3:0:0:0:
376,184,36172,1,2,3:0:0:0:
264,192,36547,6,0,L|40:192,1,210,2|2,3:0|0:0,0:0:0:0:
176,168,37672,2,0,L|176:56,1,105,2|4,0:0|0:0,0:0:0:0:
64,192,38422,2,0,P|24:152|112:64,1,210,2|2,0:0|0:0,0:0:0:0:
240,192,39547,6,0,L|24:192,1,210,4|2,3:0|0:0,0:0:0:0:
152,152,40672,1,2,0:0:0:0:
64,152,41047,2,0,L|64:40,1,105,4|2,3:0|2:0,0:0:0:0:
160,152,41797,2,0,L|248:64,1,105,0|2,3:0|3:0,0:0:0:0:
104,192,42547,6,0,P|32:192|32:80,1,210,2|2,0:0|0:0,0:0:0:0:
136,136,43547,1,0,0:0:0:0:
216,136,43797,1,0,0:0:0:0:
296,136,44047,2,0,L|80:136,1,210,2|2,0:0|0:0,0:0:0:0:
336,192,45547,6,0,P|400:192|400:72,1,210,2|2,0:0|0:0,0:0:0:0:
208,184,47047,2,0,L|432:184,1,210,2|2,0:0|0:0,0:0:0:0:
336,184,48047,1,0,3:0:0:0:
336,184,48297,1,0,3:0:0:0:
416,184,48547,6,0,L|192:184,2,210,4|2|2,0:0|0:0|0:0,0:0:0:0:
288,168,50422,2,0,P|224:168|296:96,1,210,2|2,0:0|0:0,0:0:0:0:
424,160,51547,6,0,L|184:160,1,210,6|2,0:0|0:0,0:0:0:0:
344,136,53047,2,0,B|448:136|448:136|336:136,1,210,2|2,0:0|0:0,0:0:0:0:
104,160,54547,6,0,L|336:160,2,210,2|2|2,0:0|0:0|0:0,0:0:0:0:
216,168,56422,2,0,P|272:168|272:40,1,210,2|2,0:0|0:0,0:0:0:0:
136,144,57547,5,2,0:0:0:0:
352,144,58297,1,2,0:0:0:0:
136,152,59047,2,0,L|352:152,1,210,2|2,0:0|0:0,0:0:0:0:
136,168,60547,6,0,P|96:128|200:128,1,210,4|2,0:0|0:0,0:0:0:0:
288,120,61672,1,0,0:0:0:0:
200,120,62047,1,2,0:0:0:0:
112,120,62422,2,0,L|328:120,1,210,0|0,0:0|0:0,0:0:0:0:
184,192,63547,6,0,P|128:192|128:64,1,210,2|2,0:0|0:0,0:0:0:0:
232,168,64672,1,0,0:0:0:0:
320,168,65047,1,2,0:0:0:0:
408,168,65422,2,0,L|184:168,1,210,0|0,0:0|0:0,0:0:0:0:
352,168,66547,5,4,0:0:0:0:
256,192,66922,12,0,72547,0:0:0:0:
