osu file format v14

[General]
AudioFilename: audio.mp3
AudioLeadIn: 0
PreviewTime:388
Countdown: 0
SampleSet: Soft
StackLeniency: 0.7
Mode: 0
LetterboxInBreaks: 0
WidescreenStoryboard: 1

[Editor]
Bookmarks: 63643
DistanceSpacing: 1
BeatDivisor: 12
GridSize: 16
TimelineZoom: 3.499998

[Metadata]
Title:Eterna Forest
TitleUnicode:ハクタイのもり
Artist:Sato Hitomi
ArtistUnicode:佐藤仁美
Creator:Ascended
Version:Normal
Source:ポケットモンスター ブリリアントダイヤモンド・シャイニングパール
Tags:vgm video game videogame instrumental Hakutai no Mori 景山将太 Kageyama Shota 増田順一 Masuda Junichi pokemon pokémon pocket monsters brilliant diamond shining pearl bd sp bdsp platinum Sinnoh シンオウ地方 route 205 route205 gamefreak freak nintendo
BeatmapID:3889512
BeatmapSetID:1887871

[Difficulty]
HPDrainRate:4
CircleSize:3.5
OverallDifficulty:4
ApproachRate:5.5
SliderMultiplier:1.2
SliderTickRate:1

[Events]
//Background and Video events
0,0,"pocketto monster.jpg",0,0
//Break Periods
//Storyboard Layer 0 (Background)
//Storyboard Layer 1 (Fail)
//Storyboard Layer 2 (Pass)
//Storyboard Layer 3 (Foreground)
//Storyboard Layer 4 (Overlay)
//Storyboard Sound Samples

[TimingPoints]
487,789.473684210526,4,2,1,40,1,0
16276,789.473684210526,4,2,1,50,1,0
16276,-50,4,2,1,50,0,0
41539,394.736842105263,4,2,1,60,1,0
41539,-90.9090909090909,4,2,1,60,0,1
51012,789.473684210526,4,2,1,40,1,0
51012,-55.5555555555556,4,2,1,40,0,0
63643,-55.5555555555556,4,2,1,30,0,0

[Colours]
Combo1 : 250,180,240
Combo2 : 120,200,230
Combo3 : 255,230,130
Combo4 : 160,230,150

[HitObjects]
352,309,16276,6,0,B|400:262|463:287|463:287|475:326|512:335,2,180,0|0|0,1:0|1:0|0:0,0:0:0:0:
243,359,17854,2,0,P|210:352|175:347,1,59.9999999999999,2|0,0:0|0:0,0:0:0:0:
135,312,18249,2,0,P|102:319|67:324,2,59.9999999999999,2|2|0,0:0|0:0|0:0,0:0:0:0:
173,265,18841,2,0,P|177:228|260:200,1,120,2|2,0:0|0:0,0:0:0:0:
291,232,19433,5,2,0:0:0:0:
437,127,20026,2,0,P|470:134|505:139,2,59.9999999999999,2|0|2,0:0|0:0|0:0,0:0:0:0:
387,92,20618,1,0,0:0:0:0:
289,22,21012,2,0,P|256:29|221:34,1,59.9999999999999,0|2,0:0|0:0,0:0:0:0:
181,69,21407,2,0,P|148:62|113:57,2,59.9999999999999,2|0|0,0:0|0:0|0:0,0:0:0:0:
218,115,21999,2,0,P|232:181|242:251,1,120,2|0,0:0|0:0,0:0:0:0:
194,272,22591,6,0,B|97:286|130:335|33:352,2,180,0|0|0,1:2|1:0|0:0,0:0:0:0:
302,323,24170,2,0,P|309:290|314:255,1,59.9999999999999
349,215,24565,2,0,P|342:182|337:147,2,59.9999999999999,2|0|0,0:0|0:0|0:0,0:0:0:0:
401,244,25157,2,0,P|471:227|481:123,1,180,2|0,0:0|0:0,0:0:0:0:
393,54,26144,5,2,0:0:0:0:
277,70,26539,1,0,0:0:0:0:
277,70,26736,2,0,P|284:37|289:2,2,59.9999999999999,2|0|0,0:0|0:0|0:0,0:0:0:0:
258,127,27328,1,2,0:0:0:0:
195,295,27920,6,0,P|202:328|207:363,1,59.9999999999999,0|2,0:0|0:0,0:0:0:0:
151,380,28315,1,2,0:0:0:0:
113,203,28907,6,0,B|101:129|18:122|18:122|3:163,2,180,2|2|2,1:2|1:2|0:0,0:0:0:0:
175,222,30289,1,2,0:0:0:0:
175,222,30486,2,0,P|208:215|243:210,1,59.9999999999999,2|0,0:0|0:0,0:0:0:0:
287,239,30881,2,0,P|337:234|352:162,1,120,2|0,0:0|0:0,0:0:0:0:
329,122,31473,1,2,0:0:0:0:
269,17,31868,5,2,0:0:0:0:
269,17,32065,2,0,P|203:31|133:41,1,120,2|0,0:0|0:0,0:0:0:0:
96,13,32657,2,0,P|42:33|28:89,1,120,2|2,0:0|0:0,0:0:0:0:
53,144,33249,1,0,0:0:0:0:
3,253,33644,6,0,P|10:285|15:320,1,60,2|0,0:0|0:0,0:0:0:0:
26,375,34039,1,2,0:0:0:0:
26,375,34236,1,0,0:0:0:0:
135,322,34631,1,2,0:0:0:0:
135,322,34828,2,0,P|164:326|193:332,1,60,2|0,0:2|0:0,0:0:0:0:
257,342,35223,5,2,1:2:0:0:
257,342,35420,2,0,B|296:297|296:297|276:240,1,120,2|2,0:0|1:2,0:0:0:0:
224,129,36210,1,0,0:0:0:0:
224,129,36407,2,0,P|232:87|237:43,1,60,2|2,0:0|0:0,0:0:0:0:
281,32,36802,2,0,B|326:-7|326:-7|383:13,1,120,0|2,0:0|0:0,0:0:0:0:
425,55,37394,2,0,P|416:96|411:140,1,60
445,164,37789,1,2,0:0:0:0:
465,286,38183,5,0,0:0:0:0:
465,286,38381,2,0,P|435:290|406:297,1,60
350,320,38775,2,0,P|345:349|338:378,2,60,2|0|0,0:0|0:0|0:0,0:0:0:0:
305,279,39368,2,0,P|242:287|219:341,1,120,2|0,0:0|0:0,0:0:0:0:
172,371,39960,5,2,0:0:0:0:
54,344,40354,1,2,0:0:0:0:
86,231,40749,1,0,0:0:0:0:
86,231,40947,2,0,P|80:196|74:169,1,60,2|0,1:2|0:0,0:0:0:0:
63,40,41539,6,0,P|102:34|132:27,1,66.0000020141601,6|0,1:2|0:0,0:0:0:0:
185,61,41933,2,0,P|218:53|250:49,1,66.0000020141601,8|0,0:0|3:0,0:0:0:0:
303,10,42328,2,0,P|380:28|395:82,1,132.00000402832,2|10,0:0|0:0,0:0:0:0:
403,137,42920,5,0,0:0:0:0:
403,137,43117,2,0,P|370:141|338:148,1,66.0000020141601,2|0,1:2|0:0,0:0:0:0:
272,160,43512,1,8,0:2:0:0:
172,246,43907,2,0,P|140:239|108:235,2,66.0000020141601,2|2|8,0:0|1:2|0:0,0:0:0:0:
220,298,44499,5,0,0:0:0:0:
220,298,44696,2,0,P|286:293|315:237,1,132.00000402832,2|8,1:2|0:0,0:0:0:0:
380,219,45289,1,0,3:0:0:0:
380,219,45486,2,0,P|412:226|444:230,1,66.0000020141601,0|2,0:0|1:2,0:0:0:0:
507,208,45881,1,8,0:0:0:0:
444,92,46275,6,0,P|417:18|359:15,1,132.00000402832,0|8,1:2|0:0,0:0:0:0:
332,65,46867,1,0,3:0:0:0:
332,65,47065,2,0,P|299:69|267:76,1,66.0000020141601,0|0,0:0|1:0,0:0:0:0:
210,67,47460,5,8,0:0:0:0:
210,67,47657,1,0,0:0:0:0:
210,67,47854,2,0,P|202:34|198:2,2,66.0000020141601,4|2|8,1:2|3:2|0:0,0:0:0:0:
185,197,48644,2,0,P|152:189|120:185,1,66.0000020141601,0|2,0:0|1:2,0:0:0:0:
85,241,49039,2,0,P|20:216|10:146,1,132.00000402832,10|2,0:2|1:2,0:0:0:0:
59,120,49631,5,2,1:2:0:0:
59,120,49828,2,0,P|55:88|48:56,1,66.0000020141601,8|0,0:0|0:0,0:0:0:0:
105,19,50223,1,8,0:0:0:0:
105,19,50420,1,0,1:0:0:0:
105,19,50617,1,4,0:3:0:0:
205,59,51012,6,0,B|216:23|234:35|247:-9,2,71.9999978027344,6|2|2,0:0|0:0|0:0,0:0:0:0:
243,119,51801,2,0,B|254:154|272:142|285:187,2,71.9999978027344,2|2|2,0:0|0:0|0:0,0:0:0:0:
299,75,52590,2,0,P|355:74|388:121,1,107.999996704102,2|2,0:0|0:0,0:0:0:0:
483,168,53380,1,2,0:0:0:0:
483,168,53577,2,0,P|469:221|463:274,1,107.999996704102,2|0,0:0|0:0,0:0:0:0:
409,265,54169,6,0,B|397:229|379:241|367:196,2,71.9999978027344,2|2|2,0:0|0:0|0:0,0:0:0:0:
371,325,54958,2,0,B|359:360|341:348|329:393,2,71.9999978027344,2|2|2,0:0|0:0|0:0,0:0:0:0:
313,280,55748,2,0,P|259:266|206:260,1,107.999996704102,2|2,0:0|0:0,0:0:0:0:
134,187,56538,1,2,0:0:0:0:
134,187,56735,2,0,P|127:160|124:133,2,53.9999983520508,2|0|2,0:0|0:0|0:0,0:0:0:0:
94,223,57327,5,2,0:0:0:0:
17,298,57722,2,0,P|20:324|26:350,1,53.9999983520508,2|0,0:0|0:0,0:0:0:0:
75,375,58117,2,8,P|101:368|127:365,1,53.9999983520508,2|0,0:0|0:0,0:0:0:0:
162,323,58512,1,2,0:0:0:0:
268,303,58906,6,0,P|264:276|258:250,1,53.9999983520508,2|0,0:0|0:0,0:0:0:0:
235,201,59301,2,0,P|240:175|244:148,1,53.9999983520508,2|0,0:0|0:0,0:0:0:0:
287,114,59696,2,0,P|348:122|371:175,1,107.999996704102,2|2,0:0|0:0,0:0:0:0:
409,202,60288,1,2,0:0:0:0:
409,202,60485,2,0,P|493:161|481:90,1,161.999995056153,2|2,0:0|0:0,0:0:0:0:
230,27,62064,6,0,P|252:189|273:370,1,323.999990112305,2|0,0:0|0:0,0:0:0:0:
166,320,63643,1,2,0:0:0:0:
