osu file format v14

[General]
AudioFilename: audio.mp3
AudioLeadIn: 0
PreviewTime:388
Countdown: 0
SampleSet: Soft
StackLeniency: 0.7
Mode: 0
LetterboxInBreaks: 0
WidescreenStoryboard: 1

[Editor]
Bookmarks: 12921,63643
DistanceSpacing: 1.2
BeatDivisor: 16
GridSize: 16
TimelineZoom: 3.499998

[Metadata]
Title:Eterna Forest
TitleUnicode:ハクタイのもり
Artist:Sato Hitomi
ArtistUnicode:佐藤仁美
Creator:Ascended
Version:Insane
Source:ポケットモンスター ブリリアントダイヤモンド・シャイニングパール
Tags:vgm video game videogame instrumental Hakutai no Mori 景山将太 Kageyama Shota 増田順一 Masuda Junichi pokemon pokémon pocket monsters brilliant diamond shining pearl bd sp bdsp platinum Sinnoh シンオウ地方 route 205 route205 gamefreak freak nintendo
BeatmapID:3891104
BeatmapSetID:1887871

[Difficulty]
HPDrainRate:4.5
CircleSize:4.2
OverallDifficulty:8
ApproachRate:8
SliderMultiplier:2
SliderTickRate:1

[Events]
//Background and Video events
0,0,"pocketto monster.jpg",0,0
//Break Periods
//Storyboard Layer 0 (Background)
//Storyboard Layer 1 (Fail)
//Storyboard Layer 2 (Pass)
//Storyboard Layer 3 (Foreground)
//Storyboard Layer 4 (Overlay)
//Storyboard Sound Samples

[TimingPoints]
487,789.473684210526,4,2,1,40,1,0
487,-76.9230769230769,4,2,1,40,0,0
1079,-133.333333333333,4,2,1,40,0,0
3644,-76.9230769230769,4,2,1,40,0,0
4236,-133.333333333333,4,2,1,40,0,0
6605,-76.9230769230769,4,2,1,40,0,0
7197,-133.333333333333,4,2,1,40,0,0
9565,-133.333333333333,4,2,1,40,0,0
9763,-76.9230769230769,4,2,1,40,0,0
10355,-133.333333333333,4,2,1,40,0,0
12921,-76.9230769230769,4,2,1,40,0,0
13513,-133.333333333333,4,2,1,40,0,0
16276,789.473684210526,4,2,1,50,1,0
16276,-71.4285714285714,4,2,1,50,0,0
17460,-71.4285714285714,4,2,1,50,0,0
41539,394.736842105263,4,2,1,60,1,0
41539,-66.6666666666667,4,2,1,60,0,1
41933,-76.9230769230769,4,2,1,60,0,1
42328,-100,4,2,1,60,0,1
42525,-76.9230769230769,4,2,1,60,0,1
43117,-66.6666666666667,4,2,1,60,0,1
44696,-66.6666666666667,4,2,1,60,0,1
45091,-76.9230769230769,4,2,1,60,0,1
46275,-66.6666666666667,4,2,1,60,0,1
47854,-83.3333333333333,4,2,1,60,0,1
49828,-76.9230769230769,4,2,1,60,0,1
50617,-100,4,2,1,60,0,1
50667,-100,4,2,1,60,0,1
51012,789.473684210526,4,2,1,40,1,0
51012,-62.5,4,2,1,40,0,0
51801,-133.333333333333,4,2,1,40,0,0
54169,-62.5,4,2,1,40,0,0
54959,-133.333333333333,4,2,1,40,0,0
57327,-100,4,2,1,40,0,0
62064,-90.9090909090909,4,2,1,40,0,0
63643,-76.9230769230769,4,2,1,30,0,0

[Colours]
Combo1 : 250,180,240
Combo2 : 120,200,230
Combo3 : 255,230,130
Combo4 : 160,230,150

[HitObjects]
252,2,487,6,0,P|253:10|254:19,3,16.2499992561341,2|0|0|2,0:0|0:0|0:0|0:0,0:0:0:0:
286,100,1079,2,0,B|257:92|233:108|233:108|217:81|186:76,3,112.500004291535,2|2|2|0,0:0|0:0|0:0|0:0,0:0:0:0:
270,176,3644,6,0,P|269:184|269:193,3,16.2499992561341,2|0|0|2,0:0|0:0|0:0|0:0,0:0:0:0:
308,265,4236,2,0,P|342:272|374:340,1,112.500004291535,2|2,0:0|0:0,0:0:0:0:
157,384,5223,5,2,0:0:0:0:
157,384,5421,2,0,P|167:347|174:311,1,75.0000028610231,2|0,0:0|0:0,0:0:0:0:
121,243,6013,1,2,0:0:0:0:
121,243,6210,1,2,0:0:0:0:
255,271,6605,6,0,P|258:278|260:289,3,16.2499992561341,2|0|0|2,0:0|0:0|0:0|0:0,0:0:0:0:
383,375,7197,1,2,0:0:0:0:
383,375,7394,2,0,P|403:362|411:344,1,37.5000014305115,0|2,0:0|0:0,0:0:0:0:
502,353,7789,2,0,P|480:317|469:283,1,75.0000028610231,2|2,0:0|0:0,0:0:0:0:
506,207,8381,1,0,0:0:0:0:
506,207,8579,1,2,0:0:0:0:
419,171,8974,1,2,0:0:0:0:
419,171,9171,1,2,0:0:0:0:
355,237,9565,5,0,0:0:0:0:
355,237,9763,2,0,P|352:244|350:255,3,16.2499992561341,2|0|0|2,0:0|0:0|0:0|0:0,0:0:0:0:
258,169,10355,1,2,0:0:0:0:
258,169,10552,1,0,0:0:0:0:
258,169,10750,2,0,P|300:156|317:127,1,75.0000028610231
298,58,11342,1,0,0:0:0:0:
173,7,11736,5,0,0:0:0:0:
172,6,11934,2,0,P|182:42|189:78,1,75.0000028610231
102,85,12526,2,0,P|96:66|93:48,1,37.5000014305115
15,86,12921,6,0,P|18:93|20:104,3,16.2499992561341,2|0|0|2,0:0|0:0|0:0|0:0,0:0:0:0:
74,283,13513,2,0,B|118:266|103:243|168:225,1,112.500004291535,2|2,0:0|0:0,0:0:0:0:
236,290,14697,2,0,P|291:303|346:317,1,112.500004291535,2|2,0:0|0:0,0:0:0:0:
420,269,15684,1,2,0:0:0:0:
420,269,16276,6,0,B|439:256|439:256|493:282,2,69.9999978637696,0|0|0,1:0|0:0|0:0,0:0:0:0:
337,234,16868,2,0,B|336:210|336:210|385:176,2,69.9999978637696,0|0|0,1:0|3:0|3:0,3:0:0:0:
356,325,17460,2,0,P|359:342|366:360,2,34.9999989318848
206,282,17854,6,0,P|242:284|279:293,1,69.9999978637696,2|0,0:0|0:0,0:0:0:0:
279,296,18249,1,2,0:0:0:0:
125,238,18447,6,0,P|110:271|117:307,2,69.9999978637696,2|0|2,0:0|0:0|0:0,0:0:0:0:
168,168,19039,2,0,P|166:149|162:131,2,34.9999989318848,0|0|2,0:0|0:0|0:0,0:0:0:0:
72,41,19433,6,0,P|74:77|83:114,1,69.9999978637696,2|0,0:0|0:0,0:0:0:0:
253,175,19828,1,2,0:0:0:0:
253,175,20026,2,0,P|244:138|240:100,1,69.9999978637696,2|0,0:0|0:0,0:0:0:0:
157,53,20420,5,2,0:0:0:0:
230,11,20618,1,0,0:0:0:0:
230,11,20716,1,0,0:0:0:0:
230,11,20815,1,0,0:0:0:0:
310,28,21012,1,0,0:0:0:0:
326,109,21210,5,2,0:0:0:0:
326,109,21407,2,0,P|352:120|362:173,2,69.9999978637696,2|0|0,0:0|0:0|0:0,0:0:0:0:
450,167,21999,2,0,P|453:195|412:230,2,69.9999978637696,2|0|0,0:0|0:0|0:0,0:0:0:0:
261,281,22591,6,0,B|249:275|249:275|195:294,2,69.9999978637696,0|0|0,1:2|0:0|0:0,0:0:0:0:
338,251,23183,2,0,B|336:238|336:238|293:201,2,69.9999978637696,0|0|0,1:0|0:0|0:0,0:0:0:0:
325,332,23775,2,0,P|318:348|315:365,2,34.9999989318848,0|0|2,0:0|0:0|0:0,0:0:0:0:
471,283,24170,6,0,P|436:297|391:304,1,69.9999978637696
501,366,24565,2,0,P|462:373|427:387,2,69.9999978637696,2|0|0,0:0|0:0|0:0,0:0:0:0:
411,210,25157,5,2,0:0:0:0:
450,137,25354,1,0,0:0:0:0:
450,137,25453,1,0,0:0:0:0:
450,137,25552,2,0,P|473:146|489:189,2,69.9999978637696
384,59,26144,5,2,0:0:0:0:
304,63,26341,1,0,0:0:0:0:
254,124,26539,1,0,0:0:0:0:
268,201,26736,1,2,0:0:0:0:
206,266,26933,1,0,0:0:0:0:
206,266,27032,1,0,0:0:0:0:
206,266,27131,1,0,0:0:0:0:
129,223,27328,6,0,P|94:230|60:232,1,69.9999978637696,2|0,0:0|0:0,0:0:0:0:
11,301,27723,2,0,P|18:335|20:369,1,69.9999978637696
111,314,28118,1,2,0:0:0:0:
111,314,28315,1,2,0:0:0:0:
197,372,28512,1,0,0:0:0:0:
197,372,28611,1,0,0:0:0:0:
197,372,28710,1,0,0:0:0:0:
336,291,28907,6,0,B|365:270|365:270|361:234,1,69.9999978637696,2|0,1:2|0:0,0:0:0:0:
340,295,29302,1,0,0:0:0:0:
279,232,29499,6,0,B|275:196|275:196|242:181,1,69.9999978637696,2|0,1:2|0:0,0:0:0:0:
283,236,29894,1,0,0:0:0:0:
203,261,30091,5,2,0:0:0:0:
203,261,30190,1,0,0:0:0:0:
203,261,30289,1,2,0:0:0:0:
124,218,30486,2,0,P|89:210|53:204,1,69.9999978637696,2|0,0:0|0:0,0:0:0:0:
26,124,30881,5,2,0:0:0:0:
26,124,31078,1,0,0:0:0:0:
90,64,31275,1,0,0:0:0:0:
170,80,31473,1,2,0:0:0:0:
170,80,31670,2,0,P|167:62|163:45,2,34.9999989318848,0|0|2,0:0|0:0|0:0,0:0:0:0:
268,0,32065,6,0,P|296:5|327:48,2,69.9999978637696,2|0|0,0:0|0:0|0:0,0:0:0:0:
252,80,32657,2,0,P|246:114|238:148,1,69.9999978637696,2|0,0:0|0:0,0:0:0:0:
262,222,33052,1,2,0:0:0:0:
189,253,33249,1,0,0:0:0:0:
189,253,33348,1,0,0:0:0:0:
189,253,33446,1,2,0:0:0:0:
229,323,33644,5,2,0:0:0:0:
349,210,33841,2,0,P|340:244|334:278,1,69.9999978637696,0|2,0:0|0:0,0:0:0:0:
324,368,34236,1,0,0:0:0:0:
324,368,34335,1,0,0:0:0:0:
324,368,34433,1,2,0:0:0:0:
431,267,34631,5,2,0:0:0:0:
356,127,34828,6,0,P|352:109|347:92,1,34.9999989318848,2|0,0:2|0:0,0:0:0:0:
360,131,35025,1,0,0:0:0:0:
511,30,35223,6,0,P|506:47|503:64,1,34.9999989318848,2|0,1:2|0:0,0:0:0:0:
423,68,35420,2,0,P|431:33|437:0,1,69.9999978637696,2|0,0:0|0:0,0:0:0:0:
442,153,35815,2,0,P|477:145|510:139,2,69.9999978637696,2|0|0,1:2|0:0|0:0,0:0:0:0:
309,196,36407,5,2,0:0:0:0:
309,196,36506,1,0,0:0:0:0:
309,196,36604,1,2,0:0:0:0:
163,105,36802,1,0,0:0:0:0:
163,105,36999,1,2,0:0:0:0:
238,49,37197,6,0,P|244:83|252:117,2,69.9999978637696,2|0|0,0:0|0:0|0:0,0:0:0:0:
192,194,37789,2,0,P|157:185|123:179,1,69.9999978637696,2|0,0:0|0:0,0:0:0:0:
82,189,38085,1,0,0:0:0:0:
82,189,38183,1,0,0:0:0:0:
178,275,38381,2,0,P|143:268|109:260,1,69.9999978637696
4,140,38775,6,0,P|17:108|49:94,2,70,2|0|0,0:0|0:0|0:0,0:0:0:0:
37,12,39368,2,0,P|71:8|98:28,2,70,2|0|0,0:0|0:0|0:0,0:0:0:0:
136,113,39960,5,2,0:0:0:0:
136,113,40157,1,0,0:0:0:0:
214,128,40354,5,2,0:0:0:0:
235,133,40552,1,0,0:0:0:0:
267,16,40749,5,0,0:0:0:0:
183,36,40947,1,2,1:2:0:0:
351,69,41144,5,0,0:0:0:0:
351,69,41243,1,0,0:0:0:0:
351,69,41342,1,0,0:0:0:0:
422,0,41539,6,0,P|486:13|510:95,1,150.000005722046,6|0,1:2|0:0,0:0:0:0:
455,139,41835,1,0,3:2:0:0:
455,139,41933,2,0,P|414:144|326:165,1,129.999994049073,8|0,0:0|3:0,0:0:0:0:
49,74,42328,6,0,P|56:51|60:26,1,50,2|0,0:0|0:0,0:0:0:0:
53,78,42525,1,0,1:0:0:0:
219,124,42723,1,10,0:0:0:0:
212,145,42821,1,0,1:0:0:0:
209,167,42920,1,0,0:0:0:0:
220,36,43117,6,0,P|156:49|132:131,1,150.000005722046,2|0,1:2|0:0,0:0:0:0:
65,157,43413,1,0,3:0:0:0:
109,214,43511,2,0,P|125:276|141:371,1,150.000005722046,8|0,0:2|3:0,0:0:0:0:
315,306,43907,6,0,P|304:267|268:247,1,75.0000028610231,2|0,0:0|0:0,0:0:0:0:
201,256,44104,1,2,1:2:0:0:
56,306,44302,1,8,0:0:0:0:
44,306,44400,1,0,1:0:0:0:
50,296,44499,1,0,0:0:0:0:
226,187,44696,6,0,P|231:139|256:38,1,150.000005722046,2|0,1:2|0:0,0:0:0:0:
328,6,44992,1,0,3:0:0:0:
328,6,45091,2,0,P|385:17|407:91,1,129.999994049073,8|0,0:0|3:0,0:0:0:0:
509,171,45486,6,0,P|475:181|461:211,1,64.9999970245363
512,174,45683,1,2,1:2:0:0:
297,322,45881,1,8,0:0:0:0:
276,299,45979,1,0,1:0:0:0:
285,273,46078,1,0,0:0:0:0:
512,307,46275,6,0,P|440:290|365:277,1,150.000005722046,0|0,1:2|0:0,0:0:0:0:
387,148,46571,1,0,3:0:0:0:
332,200,46670,2,0,P|257:187|185:170,1,150.000005722046,8|0,0:0|3:0,0:0:0:0:
100,225,46966,1,0,0:0:0:0:
100,225,47065,2,0,P|21:201|9:133,1,150.000005722046,0|0,0:0|1:0,0:0:0:0:
22,24,47460,1,8,0:0:0:0:
22,12,47558,1,0,1:0:0:0:
12,18,47657,1,0,0:0:0:0:
108,138,47854,6,0,P|103:109|97:80,1,59.9999981689454,4|0,1:2|0:0,0:0:0:0:
185,170,48052,2,0,P|195:142|204:114,1,59.9999981689454,2|0,3:2|0:0,0:0:0:0:
169,32,48249,5,8,0:0:0:0:
169,32,48348,1,0,3:0:0:0:
291,96,48545,5,8,0:0:0:0:
291,96,48644,1,0,0:0:0:0:
359,179,48841,5,2,1:2:0:0:
404,277,49039,5,10,0:2:0:0:
404,277,49137,2,0,P|346:293|332:352,1,119.999996337891,0|8,1:0|0:0,0:0:0:0:
405,379,49433,1,2,1:2:0:0:
417,372,49532,1,0,0:0:0:0:
412,354,49631,1,2,1:2:0:0:
489,308,49828,5,8,0:0:0:0:
489,308,49927,1,8,0:0:0:0:
489,212,50124,5,8,0:0:0:0:
469,214,50223,1,8,0:0:0:0:
481,103,50420,5,0,1:0:0:0:
345,66,50617,6,0,P|303:58|247:44,1,100,4|4,0:3|0:3,0:0:0:0:
177,55,50914,1,4,0:3:0:0:
150,31,51012,6,0,B|117:2|79:16|79:16|72:31|50:38,2,106.666666666667,6|2|2,0:0|0:0|0:0,0:0:0:0:
117,162,51801,5,2,0:0:0:0:
117,162,52064,2,0,P|113:137|104:101,1,50.0000019073487,2|2,0:0|0:0,0:0:0:0:
29,149,52590,1,2,0:0:0:0:
29,149,52985,2,0,P|36:201|48:243,1,75.0000028610231,2|2,0:0|0:0,0:0:0:0:
118,274,53577,2,0,P|137:254|186:254,1,75.0000028610231,2|0,0:0|0:0,0:0:0:0:
269,230,54169,6,0,B|240:197|254:159|254:159|269:152|276:130,2,106.666666666667,2|2|2,0:0|0:0|0:0,0:0:0:0:
298,315,54958,5,2,0:0:0:0:
298,315,55222,2,0,P|325:319|356:328,1,50.0000019073487,2|2,0:0|0:0,0:0:0:0:
430,375,55748,1,2,0:0:0:0:
430,375,56142,2,0,P|463:356|467:318,1,75.0000028610231,2|2,0:0|0:0,0:0:0:0:
411,254,56735,2,0,P|404:216|402:170,1,75.0000028610231,2|0,0:0|0:0,0:0:0:0:
449,29,57327,5,2,0:0:0:0:
449,29,57426,1,0,0:0:0:0:
449,29,57525,2,0,P|436:26|424:23,1,25
362,68,57722,1,2,0:0:0:0:
344,72,57821,1,0,0:0:0:0:
325,75,57919,1,0,0:0:0:0:
307,79,58018,1,0,0:0:0:0:
289,60,58117,6,8,P|291:47|294:35,3,25,2|0|0|0,0:0|0:0|0:0|0:0,0:0:0:0:
225,108,58512,2,8,P|227:120|230:132,3,25,2|0|0|0,0:0|0:0|0:0|0:0,0:0:0:0:
143,84,58906,5,2,0:0:0:0:
114,82,59005,1,0,0:0:0:0:
91,97,59103,1,0,0:0:0:0:
82,124,59202,1,0,0:0:0:0:
48,148,59301,5,2,0:0:0:0:
32,172,59399,1,0,0:0:0:0:
35,200,59498,1,0,0:0:0:0:
53,220,59598,1,0,0:0:0:0:
78,230,59696,6,0,P|90:232|102:235,3,25,2|0|0|0,0:0|0:0|0:0|0:0,0:0:0:0:
173,207,60090,5,2,0:0:0:0:
216,208,60189,1,2,0:0:0:0:
253,230,60288,1,2,0:0:0:0:
265,280,60387,1,2,0:0:0:0:
243,324,60485,6,0,B|183:332|201:353|146:364,1,100,2|0,0:0|0:0,0:0:0:0:
344,331,61077,6,0,P|341:351|338:366,5,25,2|0|0|0|0|0,0:0|0:0|0:0|0:0|0:0|0:0,0:0:0:0:
368,310,61669,5,2,0:0:0:0:
363,285,61767,1,0,0:0:0:0:
358,260,61866,1,0,0:0:0:0:
354,236,61965,1,0,0:0:0:0:
366,209,62064,2,0,P|429:201|474:298,1,165.000005035401,2|0,0:0|0:0,0:0:0:0:
283,176,62854,5,2,0:0:0:0:
279,152,62952,1,0,0:0:0:0:
282,128,63051,1,0,0:0:0:0:
292,106,63150,1,0,0:0:0:0:
308,89,63248,1,0,0:0:0:0:
329,77,63347,1,0,0:0:0:0:
352,71,63446,1,0,0:0:0:0:
376,73,63544,1,0,0:0:0:0:
398,82,63643,6,0,P|405:79|414:77,3,16.2499992561341,2|0|4|2,0:0|0:0|0:0|0:0,0:0:0:0:
