osu file format v14

[General]
AudioFilename: audio.mp3
AudioLeadIn: 0
PreviewTime:388
Countdown: 0
SampleSet: Soft
StackLeniency: 0.7
Mode: 0
LetterboxInBreaks: 0
WidescreenStoryboard: 1

[Editor]
Bookmarks: 63643
DistanceSpacing: 1
BeatDivisor: 8
GridSize: 16
TimelineZoom: 3.499998

[Metadata]
Title:Eterna Forest
TitleUnicode:ハクタイのもり
Artist:Sato Hitomi
ArtistUnicode:佐藤仁美
Creator:Ascended
Version:Hard
Source:ポケットモンスター ブリリアントダイヤモンド・シャイニングパール
Tags:vgm video game videogame instrumental Hakutai no Mori 景山将太 Kageyama Shota 増田順一 Masuda Junichi pokemon pokémon pocket monsters brilliant diamond shining pearl bd sp bdsp platinum Sinnoh シンオウ地方 route 205 route205 gamefreak freak nintendo
BeatmapID:3891000
BeatmapSetID:1887871

[Difficulty]
HPDrainRate:4.2
CircleSize:3.8
OverallDifficulty:6
ApproachRate:7.5
SliderMultiplier:1.4
SliderTickRate:1

[Events]
//Background and Video events
0,0,"pocketto monster.jpg",0,0
//Break Periods
//Storyboard Layer 0 (Background)
//Storyboard Layer 1 (Fail)
//Storyboard Layer 2 (Pass)
//Storyboard Layer 3 (Foreground)
//Storyboard Layer 4 (Overlay)
//Storyboard Sound Samples

[TimingPoints]
487,789.473684210526,4,2,1,40,1,0
16276,789.473684210526,4,2,1,50,1,0
16276,-50,4,2,1,50,0,0
41539,394.736842105263,4,2,1,60,1,0
41539,-83.3333333333333,4,2,1,60,0,1
46275,-76.9230769230769,4,2,1,60,0,1
47854,-83.3333333333333,4,2,1,60,0,1
49828,-76.9230769230769,4,2,1,60,0,1
50617,-100,4,2,1,60,0,1
50667,-100,4,2,1,60,0,1
51012,789.473684210526,4,2,1,40,1,0
51012,-62.5,4,2,1,40,0,0
63643,-55.5555555555556,4,2,1,30,0,0

[Colours]
Combo1 : 250,180,240
Combo2 : 120,200,230
Combo3 : 255,230,130
Combo4 : 160,230,150

[HitObjects]
28,153,16276,6,0,P|-2:86|0:19,1,140,0|0,1:0|0:0,0:0:0:0:
85,2,16868,2,0,P|114:67|112:134,1,140,0|0,1:0|3:0,3:0:0:0:
85,216,17460,2,0,P|89:235|91:253,2,35
181,218,17854,5,2,0:0:0:0:
181,218,18052,1,0,0:0:0:0:
181,218,18249,2,0,P|219:214|267:298,1,140,2|0,0:0|0:0,0:0:0:0:
345,350,18841,1,2,0:0:0:0:
345,350,19039,2,0,P|341:369|339:387,2,35,0|0|2,0:0|0:0|0:0,0:0:0:0:
435,327,19433,6,0,P|443:257|458:189,1,140,2|2,0:0|0:0,0:0:0:0:
512,117,20026,2,0,P|507:82|500:48,1,70,2|0,0:0|0:0,0:0:0:0:
429,0,20420,2,0,P|391:10|367:51,1,70,2|0,0:0|0:0,0:0:0:0:
345,54,20716,1,0,0:0:0:0:
345,54,20815,2,0,P|352:88|357:129,1,70
314,210,21210,5,2,0:0:0:0:
314,210,21407,2,0,P|235:191|226:125,1,140,2|0,0:0|0:0,0:0:0:0:
243,54,21999,1,2,0:0:0:0:
73,214,22591,6,0,B|40:234|9:230|9:230|29:262|26:308,1,140,0|0,1:2|0:0,0:0:0:0:
119,294,23183,2,0,B|119:332|100:357|100:357|138:356|176:381,1,140,0|0,1:0|0:0,0:0:0:0:
213,297,23775,2,0,P|209:278|207:260,2,35,0|0|2,0:0|0:0|0:0,0:0:0:0:
294,338,24170,6,0,P|332:330|368:326,1,70
435,271,24565,2,0,P|471:286|487:320,2,70,2|0|0,0:0|0:0|0:0,0:0:0:0:
409,182,25157,1,2,0:0:0:0:
409,182,25354,2,0,P|413:163|415:145,2,35
180,219,26144,6,0,P|187:185|215:164,2,70,2|0|0,0:0|0:0|0:0,0:0:0:0:
125,290,26736,2,0,P|100:266|95:232,2,70,2|0|0,0:0|0:0|0:0,0:0:0:0:
173,368,27328,2,0,P|231:323|303:315,1,140,2|0,0:0|0:0,0:0:0:0:
366,378,27920,5,0,0:0:0:0:
366,378,28118,2,0,P|391:350|389:316,1,70,2|2,0:0|0:0,0:0:0:0:
344,241,28512,2,0,P|340:222|338:204,2,35
244,226,28907,6,0,B|172:209|204:168|125:149,1,140,2|0,1:2|0:0,0:0:0:0:
40,145,29499,2,0,B|112:128|80:87|159:68,1,140,2|0,1:2|0:0,0:0:0:0:
242,67,30091,2,0,P|240:84|237:102,2,35,2|0|2,0:0|0:0|0:0,0:0:0:0:
325,17,30486,5,2,0:0:0:0:
325,17,30683,1,0,0:0:0:0:
325,17,30881,2,0,P|396:48|409:113,1,140,2|0,0:0|0:0,0:0:0:0:
477,171,31473,1,2,0:0:0:0:
477,171,31670,2,0,P|494:167|511:165,2,35,0|0|2,0:0|0:0|0:0,0:0:0:0:
417,247,32065,6,0,P|348:232|279:223,1,140,2|0,0:0|0:0,0:0:0:0:
203,180,32657,2,0,B|135:157|135:157|83:208,1,140,2|2,0:0|0:0,0:0:0:0:
31,280,33249,2,0,P|34:297|36:314,2,35,0|0|2,0:0|0:0|0:0,0:0:0:0:
133,290,33644,5,2,0:0:0:0:
133,290,33841,1,0,0:0:0:0:
133,290,34039,2,0,P|170:307|183:349,1,70,2|0,0:0|0:0,0:0:0:0:
341,369,34631,1,2,0:0:0:0:
321,280,34828,1,2,0:2:0:0:
321,280,35025,1,0,0:0:0:0:
234,233,35223,5,2,1:2:0:0:
234,233,35420,2,0,P|252:168|324:150,1,140,2|2,0:0|1:2,0:0:0:0:
384,212,36012,2,0,P|418:216|455:222,1,70
512,156,36407,5,2,0:0:0:0:
512,156,36506,1,0,0:0:0:0:
512,156,36604,2,0,P|494:91|422:73,1,140,2|2,0:0|0:0,0:0:0:0:
340,68,37197,6,0,P|332:33|328:0,2,70,2|0|0,0:0|0:0|0:0,0:0:0:0:
244,51,37789,2,0,P|174:41|106:27,1,140,2|0,0:0|0:0,0:0:0:0:
16,7,38381,1,0,0:0:0:0:
59,162,38775,6,0,P|28:178|15:209,2,70,2|0|0,0:0|0:0|0:0,0:0:0:0:
99,240,39367,2,0,P|98:276|119:302,2,70,2|0|0,0:0|0:0|0:0,0:0:0:0:
154,171,39960,2,0,P|223:180|243:255,1,140,2|2,0:0|0:0,0:0:0:0:
330,198,40552,2,0,P|363:189|398:186,1,70
482,215,40947,1,2,1:2:0:0:
230,352,41539,6,0,P|225:309|216:269,1,83.9999974365235,6|0,1:2|0:0,0:0:0:0:
246,239,41835,1,0,3:2:0:0:
246,239,41933,2,0,P|237:197|232:156,1,83.9999974365235,8|0,0:0|3:0,0:0:0:0:
186,79,42328,2,0,P|144:80|114:108,1,83.9999974365235,2|0,0:0|1:0,0:0:0:0:
28,76,42723,1,10,0:0:0:0:
28,76,42821,1,0,1:0:0:0:
28,76,42920,1,0,0:0:0:0:
0,157,43117,6,0,P|11:200|20:244,1,83.9999974365235,2|0,1:2|0:0,0:0:0:0:
29,284,43414,1,0,3:0:0:0:
29,284,43512,2,0,P|73:293|117:305,1,83.9999974365235,8|0,0:2|3:0,0:0:0:0:
184,374,43907,1,2,0:0:0:0:
184,374,44104,1,2,1:2:0:0:
277,347,44302,2,0,P|271:320|264:294,1,41.9999987182618,8|0,0:0|1:0,0:0:0:0:
255,251,44499,1,0,0:0:0:0:
196,167,44696,6,0,P|217:127|253:120,1,83.9999974365235,2|0,1:2|0:0,0:0:0:0:
291,102,44992,1,0,3:0:0:0:
291,102,45091,2,0,P|331:123|338:159,1,83.9999974365235,8|0,0:0|3:0,0:0:0:0:
415,228,45486,1,0,0:0:0:0:
415,228,45683,2,0,P|403:271|394:312,1,83.9999974365235,2|8,1:2|0:0,3:0:0:0:
386,351,45979,1,0,1:0:0:0:
297,303,46275,6,0,P|251:300|225:341,1,90.9999958343508,0|0,1:2|0:0,0:0:0:0:
187,357,46571,1,0,3:0:0:0:
187,357,46670,2,0,P|141:359|115:318,1,90.9999958343508,8|0,0:0|3:0,0:0:0:0:
173,245,47065,2,0,P|187:191|198:141,1,90.9999958343508,0|0,0:0|1:0,0:0:0:0:
247,76,47460,1,8,0:0:0:0:
247,76,47558,1,0,1:0:0:0:
247,76,47657,1,0,0:0:0:0:
149,14,47854,6,0,P|95:28|52:37,1,83.9999974365235,4|2,1:2|3:2,0:0:0:0:
8,127,48249,1,8,0:0:0:0:
8,127,48348,2,0,P|69:143|83:172,1,83.9999974365235,0|8,3:0|0:0,0:0:0:0:
84,199,48644,1,0,0:0:0:0:
43,291,48841,1,2,1:2:0:0:
43,291,49039,2,0,P|70:297|96:304,1,41.9999987182618,10|0,0:2|1:0,0:0:0:0:
118,317,49236,5,0,0:0:0:0:
118,317,49335,1,8,0:0:0:0:
118,317,49433,2,0,P|124:344|131:370,2,41.9999987182618,2|0|2,1:2|0:0|1:2,0:0:0:0:
213,331,49828,1,8,0:0:0:0:
213,331,49927,2,0,P|246:296|239:256,1,90.9999958343508,8|8,0:0|0:0,0:0:0:0:
214,218,50223,1,8,0:0:0:0:
284,166,50420,5,0,1:0:0:0:
359,208,50617,2,0,P|400:218|439:228,1,70,4|4,0:3|0:3,0:0:0:0:
443,195,50914,5,4,0:3:0:0:
443,195,51012,2,0,B|473:170|473:170|523:188,2,74.6666666666667,6|2|2,0:0|0:0|0:0,0:0:0:0:
401,108,51801,2,0,B|394:69|394:69|434:35,2,74.6666666666667,2|2|2,0:0|0:0|0:0,0:0:0:0:
319,160,52590,2,0,P|252:174|192:188,1,112,2|2,0:0|0:0,0:0:0:0:
57,109,53380,1,2,0:0:0:0:
57,109,53577,2,0,P|78:50|133:50,1,112,2|0,0:0|0:0,0:0:0:0:
197,99,54169,6,0,B|222:69|222:69|209:35,2,74.6666666666667,2|2|2,0:0|0:0|0:0,0:0:0:0:
209,183,54958,2,0,B|247:189|247:189|270:161,2,74.6666666666667,2|2|2,0:0|0:0|0:0,0:0:0:0:
125,196,55748,2,0,P|137:250|148:305,1,112,2|2,0:0|0:0,0:0:0:0:
303,384,56538,1,2,0:0:0:0:
303,384,56735,2,0,P|362:363|362:308,1,112,2|0,0:0|0:0,0:0:0:0:
279,295,57327,5,2,0:0:0:0:
251,133,57722,2,0,P|249:118|246:101,3,28,2|0|0|0,0:0|0:0|0:0|0:0,0:0:0:0:
263,82,58117,2,8,P|313:80|342:140,1,112,2|2,0:0|0:0,0:0:0:0:
438,93,58709,5,0,0:0:0:0:
438,93,58906,2,0,P|440:106|442:120,3,28,2|0|0|0,0:0|0:0|0:0|0:0,0:0:0:0:
462,140,59301,2,0,P|459:153|457:167,3,28,2|0|0|0,0:0|0:0|0:0|0:0,0:0:0:0:
447,193,59696,2,0,P|449:206|451:220,3,28,2|0|0|0,0:0|0:0|0:0|0:0,0:0:0:0:
467,243,60090,5,2,0:0:0:0:
466,250,60189,1,2,0:0:0:0:
464,259,60288,1,2,0:0:0:0:
463,267,60387,1,2,0:0:0:0:
461,278,60485,2,0,B|392:290|426:321|357:332,1,112,2|0,0:0|0:0,0:0:0:0:
280,367,61077,6,0,P|277:354|275:340,5,28,2|0|0|0|0|0,0:0|0:0|0:0|0:0|0:0|0:0,0:0:0:0:
265,314,61669,2,0,P|267:301|269:287,3,28,2|0|0|0,0:0|0:0|0:0|0:0,0:0:0:0:
253,262,62064,2,0,B|153:278|187:322|99:336,1,168,2|0,0:0|0:0,0:0:0:0:
25,288,62854,2,0,P|23:275|21:261,4,28,2|0|0|0|0,0:0|0:0|0:0|0:0|0:0,0:0:0:0:
157,178,63643,1,2,0:0:0:0:
