osu file format v14

[General]
AudioFilename: audio.mp3
AudioLeadIn: 0
PreviewTime: 63701
Countdown: 0
SampleSet: Soft
StackLeniency: 0.7
Mode: 0
LetterboxInBreaks: 0
WidescreenStoryboard: 0

[Editor]
DistanceSpacing: 2
BeatDivisor: 8
GridSize: 16
TimelineZoom: 2.2

[Metadata]
Title:hakushu kassai utaawase
TitleUnicode:拍手喝采歌合
Artist:Sati Akura
ArtistUnicode:Sati Akura
Creator:-Rmdy
Version:Insane
Source:刀語
Tags:katanagatari op opening ryo koeda russian short cut tv edit size supercell русский cover TheMefisto
BeatmapID:1397880
BeatmapSetID:660130

[Difficulty]
HPDrainRate:6
CircleSize:3
OverallDifficulty:8
ApproachRate:9
SliderMultiplier:1.65
SliderTickRate:1

[Events]
//Background and Video events
0,0,"katanagatari.jpg",0,0
//Break Periods
//Storyboard Layer 0 (Background)
//Storyboard Layer 1 (Fail)
//Storyboard Layer 2 (Pass)
//Storyboard Layer 3 (Foreground)
//Storyboard Sound Samples

[TimingPoints]
1941,571.428571428571,4,2,1,30,1,0
1941,-166.666666666667,4,2,1,30,0,0
2798,-166.666666666667,4,2,1,15,0,0
3083,594.059405940594,4,2,1,30,1,0
3083,-166.666666666667,4,2,1,30,0,0
3974,-166.666666666667,4,2,1,15,0,0
4271,600,4,2,1,30,1,0
4271,-133.333333333333,4,2,1,30,0,0
6071,588.235294117647,4,2,1,30,1,0
6071,-133.333333333333,4,2,1,30,0,0
6659,612.244897959184,4,2,1,30,1,0
6659,-133.333333333333,4,2,1,30,0,0
7883,594.059405940594,4,2,1,30,1,0
8477,612.244897959184,4,2,1,30,1,0
8477,-133.333333333333,4,2,1,30,0,0
9701,566.037735849057,4,2,1,30,1,0
9701,-133.333333333333,4,2,1,30,0,0
9984,659.340659340659,4,2,1,30,1,0
9984,-133.333333333333,4,2,1,30,0,0
10313,582.52427184466,4,2,1,30,1,0
10313,-133.333333333333,4,2,1,30,0,0
11186,612.244897959184,4,2,1,30,1,0
11186,-133.333333333333,4,2,1,30,0,0
13252,639.658848614073,4,2,1,30,1,0
13252,-133.333333333333,4,2,1,30,0,0
13935,540.540540540541,4,2,1,30,1,0
13935,-133.333333333333,4,2,1,30,0,0
14475,612.244897959184,4,2,1,30,1,0
14475,-133.333333333333,4,2,1,30,0,0
14781,645.161290322581,4,2,1,30,1,0
14781,-133.333333333333,4,2,1,30,0,0
15103,612.244897959184,4,2,1,30,1,0
15103,-133.333333333333,4,2,1,30,0,0
17517,666.666666666667,4,2,1,30,1,0
17517,-133.333333333333,4,2,1,30,0,0
18850,725.513905683192,4,2,1,30,1,0
18850,-133.333333333333,4,2,1,30,0,0
19575,357.142857142857,4,2,1,30,1,0
19932,419.58041958042,4,2,1,30,1,0
20351,759.493670886076,4,2,1,30,1,0
20351,-133.333333333333,4,2,1,30,0,0
21110,370.37037037037,4,2,1,30,1,0
21480,468.75,4,2,1,30,1,0
21948,1081.08108108108,4,2,1,30,1,0
21948,-133.333333333333,4,2,1,30,0,0
22758,-133.333333333333,4,2,1,5,0,0
23029,1006.71140939597,4,2,1,30,1,0
23029,-200,4,2,1,30,0,0
25042,-200,4,2,1,5,0,0
25671,-200,4,2,1,10,0,0
25797,-200,4,2,1,14,0,0
25923,-200,4,2,1,18,0,0
26049,-200,4,2,1,22,0,0
26174,-200,4,2,1,26,0,0
26300,-200,4,2,1,30,0,0
26426,-200,4,2,1,34,0,0
26552,-200,4,2,1,38,0,0
26678,-200,4,2,1,42,0,0
26804,-200,4,2,1,46,0,0
26930,-200,4,2,1,5,0,0
27055,359.281437125748,4,2,1,50,1,1
27055,-80,4,2,1,50,0,1
32084,-80,4,2,1,18,0,1
32174,-80,4,2,1,22,0,1
32264,-80,4,2,1,26,0,1
32354,-80,4,2,1,30,0,1
32444,-80,4,2,1,34,0,1
32534,-80,4,2,1,38,0,1
32623,-80,4,2,1,42,0,1
32713,-80,4,2,1,46,0,1
32803,-80,4,2,1,50,0,1
38552,-117.647058823529,4,2,1,30,0,0
39989,-166.666666666667,4,2,1,30,0,0
40707,-166.666666666667,4,2,1,15,0,0
41066,-117.647058823529,4,2,1,30,0,0
41336,-117.647058823529,4,2,1,5,0,0
41426,-117.647058823529,4,2,1,30,0,0
41875,-117.647058823529,4,2,1,5,0,0
41965,-117.647058823529,4,2,1,30,0,0
42863,-166.666666666667,4,2,1,30,0,0
43581,-166.666666666667,4,2,1,15,0,0
44300,-117.647058823529,4,2,1,30,0,0
45737,-166.666666666667,4,2,1,30,0,0
46456,-166.666666666667,4,2,1,15,0,0
46815,-117.647058823529,4,2,1,30,0,0
47623,-117.647058823529,4,2,1,5,0,0
47713,-117.647058823529,4,2,1,30,0,0
49060,-117.647058823529,4,2,1,31,0,0
49150,-117.647058823529,4,2,1,33,0,0
49240,-117.647058823529,4,2,1,35,0,0
49330,-117.647058823529,4,2,1,37,0,0
49420,-117.647058823529,4,2,1,39,0,0
49510,-117.647058823529,4,2,1,41,0,0
49599,-117.647058823529,4,2,1,43,0,0
49689,-117.647058823529,4,2,1,45,0,0
50049,-90.9090909090909,4,2,1,45,0,0
60827,-90.9090909090909,4,2,1,41,0,0
60917,-90.9090909090909,4,2,1,39,0,0
61007,-90.9090909090909,4,2,1,37,0,0
61096,-90.9090909090909,4,2,1,35,0,0
61186,-90.9090909090909,4,2,1,33,0,0
61276,-90.9090909090909,4,2,1,31,0,0
61366,-90.9090909090909,4,2,1,29,0,0
61456,-90.9090909090909,4,2,1,27,0,0
61546,-90.9090909090909,4,2,1,25,0,0
61905,-90.9090909090909,4,2,1,30,0,0
62264,-90.9090909090909,4,2,1,35,0,0
62623,-90.9090909090909,4,2,1,40,0,0
62983,-57.1428571428571,4,2,1,45,0,0
63162,-57.1428571428571,4,2,1,5,0,0
63252,-57.1428571428571,4,2,1,45,0,0
63432,-57.1428571428571,4,2,1,5,0,0
63522,-57.1428571428571,4,2,1,45,0,0
63611,-57.1428571428571,4,2,1,5,0,0
63701,-86.2068965517241,4,2,1,45,0,0
63971,-86.2068965517241,4,2,1,5,0,0
64060,-86.2068965517241,4,2,1,45,0,0
64330,-86.2068965517241,4,2,1,5,0,0
64420,-80,4,2,1,50,0,1
69450,-80,4,2,1,18,0,1
69540,-80,4,2,1,22,0,1
69629,-80,4,2,1,26,0,1
69719,-80,4,2,1,30,0,1
69809,-80,4,2,1,34,0,1
69899,-80,4,2,1,38,0,1
69989,-80,4,2,1,42,0,1
70078,-80,4,2,1,46,0,1
70168,-80,4,2,1,50,0,1
76546,-80,4,2,1,48,0,1
76635,-80,4,2,1,46,0,1
76725,-80,4,2,1,44,0,1
76815,-80,4,2,1,42,0,1
76905,-80,4,2,1,40,0,1
76995,-80,4,2,1,38,0,1
77084,-80,4,2,1,36,0,1
77174,-80,4,2,1,34,0,1
77264,-80,4,2,1,32,0,1
77354,-166.666666666667,4,2,1,30,0,1
77983,-166.666666666667,4,2,1,5,0,1
78072,-166.666666666667,4,2,1,20,0,1
78701,-166.666666666667,4,2,1,5,0,1
78791,-125,4,2,1,30,0,0
81665,-83.3333333333334,4,2,1,50,0,0
81935,-83.3333333333334,4,2,1,5,0,0
82025,-83.3333333333334,4,2,1,30,0,0
82384,-83.3333333333334,4,2,1,50,0,0
82653,-83.3333333333334,4,2,1,5,0,0
82743,-83.3333333333334,4,2,1,30,0,0
83102,-83.3333333333334,4,2,1,50,0,0

[Colours]
Combo1 : 255,255,74
Combo2 : 174,0,0
Combo3 : 255,119,53

[HitObjects]
77,103,1941,6,0,P|161:99|216:67,1,148.49999546814
215,67,3083,2,0,L|210:218,1,148.49999546814
215,227,4271,6,0,P|225:160|262:119,1,123.750004720688,2|0,0:0|0:0,0:0:0:0:
324,213,5171,1,0,0:0:0:0:
324,213,5471,2,0,P|379:187|438:201,1,123.750004720688
393,281,6365,1,0,0:0:0:0:
388,278,6659,2,0,P|351:233|354:160,1,123.750004720688
410,99,7577,1,0,0:0:0:0:
410,99,7883,1,2,0:0:0:0:
410,99,8477,5,0,0:0:0:0:
350,169,8783,1,0,0:0:0:0:
259,152,9089,2,0,P|208:197|198:249,1,123.750004720688,2|0,0:0|0:0,0:0:0:0:
229,336,9984,1,0,0:0:0:0:
229,336,10313,2,0,P|276:298|290:239,1,123.750004720688
259,152,11186,1,0,0:0:0:0:
259,152,11492,2,0,L|269:22,2,123.750004720688,0|0|2,0:0|0:0|0:0,0:0:0:0:
259,152,13252,6,0,L|263:213,1,61.875002360344
270,304,13935,2,0,P|313:291|344:257,1,92.812503540516,2|0,0:0|0:0,0:0:0:0:
344,257,14475,2,0,L|348:318,1,61.875002360344
264,214,15103,2,0,P|220:200|189:166,1,92.812503540516
190,166,15715,2,0,L|185:227,1,61.875002360344
24,142,16327,2,0,P|67:128|98:94,1,92.812503540516
98,94,16939,2,0,L|102:155,1,61.875002360344
109,247,17517,1,2,0:0:0:0:
109,247,18183,5,0,0:0:0:0:
194,209,18517,1,0,0:0:0:0:
269,263,18850,2,0,P|286:202|259:143,1,123.750004720688,2|2,0:0|0:0,0:0:0:0:
175,117,19932,1,2,0:0:0:0:
175,117,20351,2,0,P|241:120|299:95,1,123.750004720688,2|2,0:0|0:0,0:0:0:0:
361,33,21480,1,2,0:0:0:0:
361,33,21948,6,0,L|358:140,1,92.812503540516,2|0,0:0|0:0,0:0:0:0:
358,125,23029,6,0,B|388:217|336:210|368:292,1,165,4|0,0:0|0:0,0:0:0:0:
256,192,25545,12,0,26930,0:0:0:0:
142,136,27055,6,0,L|153:244,1,103.125,12|2,3:2|2:0,0:0:0:0:
246,215,27324,1,2,2:0:0:0:
246,215,27414,2,0,L|235:323,1,103.125,8|2,3:2|2:0,0:0:0:0:
142,136,27773,2,0,P|223:86|335:119,1,206.25,8|2,3:2|2:0,0:0:0:0:
374,236,28312,1,2,2:0:0:0:
268,69,28492,2,0,P|351:114|379:227,2,206.25,8|2|8,3:2|2:0|3:2,0:0:0:0:
66,171,29569,5,2,2:0:0:0:
124,73,29749,1,2,2:0:0:0:
84,292,29929,2,0,L|110:81,1,206.25,8|2,3:2|2:0,0:0:0:0:
182,324,30468,1,2,2:0:0:0:
377,227,30647,2,0,P|276:247|194:308,1,206.25,8|2,3:2|2:0,0:0:0:0:
236,64,31186,1,2,2:0:0:0:
394,111,31366,6,0,P|401:162|392:213,1,103.125,8|2,3:2|2:0,0:0:0:0:
477,263,31635,1,2,2:0:0:0:
477,263,31725,2,0,P|470:321|484:375,1,103.125,8|2,3:2|2:0,0:0:0:0:
343,323,32084,5,8,3:2:0:0:
304,326,32173,1,8,3:1:0:0:
266,330,32263,1,8,3:1:0:0:
227,334,32353,1,8,3:1:0:0:
189,338,32444,5,8,3:2:0:0:
214,293,32533,1,8,3:1:0:0:
223,242,32623,1,8,3:1:0:0:
215,192,32713,1,8,3:1:0:0:
191,146,32803,6,0,P|246:158|294:145,1,103.125,12|2,3:2|2:0,0:0:0:0:
384,109,33072,1,2,2:0:0:0:
384,109,33162,2,0,L|379:217,1,103.125,8|2,3:2|2:0,0:0:0:0:
241,44,33522,5,8,3:2:0:0:
378,222,33701,1,2,2:0:0:0:
126,52,33880,1,8,3:2:0:0:
376,231,34060,5,2,2:0:0:0:
320,215,34150,1,2,2:0:0:0:
268,203,34240,2,0,L|167:229,1,103.125,8|2,3:2|2:0,0:0:0:0:
386,284,34600,1,8,3:2:0:0:
140,105,34779,5,2,2:0:0:0:
192,117,34869,1,2,2:0:0:0:
244,133,34959,2,0,L|344:106,1,103.125,8|2,3:2|2:0,0:0:0:0:
126,52,35319,1,8,3:2:0:0:
274,204,35498,1,2,2:0:0:0:
350,347,35677,5,8,3:2:0:0:
343,309,35766,1,8,3:1:0:0:
346,270,35856,1,8,3:1:0:0:
358,233,35946,1,8,3:1:0:0:
373,198,36037,5,8,3:2:0:0:
384,157,36127,1,8,3:1:0:0:
386,114,36216,1,8,3:1:0:0:
374,74,36306,1,8,3:1:0:0:
313,46,36396,5,8,3:2:0:0:
305,92,36485,1,8,3:1:0:0:
298,138,36575,1,8,3:1:0:0:
291,184,36665,1,8,3:1:0:0:
231,214,36755,5,8,3:2:0:0:
222,163,36844,1,8,3:1:0:0:
214,112,36934,1,8,3:1:0:0:
206,62,37024,1,8,3:1:0:0:
148,28,37114,5,12,3:2:0:0:
472,132,37384,1,12,3:2:0:0:
115,246,37653,5,12,3:2:0:0:
148,28,37833,1,12,3:2:0:0:
219,360,38192,5,4,2:1:0:0:
115,246,38552,6,0,P|170:212|249:207,1,140.250002675056,4|0,0:0|0:0,0:0:0:0:
331,265,39090,1,0,0:0:0:0:
331,265,39270,2,0,L|343:180,1,70.1250013375282
234,136,39629,2,0,L|244:206,1,70.1250013375282
415,100,39989,2,0,B|360:55|274:67|236:136,1,197.99999395752,2|0,0:0|0:0,0:0:0:0:
345,200,41066,6,0,P|388:221|455:220,1,105.187502006292
444,223,41426,2,0,P|379:255|278:253,1,175.312503343821,2|0,0:0|0:0,0:0:0:0:
274,249,41965,1,0,0:0:0:0:
340,195,42144,2,0,P|347:161|339:127,1,70.1250013375282
200,129,42504,2,0,P|226:152|260:163,1,70.1250013375282
116,73,42863,2,0,B|75:174|138:165|100:277,1,197.99999395752,2|2,0:0|0:0,0:0:0:0:
200,129,44300,6,0,P|219:203|207:277,1,140.250002675056,2|0,0:0|0:0,0:0:0:0:
142,345,44839,1,0,0:0:0:0:
142,345,45019,2,0,L|56:350,1,70.1250013375282
210,265,45378,2,0,L|280:269,1,70.1250013375282
400,319,45737,2,0,P|375:239|417:131,1,197.99999395752,2|2,0:0|0:0,0:0:0:0:
289,89,46815,6,0,L|302:158,1,70.1250013375282
413,135,47174,2,0,P|364:64|269:49,1,175.312503343821,2|0,0:0|0:0,0:0:0:0:
277,51,47713,1,0,0:0:0:0:
302,158,47893,2,0,L|289:226,1,70.1250013375282,2|0,0:0|0:0,0:0:0:0:
147,188,48252,2,0,L|213:164,1,70.1250013375282
196,261,48611,1,2,0:0:0:0:
256,192,48701,12,4,49689,3:0:0:0:
354,123,50049,6,0,L|261:136,1,90.7500027694703,12|2,3:2|2:0,0:0:0:0:
222,223,50318,1,2,2:0:0:0:
222,223,50408,2,0,L|311:235,1,90.7500027694703,8|2,3:2|2:0,0:0:0:0:
167,128,50767,2,0,P|121:181|134:288,1,181.500005538941,8|2,3:2|2:0,0:0:0:0:
239,50,51306,1,2,2:0:0:0:
222,223,51486,2,0,P|268:170|255:63,2,181.500005538941,8|2|8,3:2|2:0|3:2,0:0:0:0:
167,128,52384,1,2,2:0:0:0:
277,318,52564,1,2,2:0:0:0:
277,318,52923,6,0,P|313:284|331:233,1,90.7500027694703,12|2,3:2|2:0,0:0:0:0:
113,224,53282,2,0,P|124:272|159:313,1,90.7500027694703,8|2,3:2|2:0,0:0:0:0:
276,129,53641,2,0,P|205:116|122:183,1,181.500005538941,8|2,3:2|2:0,0:0:0:0:
329,247,54180,1,2,2:0:0:0:
286,52,54360,2,0,L|332:227,3,181.500005538941,8|2|8|2,3:2|2:0|3:2|2:0,0:0:0:0:
290,33,55617,1,2,2:0:0:0:
330,271,55797,6,0,P|264:295|198:275,1,136.125004154205,12|8,3:2|3:2,0:0:0:0:
203,279,56156,2,0,L|215:375,1,90.7500027694703,8|8,3:2|3:1,0:0:0:0:
141,84,56516,2,0,P|206:108|272:88,1,136.125004154205,8|8,3:2|3:2,0:0:0:0:
268,92,56875,2,0,L|255:188,1,90.7500027694703,8|8,3:2|3:1,0:0:0:0:
421,38,57234,6,0,L|404:173,1,136.125004154205,8|8,3:2|3:2,0:0:0:0:
408,184,57593,1,8,3:2:0:0:
417,27,57773,1,8,3:1:0:0:
256,188,57953,2,0,L|272:323,1,136.125004154205,8|8,3:2|3:2,0:0:0:0:
269,334,58312,1,8,3:2:0:0:
260,177,58492,1,8,3:1:0:0:
147,352,58671,5,8,3:2:0:0:
396,237,58941,1,8,3:2:0:0:
396,237,59031,1,8,3:2:0:0:
260,177,59210,1,8,3:1:0:0:
112,192,59390,5,8,3:2:0:0:
379,89,59659,1,8,3:2:0:0:
379,89,59749,1,8,3:2:0:0:
396,237,59929,1,8,3:1:0:0:
336,373,60108,5,8,3:2:0:0:
270,86,60378,1,8,3:2:0:0:
270,86,60468,2,0,L|259:183,1,90.7500027694703,8|8,3:2|3:1,0:0:0:0:
68,259,60827,5,8,3:1:0:0:
50,194,60917,1,8,3:1:0:0:
106,155,61007,1,8,3:1:0:0:
159,196,61096,1,8,3:1:0:0:
135,259,61186,5,8,3:1:0:0:
128,280,61275,1,8,3:1:0:0:
125,303,61365,1,8,3:1:0:0:
126,325,61455,1,8,3:1:0:0:
130,348,61545,5,4,3:1:0:0:
237,325,61905,1,4,3:1:0:0:
343,301,62264,1,4,3:1:0:0:
449,277,62623,1,4,3:1:0:0:
459,122,62983,6,0,L|448:270,1,144.375001376867,8|0,3:1|0:0,0:0:0:0:
412,267,63252,2,0,L|422:123,1,144.375001376867,8|0,3:1|0:0,0:0:0:0:
385,124,63522,2,0,L|380:196,1,72.1875006884336,8|0,3:1|0:0,0:0:0:0:
338,269,63701,6,0,L|348:125,1,144.375001376867,4|0,1:0|0:0,0:0:0:0:
311,126,64060,2,0,L|301:270,1,144.375001376867,4|0,1:0|0:0,0:0:0:0:
273,300,64420,6,0,P|221:302|172:285,1,103.125,12|2,3:2|2:0,0:0:0:0:
100,359,64689,1,2,2:0:0:0:
100,359,64779,2,0,P|48:357|-1:374,1,103.125,8|2,3:2|2:0,0:0:0:0:
173,132,65138,2,0,P|184:208|173:284,1,154.6875,8|2,3:2|2:0,0:0:0:0:
173,285,65498,2,0,P|224:282|272:299,1,103.125,8|2,3:2|2:0,0:0:0:0:
71,117,65857,6,0,L|173:132,1,103.125,8|2,3:2|2:0,0:0:0:0:
262,196,66126,1,2,2:0:0:0:
262,196,66216,2,0,L|364:180,1,103.125,8|2,3:2|2:0,0:0:0:0:
173,285,66575,2,0,L|326:307,1,154.6875,8|2,3:2|2:0,0:0:0:0:
356,299,66935,1,8,3:2:0:0:
143,294,67114,1,2,2:0:0:0:
474,217,67294,6,0,P|429:278|356:299,1,154.6875,8|2,3:2|2:0,0:0:0:0:
348,299,67653,2,0,P|392:257|404:218,1,103.125,8|2,3:2|2:0,0:0:0:0:
182,129,68013,2,0,P|227:190|300:210,1,154.6875,8|2,3:2|2:0,0:0:0:0:
308,210,68372,2,0,P|264:168|252:129,1,103.125,8|2,3:2|2:0,0:0:0:0:
264,356,68731,6,0,P|237:284|179:234,1,154.6875,8|2,3:2|2:0,0:0:0:0:
174,227,69090,2,0,P|225:236|274:218,1,103.125,8|2,3:2|2:0,0:0:0:0:
48,72,69450,5,8,3:2:0:0:
53,110,69539,1,8,3:1:0:0:
59,148,69629,1,8,3:1:0:0:
64,187,69719,1,8,3:1:0:0:
69,225,69809,5,8,3:2:0:0:
83,176,69898,1,8,3:1:0:0:
118,139,69988,1,8,3:1:0:0:
166,123,70078,1,8,3:1:0:0:
217,132,70168,6,0,P|204:77|219:25,1,103.125,12|2,3:2|2:0,0:0:0:0:
397,29,70438,1,2,2:0:0:0:
397,29,70528,2,0,P|361:65|313:81,1,103.125,8|2,3:2|2:0,0:0:0:0:
487,193,70887,2,0,P|473:143|484:93,1,103.125,8|2,3:2|2:0,0:0:0:0:
388,242,71156,1,2,2:0:0:0:
387,235,71246,2,0,P|349:201|300:188,1,103.125,8|2,3:2|2:0,0:0:0:0:
116,325,71605,6,0,L|270:313,1,154.6875,8|2,3:2|2:0,0:0:0:0:
297,297,71965,1,8,3:2:0:0:
89,342,72144,1,2,2:0:0:0:
426,321,72324,2,0,L|323:314,2,103.125,8|2|2,3:2|3:0|3:0,0:0:0:0:
297,329,72863,1,2,2:0:0:0:
453,147,73043,6,0,P|462:223|455:300,1,154.6875,8|2,3:2|2:0,0:0:0:0:
451,306,73402,2,0,P|435:255|400:210,1,103.125,8|2,3:2|2:0,0:0:0:0:
138,331,73761,2,0,P|214:340|291:333,1,154.6875,8|2,3:2|2:0,0:0:0:0:
297,329,74120,2,0,P|245:312|200:277,1,103.125,8|2,3:2|2:0,0:0:0:0:
321,16,74480,6,0,L|323:170,1,154.6875,8|2,3:2|2:0,0:0:0:0:
320,175,74839,2,0,P|275:141|217:126,1,103.125,8|2,3:2|2:0,0:0:0:0:
468,110,75198,2,0,P|393:91|331:45,1,154.6875,8|2,3:2|2:0,0:0:0:0:
321,16,75557,1,8,3:2:0:0:
387,212,75737,1,2,2:0:0:0:
319,351,75918,5,8,3:2:0:0:
317,312,76006,1,8,3:1:0:0:
308,274,76096,1,8,3:1:0:0:
293,239,76186,1,8,3:1:0:0:
272,206,76277,5,8,3:2:0:0:
248,169,76366,1,8,3:1:0:0:
232,131,76456,1,8,3:1:0:0:
222,89,76546,1,8,3:1:0:0:
210,50,76636,5,8,3:0:0:0:
207,75,76724,1,8,3:0:0:0:
204,101,76814,1,8,3:0:0:0:
201,126,76904,1,8,3:0:0:0:
178,161,76995,5,8,3:0:0:0:
175,186,77084,1,8,3:0:0:0:
172,212,77173,1,8,3:0:0:0:
169,237,77263,1,8,3:0:0:0:
146,272,77354,6,0,B|227:243|236:302|327:268,1,173.24999471283,4|0,1:0|0:0,0:0:0:0:
321,258,78072,2,0,B|240:287|231:228|140:262,1,173.24999471283,4|0,1:0|0:0,0:0:0:0:
146,272,78791,6,0,P|156:220|142:167,2,99,2|0|0,0:0|0:0|0:0,0:0:0:0:
62,312,79510,2,0,P|91:348|181:359,1,132
237,294,80049,1,0,0:0:0:0:
237,294,80228,2,0,P|301:289|347:243,2,132
289,112,81306,5,2,0:0:0:0:
263,203,81486,1,2,0:0:0:0:
275,36,81665,2,0,L|258:190,1,148.49999546814,8|2,3:2|0:0,0:0:0:0:
263,203,82025,1,2,0:0:0:0:
354,180,82204,1,2,0:0:0:0:
204,253,82384,2,0,L|345:189,1,148.49999546814,8|2,3:2|0:0,0:0:0:0:
354,180,82743,1,2,0:0:0:0:
289,112,82923,1,2,0:0:0:0:
428,206,83102,6,0,L|347:147,1,98.9999969787599,8|2,3:2|2:0,0:0:0:0:
204,253,83372,1,2,2:0:0:0:
204,253,83462,2,0,L|294:212,1,98.9999969787599,8|2,3:2|2:0,0:0:0:0:
111,86,83821,5,8,3:2:0:0:
108,110,83910,1,8,3:1:0:0:
105,135,84000,1,8,3:1:0:0:
103,159,84090,1,8,3:1:0:0:
100,184,84180,1,8,3:2:0:0:
98,209,84270,1,8,3:1:0:0:
95,233,84359,1,8,3:1:0:0:
93,258,84449,1,8,3:1:0:0:
90,283,84540,6,0,P|115:331|150:359,1,98.9999969787599,8|2,3:2|2:0,0:0:0:0:
204,253,84809,1,2,2:0:0:0:
204,253,84899,2,0,P|249:282|293:288,1,98.9999969787599,8|2,3:2|2:0,0:0:0:0:
90,283,85258,5,8,3:2:0:0:
311,281,85438,1,2,2:0:0:0:
7,199,85618,1,8,3:2:0:0:
330,275,85797,5,2,2:0:0:0:
302,315,85887,1,2,2:0:0:0:
278,359,85977,2,0,L|175:362,1,98.9999969787599,8|2,3:2|2:0,0:0:0:0:
377,273,86336,1,8,3:2:0:0:
156,144,86516,5,2,2:0:0:0:
180,184,86605,1,2,2:0:0:0:
204,227,86696,2,0,L|307:230,1,98.9999969787599,8|2,3:2|2:0,0:0:0:0:
105,141,87055,1,8,3:2:0:0:
328,273,87234,1,2,2:0:0:0:
500,196,87414,5,8,3:2:0:0:
463,203,87503,1,8,3:1:0:0:
426,203,87593,1,8,3:1:0:0:
390,195,87683,1,8,3:1:0:0:
356,180,87773,5,8,3:2:0:0:
318,163,87863,1,8,3:1:0:0:
278,154,87953,1,8,3:1:0:0:
238,154,88043,1,8,3:1:0:0:
184,188,88132,5,8,3:2:0:0:
206,226,88222,1,8,3:1:0:0:
228,264,88312,1,8,3:1:0:0:
250,302,88402,1,8,3:1:0:0:
306,331,88492,5,8,3:2:0:0:
330,289,88582,1,8,3:1:0:0:
354,247,88672,1,8,3:1:0:0:
378,205,88762,1,8,3:1:0:0:
375,142,88851,5,12,3:2:0:0:
91,302,89120,1,12,3:2:0:0:
432,329,89390,5,12,3:2:0:0:
375,142,89569,1,12,3:2:0:0:
91,302,89929,5,4,2:1:0:0:
