osu file format v14

[General]
AudioFilename: audio.mp3
AudioLeadIn: 0
PreviewTime: 54823
Countdown: 0
SampleSet: Soft
StackLeniency: 0.5
Mode: 0
LetterboxInBreaks: 0
WidescreenStoryboard: 0

[Editor]
Bookmarks: 24095
DistanceSpacing: 1
BeatDivisor: 4
GridSize: 32
TimelineZoom: 2.399999

[Metadata]
Title:Hitorigoto
TitleUnicode:ヒトリゴト
Artist:Sati Akura
ArtistUnicode:Sati Akura
Creator:Namki
Version:Normal
Source:エロマンガ先生
Tags:eromanga sensei uta komore schoolboy opening russian cover shmiklak marvollo ailv fanteer
BeatmapID:1557553
BeatmapSetID:738011

[Difficulty]
HPDrainRate:4
CircleSize:3
OverallDifficulty:4
ApproachRate:5
SliderMultiplier:1.2
SliderTickRate:1

[Events]
//Background and Video events
0,0,"eromanga.jpg",0,0
//Break Periods
//Storyboard Layer 0 (Background)
//Storyboard Layer 1 (Fail)
//Storyboard Layer 2 (Pass)
//Storyboard Layer 3 (Foreground)
//Storyboard Sound Samples

[TimingPoints]
823,363.636363636364,4,2,1,60,1,0
823,-100,4,2,1,60,0,0
24095,-100,4,2,2,60,0,0
35732,-100,4,2,2,60,0,0
41550,-100,4,2,1,60,0,0
54641,-100,4,2,1,60,0,1
86641,-100,4,2,1,60,0,0

[Colours]
Combo1 : 255,197,100
Combo2 : 122,233,181
Combo3 : 77,159,251
Combo4 : 242,91,96

[HitObjects]
134,185,823,6,0,P|164:180|210:182,1,60,4|4,0:1|0:1,0:0:0:0:
244,146,1186,2,0,L|382:153,1,120,2|2,0:0|0:0,0:0:0:0:
434,249,1913,2,0,L|296:256,1,120,2|4,0:0|0:1,0:0:0:0:
261,284,2459,1,4,0:1:0:0:
208,318,2641,2,0,P|152:303|120:139,1,240,2|2,0:0|0:0,0:0:0:0:
144,28,3732,6,0,P|177:35|201:58,1,60,4|4,0:1|0:1,0:0:0:0:
236,96,4095,2,0,L|373:99,2,120,2|2|2,0:0|0:0|0:0,0:0:0:0:
166,193,5186,2,0,P|226:259|328:247,1,180,4|2,0:1|0:0,0:0:0:0:
370,251,5913,2,0,L|363:49,1,180,4|0,0:1|0:0,0:0:0:0:
319,30,6641,6,0,P|279:25|248:29,1,60,4|4,0:1|0:1,0:0:0:0:
209,60,7004,2,0,P|153:86|78:65,1,120,2|2,0:0|0:0,0:0:0:0:
19,169,7732,2,0,P|8:228|35:296,1,120,2|4,0:0|0:1,0:0:0:0:
83,301,8277,1,4,0:1:0:0:
139,321,8459,2,0,B|257:336|251:275|390:293,1,240,2|2,0:0|0:0,0:0:0:0:
484,244,9550,6,0,P|488:212|490:178,1,60,4|4,0:1|0:1,0:0:0:0:
442,147,9913,2,0,P|437:115|439:18,2,120,2|2|0,0:0|0:0|0:0,0:0:0:0:
341,214,11004,2,0,P|286:214|242:159,1,120,4|0,0:1|0:0,0:0:0:0:
163,79,11732,2,0,P|91:67|5:198,1,240,4|4,0:1|0:1,0:0:0:0:
68,289,12823,5,8,0:0:0:0:
172,347,13186,2,0,L|309:338,1,120,8|8,0:0|0:0,0:0:0:0:
336,298,13732,2,0,P|341:264|339:222,1,60,2|8,0:0|0:0,0:0:0:0:
439,170,14277,2,0,L|429:38,2,120,8|8|8,0:0|0:0|0:0,0:0:0:0:
314,163,15368,5,8,0:0:0:0:
221,239,15732,1,8,0:0:0:0:
133,157,16095,2,0,P|89:147|11:164,1,120,8|8,0:0|0:0,0:0:0:0:
29,281,16823,2,0,L|159:272,1,120,8|8,0:0|0:0,0:0:0:0:
205,293,17368,1,2,0:0:0:0:
260,316,17550,2,0,L|379:324,1,120,8|2,0:0|0:0,0:0:0:0:
497,299,18277,5,8,0:0:0:0:
409,216,18641,1,8,0:0:0:0:
480,119,19004,2,0,P|462:90|474:0,1,120,8|8,0:0|0:0,0:0:0:0:
364,67,19732,2,0,L|223:55,1,120,8|8,0:0|0:0,0:0:0:0:
204,101,20277,1,2,0:0:0:0:
180,158,20459,2,0,L|321:146,1,120,8|8,0:0|0:0,0:0:0:0:
406,203,21186,5,8,0:0:0:0:
368,317,21550,1,8,0:0:0:0:
249,336,21913,2,0,L|112:321,1,120,8|8,0:0|0:0,0:0:0:0:
26,261,22641,2,0,P|17:218|41:135,1,120,8|8,0:0|0:0,0:0:0:0:
85,113,23186,1,2,0:0:0:0:
147,102,23368,2,0,P|164:158|155:217,1,120,8|8,0:0|0:0,0:0:0:0:
264,269,24095,5,8,0:0:0:0:
355,190,24459,2,0,L|486:200,1,120,8|8,0:0|0:0,0:0:0:0:
413,95,25186,1,8,0:0:0:0:
293,103,25550,2,0,L|162:113,1,120,8|8,0:0|0:0,0:0:0:0:
71,48,26277,1,8,0:0:0:0:
7,149,26641,2,0,P|3:210|28:280,1,120,8|12,0:0|0:0,0:0:0:0:
119,332,27368,5,8,0:0:0:0:
223,273,27732,1,8,0:0:0:0:
331,324,28095,1,8,0:0:0:0:
441,277,28459,2,0,L|445:145,1,120,8|8,0:0|0:0,0:0:0:0:
497,46,29186,2,0,P|439:32|384:53,1,120,8|0,0:0|0:0,0:0:0:0:
268,20,29913,5,12,0:0:0:0:
295,136,30277,2,0,L|289:256,1,120,8|8,0:0|0:0,0:0:0:0:
197,333,31004,1,8,0:0:0:0:
121,239,31368,2,0,P|65:219|0:237,1,120,8|8,0:0|0:0,0:0:0:0:
83,326,32095,2,0,P|139:346|204:328,1,120,8|8,0:0|0:0,0:0:0:0:
256,228,32823,5,12,0:0:0:0:
366,166,33186,2,0,L|501:183,2,120,8|8|8,0:0|0:0|0:0,0:0:0:0:
274,88,34277,2,0,L|135:99,1,120,8|8,0:0|0:0,0:0:0:0:
35,112,35004,1,0,0:0:0:0:
72,226,35368,2,0,P|131:239|210:213,1,120,8|4,0:0|0:1,0:0:0:0:
296,173,36095,6,0,L|285:302,2,120,2|8|2,0:0|0:0|0:0,0:0:0:0:
395,105,37186,2,0,P|337:128|177:43,1,240,8|8,0:0|0:0,0:0:0:0:
67,35,38277,1,2,0:0:0:0:
47,153,38641,2,0,L|46:288,1,120,8|2,0:0|0:0,0:0:0:0:
151,330,39368,2,0,L|150:210,1,120,8|2,0:0|0:0,0:0:0:0:
250,143,40095,6,0,P|299:148|362:201,1,120,8|8,0:0|0:0,0:0:0:0:
436,277,40823,2,0,P|429:234|470:152,1,120,0|8,0:0|0:0,0:0:0:0:
448,105,41368,1,0,0:0:0:0:
388,93,41550,1,4,0:1:0:0:
272,123,41913,6,0,L|133:114,1,120,8|8,0:0|0:0,0:0:0:0:
41,162,42641,1,8,0:0:0:0:
84,274,43004,2,0,L|203:266,1,120,8|8,0:0|0:0,0:0:0:0:
316,309,43732,1,8,0:0:0:0:
416,244,44095,1,8,0:0:0:0:
411,123,44459,1,8,0:0:0:0:
299,71,44823,6,0,B|173:41|185:133|42:95,1,240,8|8,0:0|0:0,0:0:0:0:
31,149,45732,1,2,0:0:0:0:
14,208,45913,2,0,P|3:246|28:335,1,120,8|8,0:0|0:0,0:0:0:0:
132,281,46641,2,0,L|251:287,1,120,8|8,0:0|0:0,0:0:0:0:
330,197,47367,1,4,0:1:0:0:
444,214,47732,6,0,L|459:356,2,120,8|8|8,0:0|0:0|0:0,0:0:0:0:
357,130,48823,2,0,P|289:114|233:131,1,120,8|8,0:0|0:0,0:0:0:0:
153,208,49550,2,0,P|221:224|277:207,1,120,8|8,0:0|0:0,0:0:0:0:
357,130,50277,6,0,L|354:277,1,120,8|8,0:0|0:0,0:0:0:0:
306,359,51004,1,8,0:0:0:0:
186,366,51368,1,8,0:0:0:0:
76,316,51732,2,0,P|64:274|97:190,1,120,4|8,0:1|0:0,0:0:0:0:
68,83,52459,2,0,P|98:51|187:38,1,120,8|8,0:0|0:0,0:0:0:0:
283,91,53186,6,0,L|276:169,1,60,4|4,0:1|0:1,0:0:0:0:
277,272,53732,1,4,0:1:0:0:
277,272,54641,6,0,L|144:266,1,120,4|8,0:1|0:0,0:0:0:0:
58,335,55368,1,8,0:0:0:0:
27,219,55732,1,8,0:0:0:0:
129,157,56095,2,0,P|146:106|145:29,2,120,8|8|8,0:0|0:0|0:0,0:0:0:0:
156,210,57004,1,2,0:0:0:0:
214,222,57186,1,8,0:0:0:0:
317,161,57550,6,0,L|452:165,1,120,4|8,0:1|0:0,0:0:0:0:
449,282,58277,2,0,L|314:286,1,120,8|8,0:0|0:0,0:0:0:0:
214,321,59004,1,8,0:0:0:0:
158,298,59186,1,2,0:0:0:0:
118,252,59368,2,0,P|115:191|150:128,2,120,8|8|10,0:0|0:0|0:0,0:0:0:0:
230,208,60459,6,0,L|373:210,1,120,4|8,0:1|0:0,0:0:0:0:
464,246,61186,1,8,0:0:0:0:
473,126,61550,2,0,L|330:128,1,120,8|8,0:0|0:0,0:0:0:0:
292,129,62095,1,2,0:0:0:0:
233,135,62277,2,0,P|213:78|217:11,2,120,8|8|8,0:0|0:0|0:0,0:0:0:0:
291,240,63368,6,0,L|155:229,1,120,4|4,0:1|0:1,0:0:0:0:
63,283,64095,2,0,L|40:146,1,120,4|4,0:1|0:1,0:0:0:0:
123,70,64823,2,0,P|203:44|345:120,1,240,8|4,0:0|0:0,0:0:0:0:
454,135,65913,1,4,0:0:0:0:
412,247,66277,6,0,L|276:237,1,120,4|8,0:1|0:0,0:0:0:0:
194,307,67004,1,8,0:0:0:0:
120,212,67368,1,8,0:0:0:0:
213,136,67732,2,0,P|224:80|207:7,2,120,4|8|8,0:1|0:0|0:0,0:0:0:0:
259,174,68641,1,2,0:0:0:0:
319,191,68823,2,0,L|448:187,1,120,8|8,0:0|0:0,0:0:0:0:
411,304,69550,6,0,L|282:300,1,120,8|8,0:0|0:0,0:0:0:0:
192,231,70277,1,8,0:0:0:0:
94,301,70641,1,8,0:0:0:0:
11,214,71004,2,0,P|1:156|5:87,1,120,8|8,0:0|0:0,0:0:0:0:
38,45,71550,1,10,0:0:0:0:
92,14,71732,2,0,P|149:19|216:41,1,120,10|4,0:0|0:1,0:0:0:0:
298,116,72459,6,0,L|286:249,1,120,8|8,0:0|0:0,0:0:0:0:
312,352,73186,1,8,0:0:0:0:
201,306,73550,2,0,P|153:295|78:339,1,120,8|8,0:0|0:0,0:0:0:0:
73,204,74277,2,0,P|125:176|183:186,1,120,8|8,0:0|0:0,0:0:0:0:
303,162,75004,6,0,P|349:184|496:97,1,240,4|4,0:1|0:1,0:0:0:0:
375,69,76095,1,8,0:0:0:0:
256,86,76459,2,0,L|113:71,1,120,4|8,0:1|0:0,0:0:0:0:
90,184,77186,2,0,L|233:169,1,120,8|8,0:0|0:0,0:0:0:0:
263,198,77732,1,2,0:0:0:0:
308,237,77913,6,0,L|293:368,2,120,4|8|8,0:1|0:0|0:0,0:0:0:0:
405,167,79004,1,8,0:0:0:0:
324,81,79368,2,0,P|272:67|189:92,1,120,4|8,0:1|0:0,0:0:0:0:
133,174,80095,2,0,P|190:187|248:173,1,120,8|8,0:0|0:0,0:0:0:0:
355,228,80823,6,0,L|366:354,2,120,4|8|8,0:1|0:0|0:0,0:0:0:0:
445,149,81913,1,8,0:0:0:0:
344,83,82277,2,0,P|282:84|215:88,1,120,4|8,0:1|0:0,0:0:0:0:
139,173,83004,2,0,P|157:230|174:287,1,120,8|8,0:0|0:0,0:0:0:0:
264,367,83732,5,4,0:1:0:0:
301,253,84095,1,8,0:0:0:0:
396,326,84459,2,0,P|461:327|532:290,1,120,8|8,0:0|0:0,0:0:0:0:
491,187,85186,2,0,L|494:58,1,120,4|8,0:1|0:0,0:0:0:0:
377,33,85913,2,0,L|379:152,1,120,8|8,0:0|0:0,0:0:0:0:
305,248,86641,5,4,0:0:0:0:
256,192,86732,12,4,87974,0:0:0:0:
