osu file format v14

[General]
AudioFilename: audio.mp3
AudioLeadIn: 0
PreviewTime: 54823
Countdown: 0
SampleSet: Soft
StackLeniency: 0.5
Mode: 0
LetterboxInBreaks: 0
WidescreenStoryboard: 0

[Editor]
Bookmarks: 24095
DistanceSpacing: 1
BeatDivisor: 4
GridSize: 32
TimelineZoom: 2.899999

[Metadata]
Title:Hitorigoto
TitleUnicode:ヒトリゴト
Artist:Sati Akura
ArtistUnicode:Sati Akura
Creator:Namki
Version:L#ve
Source:エロマンガ先生
Tags:eromanga sensei uta komore schoolboy opening russian cover shmiklak marvollo ailv fanteer
BeatmapID:1557461
BeatmapSetID:738011

[Difficulty]
HPDrainRate:7.5
CircleSize:4
OverallDifficulty:8.6
ApproachRate:9
SliderMultiplier:1.8
SliderTickRate:1

[Events]
//Background and Video events
0,0,"eromanga.jpg",0,0
//Break Periods
//Storyboard Layer 0 (Background)
//Storyboard Layer 1 (Fail)
//Storyboard Layer 2 (Pass)
//Storyboard Layer 3 (Foreground)
//Storyboard Sound Samples

[TimingPoints]
823,363.636363636364,4,2,1,60,1,0
823,-111.111111111111,4,2,1,60,0,0
24095,-125,4,2,2,60,0,0
35732,-142.857142857143,4,2,2,60,0,0
41550,-125,4,2,1,60,0,0
54641,-100,4,2,1,60,0,1
86641,-100,4,2,1,60,0,0

[Colours]
Combo1 : 255,197,100
Combo2 : 122,233,181
Combo3 : 77,159,251
Combo4 : 242,91,96

[HitObjects]
96,224,823,5,4,0:1:0:0:
391,155,1004,1,4,0:1:0:0:
242,161,1186,6,0,P|229:213|232:248,1,80.9999975280763,2|0,0:0|0:0,0:0:0:0:
391,247,1550,2,0,P|442:232|471:212,1,80.9999975280763,2|0,0:0|0:0,0:0:0:0:
369,77,1913,2,0,P|330:39|298:24,1,80.9999975280763,2|0,0:0|0:0,0:0:0:0:
134,147,2277,5,4,0:1:0:0:
477,70,2459,1,4,0:1:0:0:
287,119,2641,6,0,L|299:213,1,80.9999975280763,2|0,0:0|0:0,0:0:0:0:
424,344,3004,2,0,L|434:263,1,80.9999975280763,2|0,0:0|0:0,0:0:0:0:
282,110,3368,2,0,L|201:113,1,80.9999975280763,2|0,0:0|0:0,0:0:0:0:
367,10,3732,5,4,0:1:0:0:
243,245,3913,1,4,0:1:0:0:
296,90,4095,5,2,0:0:0:0:
246,273,4277,1,2,0:0:0:0:
179,97,4459,1,2,0:0:0:0:
339,199,4641,1,2,0:0:0:0:
148,210,4823,2,0,L|49:208,1,80.9999975280763,2|0,0:0|0:0,0:0:0:0:
371,116,5186,6,0,P|410:144|411:264,1,161.999995056153,4|0,0:1|0:0,0:0:0:0:
267,231,5732,1,2,0:0:0:0:
267,231,5913,2,0,B|298:205|298:205|356:196,1,80.9999975280763,4|0,0:1|0:0,0:0:0:0:
420,250,6156,2,0,B|427:289|427:289|405:344,1,80.9999975280763,4|0,0:1|0:0,0:0:0:0:
321,368,6398,2,0,B|282:354|282:354|246:308,1,80.9999975280763,4|0,0:1|0:0,0:0:0:0:
127,298,6641,5,4,0:1:0:0:
344,218,6823,1,4,0:1:0:0:
192,223,7004,6,0,L|105:211,1,80.9999975280763,2|0,0:0|0:0,0:0:0:0:
292,152,7368,2,0,L|345:82,1,80.9999975280763,2|0,0:0|0:0,0:0:0:0:
297,293,7732,2,0,L|330:374,1,80.9999975280763,2|0,0:0|0:0,0:0:0:0:
189,241,8095,5,4,0:1:0:0:
449,240,8277,1,4,0:1:0:0:
206,315,8459,6,0,P|150:308|126:279,1,80.9999975280763,2|0,0:0|0:0,0:0:0:0:
77,144,8823,2,0,P|111:99|148:92,1,80.9999975280763,2|0,0:0|0:0,0:0:0:0:
315,145,9186,2,0,P|336:196|323:232,1,80.9999975280763,2|0,0:0|0:0,0:0:0:0:
182,213,9550,5,4,0:1:0:0:
406,137,9732,1,4,0:1:0:0:
215,73,9913,5,2,0:0:0:0:
398,123,10095,1,2,0:0:0:0:
222,190,10277,1,2,0:0:0:0:
324,30,10459,1,2,0:0:0:0:
335,221,10641,2,0,L|333:320,1,80.9999975280763
128,351,11004,6,0,P|104:299|145:202,1,161.999995056153,4|0,0:1|0:0,0:0:0:0:
254,142,11550,1,2,0:0:0:0:
254,142,11732,2,0,B|262:184|262:184|246:231,1,80.9999975280763,4|0,0:1|0:0,0:0:0:0:
146,197,11974,2,0,B|106:187|106:187|72:145,1,80.9999975280763,4|0,0:1|0:0,0:0:0:0:
158,84,12216,2,0,B|186:56|186:56|239:46,1,80.9999975280763,4|0,0:1|0:0,0:0:0:0:
334,150,12459,6,0,L|326:247,1,80.9999975280763,4|0,0:1|0:0,0:0:0:0:
157,361,12823,2,0,L|150:280,1,80.9999975280763,8|0,0:0|0:0,0:0:0:0:
219,175,13186,1,8,0:0:0:0:
53,330,13368,1,2,0:0:0:0:
273,312,13550,1,8,0:0:0:0:
70,184,13732,6,0,P|7:174|-29:192,1,80.9999975280763,2|8,0:0|0:0,0:0:0:0:
226,160,14095,2,0,P|213:110|169:78,1,80.9999975280763,2|8,0:0|0:0,0:0:0:0:
344,246,14459,2,0,P|383:203|386:156,1,80.9999975280763,2|8,0:0|0:0,0:0:0:0:
216,165,14823,1,2,0:0:0:0:
320,347,15004,1,8,0:0:0:0:
168,279,15186,5,2,0:0:0:0:
168,279,15277,1,2,0:0:0:0:
168,279,15368,2,0,L|174:375,1,80.9999975280763,8|0,0:0|0:0,0:0:0:0:
108,198,15732,2,0,P|54:177|17:190,1,80.9999975280763,8|0,0:0|0:0,0:0:0:0:
171,289,16095,1,8,0:0:0:0:
119,84,16277,1,2,0:0:0:0:
56,257,16459,1,8,0:0:0:0:
253,129,16641,6,0,B|260:92|260:92|241:49,1,80.9999975280763,2|8,0:0|0:0,0:0:0:0:
374,259,17004,2,0,B|338:271|338:271|310:309,1,80.9999975280763,2|8,0:0|0:0,0:0:0:0:
414,89,17368,2,0,B|442:113|442:113|489:118,1,80.9999975280763,2|8,0:0|0:0,0:0:0:0:
328,138,17732,2,0,L|331:58,1,80.9999975280763,8|2,0:0|0:0,0:0:0:0:
285,221,18094,1,2,0:0:0:0:
413,324,18277,6,0,P|464:333|494:322,1,80.9999975280763,8|0,0:0|0:0,0:0:0:0:
324,149,18641,2,0,P|285:139|246:148,1,80.9999975280763,8|0,0:0|0:0,0:0:0:0:
149,275,19004,1,8,0:0:0:0:
232,66,19186,1,2,0:0:0:0:
324,250,19368,1,8,0:0:0:0:
82,174,19550,6,0,L|99:88,1,80.9999975280763,2|8,0:0|0:0,0:0:0:0:
306,22,19913,2,0,L|371:79,1,80.9999975280763,2|8,0:0|0:0,0:0:0:0:
323,277,20277,2,0,L|240:305,1,80.9999975280763,2|8,0:0|0:0,0:0:0:0:
337,370,20641,1,0,0:0:0:0:
263,197,20823,1,8,0:0:0:0:
146,346,21004,5,2,0:0:0:0:
146,346,21095,1,2,0:0:0:0:
146,346,21186,2,0,P|129:292|130:255,1,80.9999975280763,8|0,0:0|0:0,0:0:0:0:
269,186,21550,2,0,L|368:194,1,80.9999975280763,8|0,0:0|0:0,0:0:0:0:
263,86,21913,1,8,0:0:0:0:
350,301,22095,1,2,0:0:0:0:
433,141,22277,1,8,0:0:0:0:
200,239,22459,6,0,B|185:196|185:196|193:154,1,80.9999975280763,2|8,0:0|0:0,0:0:0:0:
450,61,22823,2,0,B|456:95|456:95|441:138,1,80.9999975280763,2|8,0:0|0:0,0:0:0:0:
313,134,23186,1,2,0:0:0:0:
307,117,23277,1,2,0:0:0:0:
306,100,23368,1,8,0:0:0:0:
460,224,23550,5,2,0:0:0:0:
431,239,23641,1,2,0:0:0:0:
399,246,23732,1,8,0:0:0:0:
367,246,23823,1,2,0:0:0:0:
336,236,23913,1,2,0:0:0:0:
309,219,24004,1,2,0:0:0:0:
286,201,24095,6,0,L|202:206,1,72,8|0,0:0|0:0,0:0:0:0:
12,154,24459,2,0,P|39:129|81:120,1,72,8|0,0:0|0:0,0:0:0:0:
205,206,24823,2,0,P|212:242|198:283,1,72,8|0,0:0|0:0,0:0:0:0:
61,328,25186,2,0,P|25:316|-3:284,1,72,8|0,0:0|0:0,0:0:0:0:
178,117,25550,6,0,L|271:119,1,72,8|0,0:0|0:0,0:0:0:0:
437,229,25913,2,0,L|344:231,1,72,8|0,0:0|0:0,0:0:0:0:
268,99,26277,2,0,L|264:175,1,72,8|0,0:0|0:0,0:0:0:0:
352,321,26641,2,0,L|348:249,1,72,8|0,0:0|0:0,0:0:0:0:
388,52,27004,5,12,0:0:0:0:
287,193,27186,1,2,0:0:0:0:
467,114,27368,1,8,0:0:0:0:
298,104,27550,1,2,0:0:0:0:
430,214,27732,1,8,0:0:0:0:
401,40,27913,5,2,0:0:0:0:
421,229,28095,1,8,0:0:0:0:
287,112,28277,1,2,0:0:0:0:
492,87,28459,5,8,0:0:0:0:
282,196,28641,1,2,0:0:0:0:
386,108,28823,1,8,0:0:0:0:
240,42,29004,2,0,P|190:27|160:32,1,72,2|8,0:0|0:0,0:0:0:0:
134,194,29368,1,2,0:0:0:0:
222,257,29550,2,0,P|257:257|291:244,1,72
368,181,29823,5,2,0:0:0:0:
368,181,29913,2,0,L|360:278,1,72,12|0,0:0|0:0,0:0:0:0:
364,96,30277,2,0,B|327:96|327:96|301:124,1,72,8|0,0:0|0:0,0:0:0:0:
361,264,30641,2,0,B|379:296|379:296|416:304,1,72,8|0,0:0|0:0,0:0:0:0:
504,179,31004,2,0,B|522:146|522:146|511:110,1,72,8|0,0:0|0:0,0:0:0:0:
255,198,31368,6,0,L|252:298,1,72,8|0,0:0|0:0,0:0:0:0:
164,117,31732,2,0,L|161:45,1,72,8|0,0:0|0:0,0:0:0:0:
259,190,32095,2,0,P|312:190|339:186,1,72,8|0,0:0|0:0,0:0:0:0:
156,123,32459,2,0,P|103:123|76:127,1,72,8|0,0:0|0:0,0:0:0:0:
64,355,32823,5,12,0:0:0:0:
238,259,33004,1,2,0:0:0:0:
20,195,33186,1,8,0:0:0:0:
168,353,33368,1,2,0:0:0:0:
169,143,33550,1,8,0:0:0:0:
0,300,33732,5,2,0:0:0:0:
102,102,33913,1,8,0:0:0:0:
169,273,34095,1,2,0:0:0:0:
0,188,34277,1,8,0:0:0:0:
236,208,34459,2,0,P|261:238|269:280,1,72,2|8,0:0|0:0,0:0:0:0:
344,158,34823,2,0,P|352:123|376:96,1,72,2|0,0:0|0:0,0:0:0:0:
334,300,35186,1,8,0:0:0:0:
426,163,35368,1,8,0:0:0:0:
224,98,35550,5,2,0:0:0:0:
224,98,35641,1,2,0:0:0:0:
224,98,35732,2,0,P|151:88|81:98,1,125.999996154785,4|2,0:1|0:0,0:0:0:0:
109,272,36459,2,0,P|171:277|233:267,1,125.999996154785,8|2,0:0|0:0,0:0:0:0:
291,218,37004,1,8,0:0:0:0:
356,255,37186,6,0,P|329:205|351:112,1,125.999996154785,8|8,0:0|0:0,0:0:0:0:
194,33,37913,2,0,P|201:94|173:150,1,125.999996154785,8|2,0:0|0:0,0:0:0:0:
100,173,38459,1,8,0:0:0:0:
44,121,38641,6,0,P|3:115|-23:116,1,62.9999980773926,8|0,0:0|0:0,0:0:0:0:
170,226,39004,2,0,P|211:220|237:221,1,62.9999980773926,2|0,0:0|0:0,0:0:0:0:
304,261,39368,2,0,P|304:296|297:336,1,62.9999980773926,8|0,0:0|0:0,0:0:0:0:
214,135,39732,2,0,P|209:103|210:72,1,62.9999980773926,2|0,0:0|0:0,0:0:0:0:
373,74,40095,5,8,0:0:0:0:
354,147,40277,1,8,0:0:0:0:
300,92,40459,1,8,0:0:0:0:
292,82,40823,6,8,L|246:74,2,41.9999987182618
324,233,41186,2,0,L|402:223,2,41.9999987182618,8|2|2,0:0|0:0|0:0,0:0:0:0:
485,261,41550,6,0,P|489:301|472:336,1,72,4|0,0:1|0:0,0:0:0:0:
316,251,41913,1,8,0:0:0:0:
470,344,42095,1,2,0:0:0:0:
321,170,42277,2,0,P|285:175|257:197,1,72,8|0,0:0|0:0,0:0:0:0:
271,319,42641,1,8,0:0:0:0:
299,84,42823,1,2,0:0:0:0:
163,267,43004,6,0,P|159:194|153:109,1,144,8|8,0:0|0:0,0:0:0:0:
67,206,43550,1,2,0:0:0:0:
256,146,43732,1,8,0:0:0:0:
37,59,43913,2,0,P|23:106|27:142,1,72,2|8,0:0|0:0,0:0:0:0:
172,208,44277,5,2,0:0:0:0:
263,155,44459,2,2,L|357:160,1,72,8|2,0:0|0:0,0:0:0:0:
314,62,44823,1,8,0:0:0:0:
265,257,45004,1,2,0:0:0:0:
425,196,45186,2,0,L|417:112,1,72,8|0,0:0|0:0,0:0:0:0:
321,171,45550,1,8,0:0:0:0:
505,145,45732,1,2,0:0:0:0:
457,297,45913,6,0,L|376:290,1,72,8|0,0:0|0:0,0:0:0:0:
215,203,46277,1,8,0:0:0:0:
283,360,46459,1,2,0:0:0:0:
344,192,46641,1,8,0:0:0:0:
189,296,46823,1,2,0:0:0:0:
371,301,47004,1,8,0:0:0:0:
185,198,47186,5,2,0:0:0:0:
439,228,47368,2,0,P|447:191|429:145,1,72,4|0,0:1|0:0,0:0:0:0:
256,166,47732,1,8,0:0:0:0:
447,141,47913,1,2,0:0:0:0:
255,85,48095,2,0,P|219:95|188:135,1,72,8|0,0:0|0:0,0:0:0:0:
212,240,48459,5,8,0:0:0:0:
223,18,48641,1,2,0:0:0:0:
102,193,48823,2,0,P|95:119|73:42,1,144,8|8,0:0|0:0,0:0:0:0:
14,174,49368,1,2,0:0:0:0:
195,106,49550,1,8,0:0:0:0:
143,275,49732,2,0,L|53:265,1,72,2|8,0:0|0:0,0:0:0:0:
142,355,50095,1,2,0:0:0:0:
207,209,50277,6,0,P|256:181|345:210,1,144,8|8,0:0|0:0,0:0:0:0:
275,264,50823,1,2,0:0:0:0:
421,165,51004,2,0,L|415:251,2,72,8|0|8,0:0|0:0|0:0,0:0:0:0:
498,267,51550,5,2,0:0:0:0:
359,97,51732,2,0,P|321:87|281:101,1,72,4|0,0:1|0:0,0:0:0:0:
176,105,52095,2,0,P|187:71|213:47,1,72,8|0,0:0|0:0,0:0:0:0:
93,149,52459,2,0,P|103:186|135:214,1,72,8|0,0:0|0:0,0:0:0:0:
195,301,52823,2,0,P|161:310|127:300,1,72,8|0,0:0|0:0,0:0:0:0:
277,378,53186,5,4,0:1:0:0:
350,219,53368,2,0,L|343:301,1,72,4|0,0:1|0:0,0:0:0:0:
61,243,53732,2,0,L|54:171,1,72,4|0,0:1|0:0,0:0:0:0:
166,68,54004,5,0,0:0:0:0:
174,56,54095,2,0,P|229:50|298:129,1,144,2|0,0:0|0:0,0:0:0:0:
205,245,54641,5,4,0:1:0:0:
312,108,54823,1,2,0:0:0:0:
137,210,55004,2,0,P|129:256|155:305,1,90,8|0,0:0|0:0,0:0:0:0:
306,210,55368,1,8,0:0:0:0:
38,161,55550,1,2,0:0:0:0:
219,346,55732,1,8,0:0:0:0:
169,105,55913,1,2,0:0:0:0:
66,345,56095,5,8,0:0:0:0:
276,125,56277,2,0,L|370:138,1,90,2|8,0:0|0:0,0:0:0:0:
100,258,56641,2,0,L|6:271,1,90,2|8,0:0|0:0,0:0:0:0:
276,323,57004,1,2,0:0:0:0:
164,126,57186,1,8,0:0:0:0:
89,346,57368,1,2,0:0:0:0:
337,243,57550,5,4,0:1:0:0:
70,182,57732,1,2,0:0:0:0:
302,100,57913,1,8,0:0:0:0:
115,283,58095,1,2,0:0:0:0:
155,57,58277,1,8,0:0:0:0:
219,350,58459,1,2,0:0:0:0:
335,182,58641,1,8,0:0:0:0:
63,143,58823,1,2,0:0:0:0:
239,275,59004,5,8,0:0:0:0:
41,255,59186,1,2,0:0:0:0:
179,84,59368,1,8,0:0:0:0:
294,335,59550,2,0,P|244:354|195:339,1,90,2|8,0:0|0:0,0:0:0:0:
260,126,59913,5,10,0:0:0:0:
417,310,60095,1,10,0:0:0:0:
60,265,60277,1,10,0:0:0:0:
409,186,60459,5,4,0:1:0:0:
139,219,60641,1,2,0:0:0:0:
351,352,60823,1,8,0:0:0:0:
255,108,61004,1,2,0:0:0:0:
201,364,61186,1,8,0:0:0:0:
397,170,61368,1,2,0:0:0:0:
105,159,61550,1,8,0:0:0:0:
354,330,61732,2,0,L|455:317,1,90,2|8,0:0|0:0,0:0:0:0:
217,170,62095,5,2,0:0:0:0:
274,358,62277,1,8,0:0:0:0:
388,221,62459,1,2,0:0:0:0:
132,241,62641,2,0,B|112:283|112:283|125:348,1,90,8|0,0:0|0:0,0:0:0:0:
399,211,63004,2,0,B|407:168|407:168|387:126,1,90,8|0,0:0|0:0,0:0:0:0:
306,301,63368,6,0,L|208:291,1,90,4|0,0:1|0:0,0:0:0:0:
32,220,63732,2,0,L|122:230,1,90,4|0,0:1|0:0,0:0:0:0:
303,129,64095,2,0,L|214:139,1,90,4|0,0:1|0:0,0:0:0:0:
31,210,64459,2,0,L|120:200,1,90,4|0,0:1|0:0,0:0:0:0:
327,113,64823,5,8,0:0:0:0:
203,322,65004,1,2,0:0:0:0:
158,74,65186,1,8,0:0:0:0:
340,330,65368,1,2,0:0:0:0:
250,24,65550,5,4,0:0:0:0:
119,337,65732,1,2,3:0:0:0:
434,225,65913,1,4,0:0:0:0:
53,98,66095,1,2,3:0:0:0:
315,315,66277,5,4,0:1:0:0:
340,118,66459,1,2,0:0:0:0:
204,259,66641,1,8,0:0:0:0:
436,226,66823,1,2,0:0:0:0:
216,137,67004,1,8,0:0:0:0:
411,329,67186,2,0,L|501:322,2,90,2|8|0,0:0|0:0|0:0,0:0:0:0:
271,162,67732,5,4,0:1:0:0:
163,330,67913,1,2,0:0:0:0:
377,225,68095,1,8,0:0:0:0:
104,232,68277,2,0,L|94:131,1,90,2|8,0:0|0:0,0:0:0:0:
260,372,68641,5,2,0:0:0:0:
3,242,68823,1,8,0:0:0:0:
278,155,69004,2,0,L|379:162,1,90,2|8,0:0|0:0,0:0:0:0:
242,65,69368,5,2,0:0:0:0:
315,307,69550,1,8,0:0:0:0:
421,96,69732,1,2,0:0:0:0:
185,239,69913,1,8,0:0:0:0:
463,244,70095,1,2,0:0:0:0:
159,117,70277,5,8,0:0:0:0:
231,321,70459,1,2,0:0:0:0:
359,171,70641,2,0,L|349:74,1,90,8|0,0:0|0:0,0:0:0:0:
453,234,71004,1,8,0:0:0:0:
224,313,71186,2,0,L|135:298,1,90,2|8,0:0|0:0,0:0:0:0:
236,145,71550,5,10,0:0:0:0:
343,366,71732,1,10,0:0:0:0:
16,238,71913,1,10,0:0:0:0:
251,147,72095,6,0,B|267:193|267:193|251:242,1,90,4|0,0:1|0:0,0:0:0:0:
41,341,72459,2,0,B|25:295|25:295|41:246,1,90,8|0,0:0|0:0,0:0:0:0:
249,249,72823,1,8,0:0:0:0:
22,242,73004,1,2,0:0:0:0:
211,343,73186,1,8,0:0:0:0:
89,157,73368,6,0,L|-15:156,1,90,2|8,0:0|0:0,0:0:0:0:
217,345,73732,2,0,L|321:344,1,90,2|8,0:0|0:0,0:0:0:0:
472,268,74095,1,2,0:0:0:0:
263,255,74277,2,0,P|278:201|179:111,1,180,8|8,0:0|0:0,0:0:0:0:
188,200,74823,1,2,0:0:0:0:
327,85,75004,6,0,B|365:104|365:104|417:96,1,90,4|0,0:1|0:0,0:0:0:0:
188,200,75368,2,0,B|150:219|150:219|98:211,1,90,8|0,0:0|0:0,0:0:0:0:
317,94,75732,2,0,L|512:84,1,180,4|8,0:1|0:0,0:0:0:0:
411,172,76277,1,2,0:0:0:0:
229,33,76459,6,0,P|228:80|220:131,1,90,4|0,0:1|0:0,0:0:0:0:
120,300,76823,2,0,P|113:255|113:210,1,90,8|2,0:0|0:0,0:0:0:0:
332,220,77186,2,0,P|331:264|325:309,1,90,8|0,0:0|0:0,0:0:0:0:
222,240,77550,1,8,0:0:0:0:
476,147,77732,1,2,0:0:0:0:
216,246,77913,6,0,P|194:207|254:86,1,180,4|8,0:1|0:0,0:0:0:0:
322,148,78459,1,2,0:0:0:0:
138,103,78641,2,0,B|102:120|102:120|37:105,2,90,8|0|8,0:0|0:0|0:0,0:0:0:0:
34,193,79186,1,2,0:0:0:0:
231,38,79368,6,0,B|304:43|304:43|330:65|330:65|422:71,1,180,4|8,0:1|0:0,0:0:0:0:
479,21,79913,1,2,0:0:0:0:
338,142,80095,2,0,P|342:188|351:240,1,90,8|0,0:0|0:0,0:0:0:0:
458,153,80459,1,8,0:0:0:0:
230,191,80641,1,2,0:0:0:0:
477,164,80823,6,0,P|481:238|376:314,1,180,4|8,0:1|0:0,0:0:0:0:
502,357,81368,1,2,0:0:0:0:
327,263,81550,2,0,P|278:247|235:252,1,90,8|0,0:0|0:0,0:0:0:0:
192,331,81913,1,8,0:0:0:0:
316,177,82095,1,2,0:0:0:0:
107,285,82277,6,0,L|112:376,1,90,4|0,0:1|0:0,0:0:0:0:
231,171,82641,2,0,L|235:81,1,90,8|0,0:0|0:0,0:0:0:0:
95,297,83004,2,0,L|5:301,1,90,8|0,0:0|0:0,0:0:0:0:
94,182,83368,1,8,0:0:0:0:
173,328,83550,1,0,0:0:0:0:
176,107,83732,6,0,P|108:75|14:115,1,180,4|8,0:1|0:0,0:0:0:0:
99,171,84277,1,2,0:0:0:0:
253,61,84459,2,0,P|342:68|458:66,1,180,8|8,0:0|0:0,0:0:0:0:
369,168,85004,1,2,0:0:0:0:
493,158,85186,6,0,P|474:193|468:251,1,90,4|0,0:1|0:0,0:0:0:0:
338,343,85550,2,0,P|332:298|312:258,1,90,8|0,0:0|0:0,0:0:0:0:
153,120,85913,2,0,L|140:209,1,90,8|0,0:0|3:0,0:0:0:0:
37,344,86186,1,0,0:0:0:0:
37,361,86277,2,0,L|117:357,1,45,8|0,0:0|0:0,0:0:0:0:
157,303,86459,2,0,L|201:305,1,45,8|0,0:0|0:0,0:0:0:0:
288,343,86641,5,4,0:0:0:0:
256,192,86732,12,4,87974,0:0:0:0:
