osu file format v14

[General]
AudioFilename: audio.mp3
AudioLeadIn: 0
PreviewTime: 54823
Countdown: 0
SampleSet: Soft
StackLeniency: 0.5
Mode: 0
LetterboxInBreaks: 0
WidescreenStoryboard: 1

[Editor]
Bookmarks: 24095
DistanceSpacing: 0.6
BeatDivisor: 4
GridSize: 32
TimelineZoom: 2.299999

[Metadata]
Title:Hitorigoto
TitleUnicode:ヒトリゴト
Artist:Sati Akura
ArtistUnicode:Sati Akura
Creator:Namki
Version:Collab Insane
Source:エロマンガ先生
Tags:eromanga sensei uta komore schoolboy opening russian cover shmiklak marvollo ailv fanteer
BeatmapID:1562113
BeatmapSetID:738011

[Difficulty]
HPDrainRate:6.5
CircleSize:3.5
OverallDifficulty:7.7
ApproachRate:8.5
SliderMultiplier:1.6
SliderTickRate:1

[Events]
//Background and Video events
0,0,"eromanga.jpg",0,0
//Break Periods
//Storyboard Layer 0 (Background)
//Storyboard Layer 1 (Fail)
//Storyboard Layer 2 (Pass)
//Storyboard Layer 3 (Foreground)
//Storyboard Sound Samples

[TimingPoints]
823,363.636363636364,4,2,1,60,1,0
823,-111.111111111111,4,2,1,60,0,0
14823,-200,4,2,1,60,0,0
15368,-111.111111111111,4,2,1,60,0,0
17732,-200,4,2,1,60,0,0
18277,-111.111111111111,4,2,1,60,0,0
20641,-200,4,2,1,60,0,0
21186,-111.111111111111,4,2,1,60,0,0
24095,-125,4,2,2,60,0,0
35732,-142.857142857143,4,2,2,60,0,0
41550,-125,4,2,1,60,0,0
54641,-100,4,2,1,60,0,1
86641,-100,4,2,1,60,0,0

[Colours]
Combo1 : 255,197,100
Combo2 : 122,233,181
Combo3 : 77,159,251
Combo4 : 242,91,96

[HitObjects]
128,160,823,5,4,0:1:0:0:
329,132,1004,1,4,0:1:0:0:
448,256,2277,5,4,0:1:0:0:
245,83,2458,1,4,0:1:0:0:
335,341,3732,5,4,0:1:0:0:
369,77,3913,1,4,0:1:0:0:
128,320,5186,5,4,0:1:0:0:
128,320,5913,6,0,L|119:231,1,47.9999985351563,4|0,0:1|0:0,0:0:0:0:
231,220,6156,6,0,L|187:200,1,47.9999985351563,4|0,0:1|0:0,0:0:0:0:
218,342,6398,6,0,L|256:313,1,47.9999985351563,4|0,0:1|0:0,0:0:0:0:
384,160,6641,5,4,0:1:0:0:
195,115,6822,1,4,0:1:0:0:
64,256,8095,5,4,0:1:0:0:
264,91,8276,1,4,0:1:0:0:
183,342,9550,5,4,0:1:0:0:
155,54,9731,1,4,0:1:0:0:
128,32,11004,5,4,0:1:0:0:
128,32,11732,6,0,L|217:23,1,47.9999985351563,4|0,0:1|0:0,0:0:0:0:
228,135,11975,6,0,L|247:91,1,47.9999985351563,4|0,0:1|0:0,0:0:0:0:
106,122,12217,6,0,L|134:160,1,47.9999985351563,4|0,0:1|0:0,0:0:0:0:
274,237,12459,6,0,P|338:234|384:243,1,107.999996704102,4|0,0:1|0:0,0:0:0:0:
406,267,12823,2,0,L|399:168,1,71.9999978027344,8|0,0:0|0:0,0:0:0:0:
328,27,13186,1,8,0:0:0:0:
455,80,13368,1,2,0:0:0:0:
262,128,13550,1,8,0:0:0:0:
423,218,13732,6,0,P|463:212|510:208,1,71.9999978027344,2|8,0:0|0:0,0:0:0:0:
283,321,14095,2,0,P|319:324|355:330,1,71.9999978027344,2|8,0:0|0:0,0:0:0:0:
190,221,14459,2,0,P|230:215|277:211,1,71.9999978027344,2|8,0:0|0:0,0:0:0:0:
120,329,14823,6,0,P|80:322|40:318,1,80,2|2,0:0|0:0,0:0:0:0:
176,115,15368,6,0,P|192:169|184:240,1,107.999996704102,8|0,0:0|0:0,0:0:0:0:
215,245,15732,2,0,P|252:240|303:234,1,71.9999978027344,8|0,0:0|0:0,0:0:0:0:
441,308,16095,1,8,0:0:0:0:
380,198,16277,1,2,0:0:0:0:
343,367,16459,1,8,0:0:0:0:
478,220,16641,6,0,P|476:173|459:134,1,71.9999978027344,2|8,0:0|0:0,0:0:0:0:
317,88,17004,2,0,P|358:109|400:114,1,71.9999978027344,2|8,0:0|0:0,0:0:0:0:
511,17,17368,2,0,P|471:42|446:76,1,71.9999978027344,2|8,0:0|0:0,0:0:0:0:
301,187,17732,6,0,P|266:184|230:177,1,60,8|0,0:0|0:0,0:0:0:0:
218,155,18095,1,2,0:0:0:0:
376,371,18277,6,0,P|370:305|365:258,1,107.999996704102,8|0,0:0|0:0,0:0:0:0:
391,237,18641,2,0,P|435:242|472:236,1,71.9999978027344,8|0,0:0|0:0,0:0:0:0:
281,278,19004,1,8,0:0:0:0:
398,142,19186,1,2,0:0:0:0:
453,320,19368,1,8,0:0:0:0:
272,149,19550,6,0,P|274:112|284:64,1,71.9999978027344,2|8,0:0|0:0,0:0:0:0:
171,228,19913,2,0,P|168:191|159:143,1,71.9999978027344,2|8,0:0|0:0,0:0:0:0:
264,334,20277,2,0,P|266:297|276:249,1,71.9999978027344,2|8,0:0|0:0,0:0:0:0:
62,351,20641,6,0,P|107:348|154:344,1,80,0|2,0:0|0:0,0:0:0:0:
369,228,21186,6,0,P|370:166|351:109,1,107.999996704102,8|0,0:0|0:0,0:0:0:0:
331,96,21550,2,0,P|296:95|254:90,1,71.9999978027344,8|0,0:0|0:0,0:0:0:0:
88,176,21913,1,8,0:0:0:0:
165,48,22095,1,2,0:0:0:0:
206,227,22277,1,8,0:0:0:0:
79,159,22459,6,0,P|79:124|86:71,1,71.9999978027344,2|8,0:0|0:0,0:0:0:0:
197,261,22823,2,0,P|161:257|125:256,1,71.9999978027344,2|8,0:0|0:0,0:0:0:0:
229,134,23186,1,2,0:0:0:0:
229,134,23277,1,2,0:0:0:0:
229,134,23368,1,8,0:0:0:0:
352,256,23550,5,2,0:0:0:0:
377,280,23640,1,2,0:0:0:0:
412,289,23731,1,8,0:0:0:0:
446,281,23822,1,2,0:0:0:0:
473,257,23913,1,2,0:0:0:0:
485,224,24004,1,2,0:0:0:0:
480,188,24095,1,8,0:0:0:0:
461,166,24459,6,0,L|392:161,1,64,8|0,0:0|0:0,0:0:0:0:
288,260,24823,2,0,L|357:255,1,64,8|0,0:0|0:0,0:0:0:0:
253,152,25186,2,0,L|184:147,1,64,8|0,0:0|0:0,0:0:0:0:
338,79,25550,6,0,L|330:11,1,64,8|0,0:0|0:0,0:0:0:0:
245,215,25913,2,0,L|253:147,1,64,8|0,0:0|0:0,0:0:0:0:
374,313,26277,2,0,L|306:305,1,64,8|0,0:0|0:0,0:0:0:0:
510,220,26641,2,0,L|442:228,1,64,8|0,0:0|0:0,0:0:0:0:
258,146,27004,5,12,0:0:0:0:
310,305,27186,1,2,0:0:0:0:
348,95,27368,1,8,0:0:0:0:
239,234,27550,1,2,0:0:0:0:
156,72,27732,1,8,0:0:0:0:
258,146,27913,1,2,0:0:0:0:
53,254,28095,1,8,0:0:0:0:
91,133,28277,1,2,0:0:0:0:
167,324,28459,5,8,0:0:0:0:
53,254,28641,2,0,L|124:247,1,64,2|8,0:0|0:0,0:0:0:0:
243,347,29004,2,0,L|172:340,1,64,2|8,0:0|0:0,0:0:0:0:
319,191,29368,1,2,0:0:0:0:
181,167,29550,1,0,0:0:0:0:
278,282,29732,1,0,0:0:0:0:
278,282,29823,1,2,0:0:0:0:
278,282,29913,5,12,0:0:0:0:
287,269,30277,2,0,L|283:187,1,64,8|0,0:0|0:0,0:0:0:0:
372,80,30641,2,0,L|368:143,1,64,8|0,0:0|0:0,0:0:0:0:
453,267,31004,2,0,L|456:203,1,64,8|0,0:0|0:0,0:0:0:0:
346,57,31368,6,0,L|265:51,1,64,8|0,0:0|0:0,0:0:0:0:
126,131,31732,2,0,L|189:126,1,64,8|0,0:0|0:0,0:0:0:0:
350,199,32095,2,0,L|269:193,1,64,8|0,0:0|0:0,0:0:0:0:
130,273,32459,2,0,L|193:268,1,64,8|0,0:0|0:0,0:0:0:0:
25,329,32823,5,12,0:0:0:0:
70,172,33004,1,2,0:0:0:0:
174,366,33186,1,8,0:0:0:0:
226,192,33368,1,2,0:0:0:0:
55,317,33550,1,8,0:0:0:0:
224,287,33732,1,2,0:0:0:0:
48,187,33913,1,8,0:0:0:0:
226,155,34095,1,2,0:0:0:0:
61,296,34277,5,8,0:0:0:0:
149,153,34459,2,0,L|141:75,1,64,2|8,0:0|0:0,0:0:0:0:
63,232,34823,2,0,L|60:311,1,64,2|0,0:0|0:0,0:0:0:0:
231,378,35186,1,8,0:0:0:0:
203,232,35368,1,8,0:0:0:0:
118,370,35550,1,2,0:0:0:0:
118,370,35641,1,2,0:0:0:0:
118,370,35732,5,4,0:1:0:0:
105,356,36095,2,0,L|96:253,1,83.9999974365235,2|0,0:0|0:0,0:0:0:0:
123,246,36459,2,0,P|170:242|225:199,1,111.999996582031,8|2,0:0|0:0,0:0:0:0:
139,143,37004,1,8,0:0:0:0:
255,288,37186,6,0,P|302:297|378:276,1,111.999996582031,8|8,0:0|0:0,0:0:0:0:
437,189,37732,1,0,0:0:0:0:
314,48,37913,2,0,L|328:145,1,83.9999974365235,8|0,0:0|0:0,0:0:0:0:
299,157,38277,2,0,P|266:151|235:151,1,55.9999982910157,2|8,0:0|0:0,0:0:0:0:
26,222,38641,6,0,P|69:210|146:219,1,111.999996582031,8|2,0:0|0:0,0:0:0:0:
156,236,39368,2,0,L|150:300,1,55.9999982910157,8|0,0:0|0:0,0:0:0:0:
247,205,39732,2,0,L|241:149,1,55.9999982910157,2|0,0:0|0:0,0:0:0:0:
320,276,40095,5,8,0:0:0:0:
169,224,40277,1,8,0:0:0:0:
360,184,40459,1,8,0:0:0:0:
241,149,40641,1,0,0:0:0:0:
347,298,40823,6,8,L|395:286,2,37.3333321940105
278,366,41186,2,0,L|230:354,2,37.3333321940105,8|2|2,0:0|0:0|0:0,0:0:0:0:
250,267,41550,6,0,P|266:220|237:139,1,128,4|8,0:1|0:0,0:0:0:0:
153,79,42095,1,2,0:0:0:0:
293,16,42277,2,0,L|368:22,1,64,8|0,0:0|0:0,0:0:0:0:
411,180,42641,2,0,P|369:166|346:144,1,64,8|2,0:0|0:0,0:0:0:0:
147,104,43004,6,0,B|176:117|226:112|198:87|247:82|294:104,1,128,8|8,0:0|0:0,0:0:0:0:
254,254,43550,2,0,L|262:177,1,64,2|8,0:0|0:0,0:0:0:0:
155,310,43913,2,0,L|147:233,1,64,2|8,0:0|0:0,0:0:0:0:
248,364,44277,1,2,0:0:0:0:
60,345,44459,6,2,L|67:212,1,128,8|8,0:0|0:0,0:0:0:0:
185,148,45004,1,2,0:0:0:0:
64,81,45186,2,0,P|28:79|-9:78,1,64,8|0,0:0|0:0,0:0:0:0:
185,148,45550,2,0,P|215:142|255:139,1,64,8|2,0:0|0:0,0:0:0:0:
428,236,45913,6,0,P|393:210|283:214,1,128,8|8,0:0|0:0,0:0:0:0:
236,275,46459,2,0,L|242:338,1,64,2|8,0:0|0:0,0:0:0:0:
145,177,46822,2,0,L|138:240,1,64,2|8,0:0|0:0,0:0:0:0:
233,105,47186,1,2,0:0:0:0:
20,49,47368,6,0,L|157:38,1,128,4|8,0:1|0:0,0:0:0:0:
251,120,47913,1,2,0:0:0:0:
158,212,48095,2,0,P|118:205|89:194,1,64,8|0,0:0|0:0,0:0:0:0:
236,58,48459,2,0,P|246:88|250:119,1,64,8|2,0:0|0:0,0:0:0:0:
312,313,48823,6,0,P|318:228|338:171,1,128,8|8,0:0|0:0,0:0:0:0:
452,115,49368,1,2,0:0:0:0:
452,115,49550,2,0,L|443:42,1,64,8|2,0:0|0:0,0:0:0:0:
361,175,49913,1,8,0:0:0:0:
497,193,50095,1,2,0:0:0:0:
348,72,50277,6,0,P|296:62|202:88,1,128,8|8,0:0|0:0,0:0:0:0:
136,213,50823,1,2,0:0:0:0:
307,330,51004,2,0,L|284:175,1,128,8|8,0:0|0:0,0:0:0:0:
204,369,51550,1,2,0:0:0:0:
68,226,51732,6,0,P|66:195|59:154,1,64,4|0,0:1|0:0,0:0:0:0:
238,59,52095,2,0,P|233:91|231:123,1,64,8|0,0:0|0:0,0:0:0:0:
40,239,52459,2,0,P|38:208|31:167,1,64,8|0,0:0|0:0,0:0:0:0:
210,72,52822,2,0,P|205:104|203:136,1,64,8|0,0:0|0:0,0:0:0:0:
219,163,53095,1,2,0:0:0:0:
241,185,53186,5,4,0:1:0:0:
411,260,53368,2,0,L|411:158,1,96,4|0,0:1|0:0,0:0:0:0:
413,67,53732,1,4,0:1:0:0:
311,64,54641,6,0,P|266:61|222:52,1,80,4|2,0:1|0:0,0:0:0:0:
16,132,55004,2,0,P|55:124|95:122,1,80,8|0,0:0|0:0,0:0:0:0:
226,218,55368,1,8,0:0:0:0:
80,255,55550,1,2,0:0:0:0:
186,115,55732,2,0,P|198:69|196:25,1,80,8|2,0:0|0:0,0:0:0:0:
61,158,56095,5,8,0:0:0:0:
235,226,56277,2,0,P|276:219|333:212,1,80,2|8,0:0|0:0,0:0:0:0:
450,79,56641,2,0,P|411:101|373:104,1,80,2|8,0:0|0:0,0:0:0:0:
192,80,57004,1,2,0:0:0:0:
313,191,57186,1,8,0:0:0:0:
287,33,57368,1,2,0:0:0:0:
173,173,57550,6,0,P|176:215|180:256,1,80,4|2,0:1|0:0,0:0:0:0:
302,362,57913,2,0,P|305:322|308:282,1,80,8|2,0:0|0:0,0:0:0:0:
397,149,58277,1,8,0:0:0:0:
271,199,58459,1,2,0:0:0:0:
421,254,58641,1,8,0:0:0:0:
306,117,58823,1,2,0:0:0:0:
425,272,59004,6,0,L|517:267,1,80,8|2,0:0|0:0,0:0:0:0:
309,304,59368,1,8,0:0:0:0:
232,226,59550,2,0,L|243:134,1,80,2|8,0:0|0:0,0:0:0:0:
333,178,59913,1,10,0:0:0:0:
117,145,60095,1,10,0:0:0:0:
261,33,60277,1,10,0:0:0:0:
113,160,60459,6,0,L|18:161,1,80,4|2,0:1|0:0,0:0:0:0:
267,42,60823,2,0,L|362:43,1,80,8|2,0:0|0:0,0:0:0:0:
430,164,61186,1,8,0:0:0:0:
276,124,61368,1,2,0:0:0:0:
443,36,61550,1,8,0:0:0:0:
462,242,61732,6,0,P|415:246|369:222,1,80,2|8,0:0|0:0,0:0:0:0:
269,137,62095,1,2,0:0:0:0:
334,310,62277,1,8,0:0:0:0:
430,164,62459,1,2,0:0:0:0:
230,221,62641,2,0,L|224:303,1,80,8|0,0:0|0:0,0:0:0:0:
423,152,63004,2,0,L|417:72,1,80,8|0,0:0|0:0,0:0:0:0:
263,137,63368,6,0,P|210:141|175:124,1,80,4|0,0:1|0:0,0:0:0:0:
107,46,63732,2,0,P|160:50|195:33,1,80,4|0,0:1|0:0,0:0:0:0:
346,143,64095,6,0,P|308:155|269:149,1,80,4|0,0:1|0:0,0:0:0:0:
347,234,64459,2,0,P|385:246|425:240,1,80,4|0,0:1|0:0,0:0:0:0:
421,323,64823,5,8,0:0:0:0:
428,157,65004,1,2,0:0:0:0:
436,331,65186,1,8,0:0:0:0:
443,155,65368,1,2,0:0:0:0:
510,279,65550,5,4,0:0:0:0:
332,240,65732,1,2,3:0:0:0:
458,128,65913,1,4,0:0:0:0:
493,301,66095,1,2,3:0:0:0:
251,228,66277,6,0,L|262:134,1,80,4|2,0:1|0:0,0:0:0:0:
179,305,66641,1,8,0:0:0:0:
280,360,66823,2,0,L|374:354,1,80,2|8,0:0|0:0,0:0:0:0:
413,214,67186,1,2,0:0:0:0:
320,278,67368,1,8,0:0:0:0:
442,352,67550,1,0,0:0:0:0:
477,155,67732,6,0,P|440:131|389:136,1,80,4|2,0:1|0:0,0:0:0:0:
456,52,68095,1,8,0:0:0:0:
300,143,68277,1,2,0:0:0:0:
422,210,68459,1,8,0:0:0:0:
343,71,68641,5,2,0:0:0:0:
353,270,68823,1,8,0:0:0:0:
212,179,69004,2,0,L|200:99,1,80,2|8,0:0|0:0,0:0:0:0:
325,191,69368,5,2,0:0:0:0:
136,205,69550,1,8,0:0:0:0:
249,335,69732,1,2,0:0:0:0:
333,174,69913,2,0,L|429:181,1,80,8|2,0:0|0:0,0:0:0:0:
240,344,70277,2,0,L|144:351,1,80,8|2,0:0|0:0,0:0:0:0:
100,210,70641,5,8,0:0:0:0:
206,271,70823,1,0,0:0:0:0:
62,320,71004,1,8,0:0:0:0:
173,166,71186,2,0,L|252:172,1,80,2|8,0:0|0:0,0:0:0:0:
233,26,71550,1,10,0:0:0:0:
304,238,71732,1,10,0:0:0:0:
364,111,71913,1,10,0:0:0:0:
219,14,72095,6,0,L|214:102,1,80,4|0,0:1|0:0,0:0:0:0:
352,97,72459,1,8,0:0:0:0:
206,175,72641,1,0,0:0:0:0:
298,33,72823,1,8,0:0:0:0:
349,204,73004,1,2,0:0:0:0:
178,252,73186,2,0,P|138:220|124:185,1,80,8|2,0:0|0:0,0:0:0:0:
256,205,73550,5,8,0:0:0:0:
337,285,73732,2,0,P|343:330|344:375,1,80,2|8,0:0|0:0,0:0:0:0:
430,260,74095,1,2,0:0:0:0:
247,195,74277,2,0,P|327:177|413:179,1,160,8|8,0:0|0:0,0:0:0:0:
430,260,74823,1,2,0:0:0:0:
491,108,75004,6,0,L|390:96,1,80,4|0,0:1|0:0,0:0:0:0:
343,55,75368,2,0,L|242:43,1,80,8|0,0:0|0:0,0:0:0:0:
115,195,75732,6,0,L|216:183,1,80,4|0,0:1|0:0,0:0:0:0:
263,142,76096,2,0,L|364:130,1,80,8|2,0:0|0:0,0:0:0:0:
434,177,76459,6,0,P|451:234|426:305,1,120,4|0,0:1|0:0,0:0:0:0:
422,299,76823,2,0,L|334:297,1,80,8|2,0:0|0:0,0:0:0:0:
163,359,77186,2,0,L|251:357,1,80,8|0,0:0|0:0,0:0:0:0:
181,225,77550,1,8,0:0:0:0:
81,351,77732,1,2,0:0:0:0:
269,281,77913,6,0,L|276:195,2,80,4|0|8,0:1|0:0|0:0,0:0:0:0:
181,225,78459,1,2,0:0:0:0:
319,122,78641,2,0,L|409:133,1,80,8|0,0:0|0:0,0:0:0:0:
172,231,79004,2,0,L|82:242,1,80,8|2,0:0|0:0,0:0:0:0:
60,78,79368,6,0,P|134:78|222:139,1,160,4|8,0:1|0:0,0:0:0:0:
251,43,79913,1,2,0:0:0:0:
264,188,80095,2,0,L|261:286,1,80,8|0,0:0|0:0,0:0:0:0:
180,228,80459,1,8,0:0:0:0:
351,184,80641,1,2,0:0:0:0:
326,357,80823,6,0,L|158:334,1,160,4|8,0:1|0:0,0:0:0:0:
348,280,81368,1,2,0:0:0:0:
437,370,81550,2,0,P|427:325|428:287,1,80,8|0,0:0|0:0,0:0:0:0:
386,156,81913,1,8,0:0:0:0:
512,282,82095,1,2,0:0:0:0:
342,272,82277,6,0,L|239:277,1,80,4|0,0:1|0:0,0:0:0:0:
109,151,82641,2,0,L|212:156,1,80,8|0,0:0|0:0,0:0:0:0:
359,276,83004,2,0,L|365:175,1,80,8|0,0:0|0:0,0:0:0:0:
255,37,83368,2,0,L|259:116,1,80,8|0,0:0|0:0,0:0:0:0:
167,337,83732,6,0,P|134:310|130:177,1,160,4|8,0:1|0:0,0:0:0:0:
21,262,84277,1,2,0:0:0:0:
213,241,84459,2,0,B|278:245|278:245|316:265|316:265|384:269,1,160,8|8,0:0|0:0,0:0:0:0:
444,347,85004,1,2,0:0:0:0:
500,192,85186,6,0,L|400:198,1,80,4|0,0:1|0:0,0:0:0:0:
295,77,85550,2,0,L|395:83,1,80,8|0,0:0|0:0,0:0:0:0:
194,44,85913,2,0,L|210:139,1,80,8|0,0:0|3:0,0:0:0:0:
260,188,86277,2,0,L|300:192,2,40,8|0|8,0:0|0:0|0:0,0:0:0:0:
177,201,86550,5,0,0:0:0:0:
177,201,86641,1,4,0:0:0:0:
256,192,86732,12,4,87974,0:0:0:0:
