osu file format v14

[General]
AudioFilename: audio.mp3
AudioLeadIn: 0
PreviewTime: 63701
Countdown: 0
SampleSet: Soft
StackLeniency: 0.7
Mode: 0
LetterboxInBreaks: 0
WidescreenStoryboard: 1

[Editor]
DistanceSpacing: 1
BeatDivisor: 4
GridSize: 16
TimelineZoom: 2.2

[Metadata]
Title:hakushu kassai utaawase
TitleUnicode:拍手喝采歌合
Artist:Sati Akura
ArtistUnicode:Sati Akura
Creator:-Rmdy
Version:Normal
Source:刀語
Tags:katanagatari op opening ryo koeda russian short cut tv edit size supercell русский cover TheMefisto
BeatmapID:1397881
BeatmapSetID:660130

[Difficulty]
HPDrainRate:3
CircleSize:3
OverallDifficulty:3
ApproachRate:4
SliderMultiplier:1
SliderTickRate:1

[Events]
//Background and Video events
0,0,"katanagatari.jpg",0,0
//Break Periods
2,23229,25735
2,78991,80345
//Storyboard Layer 0 (Background)
//Storyboard Layer 1 (Fail)
//Storyboard Layer 2 (Pass)
//Storyboard Layer 3 (Foreground)
//Storyboard Sound Samples

[TimingPoints]
1941,571.428571428571,4,2,1,30,1,0
1941,-107.52688172043,4,2,1,30,0,0
3083,594.059405940594,4,2,1,30,1,0
3083,-103.092783505155,4,2,1,30,0,0
4271,600,4,2,1,30,1,0
4271,-102.040816326531,4,2,1,30,0,0
6071,588.235294117647,4,2,1,30,1,0
6071,-104.166666666667,4,2,1,30,0,0
6659,612.244897959184,4,2,1,30,1,0
7883,594.059405940594,4,2,1,30,1,0
7883,-103.092783505155,4,2,1,30,0,0
8477,612.244897959184,4,2,1,30,1,0
9701,566.037735849057,4,2,1,30,1,0
9701,-108.695652173913,4,2,1,30,0,0
9984,659.340659340659,4,2,1,30,1,0
9984,-92.5925925925926,4,2,1,30,0,0
10313,582.52427184466,4,2,1,30,1,0
10313,-105.263157894737,4,2,1,30,0,0
11186,612.244897959184,4,2,1,30,1,0
13252,639.658848614073,4,2,1,30,1,0
13252,-96.1538461538461,4,2,1,30,0,0
13935,540.540540540541,4,2,1,30,1,0
13935,-113.636363636364,4,2,1,30,0,0
14475,612.244897959184,4,2,1,30,1,0
14781,645.161290322581,4,2,1,30,1,0
14781,-95.2380952380952,4,2,1,30,0,0
15103,612.244897959184,4,2,1,30,1,0
17517,666.666666666667,4,2,1,30,1,0
17517,-91.743119266055,4,2,1,30,0,0
18850,725.513905683192,4,2,1,30,1,0
18850,-84.0336134453781,4,2,1,30,0,0
19575,357.142857142857,4,2,1,30,1,0
19575,-172.413793103448,4,2,1,30,0,0
19932,419.58041958042,4,2,1,30,1,0
19932,-144.927536231884,4,2,1,30,0,0
20351,759.493670886076,4,2,1,30,1,0
20351,-80.6451612903226,4,2,1,30,0,0
21110,370.37037037037,4,2,1,30,1,0
21110,-166.666666666667,4,2,1,30,0,0
21480,468.75,4,2,1,30,1,0
21480,-129.87012987013,4,2,1,30,0,0
21948,1081.08108108108,4,2,1,30,1,0
21948,-56.4971751412429,4,2,1,30,0,0
23029,1006.71140939597,4,2,1,30,1,0
23029,-60.9756097560976,4,2,1,30,0,0
27055,359.281437125748,4,2,1,50,1,1
27055,-100,4,2,1,50,0,1
38552,-111.111111111111,4,2,1,30,0,0
40707,-111.111111111111,4,2,1,15,0,0
41066,-111.111111111111,4,2,1,30,0,0
43581,-111.111111111111,4,2,1,15,0,0
44300,-111.111111111111,4,2,1,30,0,0
46456,-111.111111111111,4,2,1,15,0,0
46815,-111.111111111111,4,2,1,30,0,0
49689,-111.111111111111,4,2,1,45,0,0
50049,-100,4,2,1,45,0,0
61546,-100,4,2,1,25,0,0
61905,-100,4,2,2,30,0,0
62264,-100,4,2,2,35,0,0
62623,-100,4,2,1,40,0,0
62983,-100,4,2,1,45,0,0
64420,-100,4,2,1,50,0,1
77354,-100,4,2,1,30,0,1
77713,-100,4,2,1,5,0,1
78072,-100,4,2,1,20,0,1
78432,-100,4,2,1,5,0,1
78791,-100,4,2,1,30,0,0
81665,-100,4,2,1,50,0,0
82204,-100,4,2,1,30,0,0
82384,-100,4,2,1,50,0,0
82923,-100,4,2,1,30,0,0
83102,-100,4,2,1,50,0,0
83641,-100,4,2,1,30,0,0
83821,-100,4,2,1,50,0,0

[Colours]
Combo1 : 255,255,74
Combo2 : 174,0,0
Combo3 : 255,119,53

[HitObjects]
437,139,1941,6,0,P|407:224|308:283,1,186.000005818176
145,227,4271,1,2,0:0:0:0:
101,139,4871,6,0,L|93:90,2,48.9999995513916
196,114,6071,2,0,L|196:66,2,48.000001171875
295,104,7271,2,0,L|303:55,2,50,0|0|2,0:0|0:0|0:0,0:0:0:0:
394,111,8477,6,0,L|410:64,2,50,0|0|2,0:0|0:0|0:0,0:0:0:0:
403,210,9701,2,0,L|387:253,1,45.9999984558106
345,286,10313,1,0,0:0:0:0:
263,240,10895,2,0,P|239:234|216:232,1,47.4999987316132
167,242,11492,2,0,L|167:142,2,100,0|0|2,0:0|0:0|0:0,0:0:0:0:
67,263,13252,6,0,L|67:209,1,51.9999996826172
71,151,13935,2,0,P|60:110|25:81,1,88.0000026855469,2|0,0:0|0:0,0:0:0:0:
116,30,15103,2,0,P|178:48|240:43,1,100
313,42,16327,2,0,P|362:44|410:59,1,100
482,121,17517,1,2,0:0:0:0:
456,227,18183,6,0,L|403:242,1,54.5000005821228
349,237,18850,2,0,P|290:228|232:239,1,118.999997639465,2|2,0:0|0:0,0:0:0:0:
188,279,19932,1,2,0:0:0:0:
124,254,20351,2,0,L|121:130,1,123.999995080567,2|2,0:0|0:0,0:0:0:0:
120,69,21480,1,2,0:0:0:0:
191,40,21948,6,0,P|277:56|363:37,1,177.000005739212,2|4,0:0|0:0,0:0:0:0:
152,268,27055,6,0,P|138:224|137:167,2,100,12|8|8,3:2|3:2|3:2,0:0:0:0:
243,310,28132,2,0,L|297:293,1,50,8|2,3:2|0:0,0:0:0:0:
333,268,28492,2,0,L|348:167,1,100,8|2,3:2|2:0,0:0:0:0:
252,139,29210,2,0,L|237:38,1,100,8|2,3:2|2:0,0:0:0:0:
283,19,29749,1,2,0:0:0:0:
323,49,29929,6,0,P|372:57|435:41,1,100,8|2,3:2|2:0,0:0:0:0:
452,87,30468,1,2,0:0:0:0:
472,133,30647,2,0,L|461:236,1,100,8|2,3:2|2:0,0:0:0:0:
398,310,31366,1,8,3:2:0:0:
301,334,31725,1,8,3:2:0:0:
213,286,32084,2,0,P|158:274|63:291,1,150,8|2,3:2|2:0,0:0:0:0:
19,306,32803,6,0,L|35:200,1,100,12|8,3:2|3:2,0:0:0:0:
105,136,33522,1,8,3:2:0:0:
204,136,33881,1,8,3:2:0:0:
275,207,34240,2,0,L|289:305,2,100,8|8|8,3:2|3:2|3:2,0:0:0:0:
309,113,35318,2,0,P|334:108|363:108,1,50,8|2,3:2|0:0,0:0:0:0:
404,128,35677,1,8,3:2:0:0:
256,192,35857,12,4,37833,3:2:0:0:
136,320,38552,6,0,P|81:197|129:72,1,269.999991760254,4|0,0:0|0:0,0:0:0:0:
207,114,39989,2,0,B|268:134|316:131|378:91,1,179.999994506836,2|0,0:0|0:0,0:0:0:0:
425,168,41066,1,0,0:0:0:0:
456,253,41426,2,0,B|409:269|370:248|349:217|349:217|299:199|251:201|202:241,1,269.999991760254,2|0,0:0|0:0,0:0:0:0:
174,319,42863,2,0,P|122:262|147:169,1,179.999994506836,2|2,0:0|0:0,0:0:0:0:
288,337,44300,6,0,B|324:160|324:160|278:78,1,269.999991760254,2|0,0:0|0:0,0:0:0:0:
191,71,45737,2,0,B|256:115|335:68|342:7,1,179.999994506836,2|2,0:0|0:0,0:0:0:0:
427,42,46815,1,0,0:0:0:0:
441,131,47174,2,0,L|363:176,1,89.9999972534181,2|0,0:0|0:0,0:0:0:0:
276,197,47893,6,0,L|186:201,1,89.9999972534181,2|0,0:0|0:0,0:0:0:0:
99,226,48611,2,0,P|152:295|239:305,1,179.999994506836,2|4,0:0|0:0,0:0:0:0:
323,339,49689,1,4,3:0:0:0:
411,292,50049,6,0,P|401:243|413:195,1,100,12|8,3:2|3:2,0:0:0:0:
414,95,50767,2,0,P|376:59|312:43,1,100,8|2,3:2|2:0,0:0:0:0:
249,101,51486,2,0,P|200:110|152:98,2,100,8|2|8,3:2|2:0|3:2,0:0:0:0:
331,156,52563,1,2,2:0:0:0:
284,244,52923,6,0,L|184:230,1,100,8|8,3:2|3:2,0:0:0:0:
128,312,53641,2,0,L|28:326,1,100,8|2,3:2|2:0,0:0:0:0:
66,232,54360,2,0,P|79:182|72:122,1,100,8|2,3:2|2:0,0:0:0:0:
20,50,55078,2,0,P|70:34|126:47,1,100,8|2,3:2|2:0,0:0:0:0:
175,122,55797,6,0,P|223:129|270:114,1,100,8|8,3:2|3:2,0:0:0:0:
358,64,56516,1,8,3:2:0:0:
389,159,56875,1,8,3:2:0:0:
350,251,57234,2,0,L|358:353,1,100,8|8,3:2|3:2,0:0:0:0:
451,314,57953,2,0,L|459:212,1,100,8|8,3:2|3:2,0:0:0:0:
438,116,58671,5,8,3:2:0:0:
350,164,59030,1,8,3:2:0:0:
262,212,59390,2,0,P|207:213|153:188,1,100,8|8,3:2|3:2,0:0:0:0:
83,139,60108,2,0,L|81:244,1,100,8|8,3:2|3:2,0:0:0:0:
138,321,60827,2,0,B|187:335|187:335|234:321,1,100,8|8,3:2|3:2,0:0:0:0:
330,347,61546,6,0,B|363:342|395:325|409:293|409:293|359:284|338:263|329:240|329:240|369:218|385:188|380:132,1,300,4|4,3:1|3:1,0:0:0:0:
310,89,62983,2,0,P|286:125|280:166,2,75,8|8|8,3:1|3:1|3:1,0:0:0:0:
343,51,63701,2,0,P|296:25|245:21,1,100,4|4,1:0|1:0,0:0:0:0:
165,74,64420,6,0,B|153:121|153:121|153:181,1,100,12|8,3:2|3:2,0:0:0:0:
188,208,64959,1,2,0:0:0:0:
226,240,65138,2,0,B|226:291|226:291|214:338,1,100,8|8,3:2|3:2,0:0:0:0:
119,371,65857,1,8,3:2:0:0:
24,339,66216,2,0,B|12:292|12:292|12:240,1,100,8|8,3:2|3:2,0:0:0:0:
16,140,66935,2,0,P|52:148|77:163,1,50,8|2,3:2|0:0,0:0:0:0:
99,190,67294,6,0,P|154:185|193:160,1,100,8|8,3:2|3:2,0:0:0:0:
227,127,67833,1,2,0:0:0:0:
265,94,68013,2,0,P|320:99|359:124,1,100,8|8,3:2|3:2,0:0:0:0:
377,220,68731,2,0,L|356:325,2,100,8|8|8,3:2|3:2|3:2,0:0:0:0:
452,154,69809,1,8,3:2:0:0:
432,56,70168,6,0,P|381:25|332:25,2,100,8|8|8,3:2|3:2|3:2,0:0:0:0:
357,122,71246,2,0,L|300:92,1,50,8|2,3:2|0:0,0:0:0:0:
264,86,71605,2,0,P|259:141|282:188,2,100,8|8|8,3:2|3:2|3:2,0:0:0:0:
183,27,72683,1,2,3:0:0:0:
126,110,73043,6,0,B|126:160|126:160|143:206,1,100,8|8,3:2|3:2,0:0:0:0:
177,244,73581,1,2,0:0:0:0:
211,281,73761,2,0,B|228:327|228:327|228:377,1,100,8|8,3:2|3:2,0:0:0:0:
328,377,74480,2,0,B|328:327|328:327|345:280,2,100,8|8|8,3:2|3:2|3:2,0:0:0:0:
428,373,75557,2,0,L|446:320,1,50,8|2,3:2|0:0,0:0:0:0:
460,277,75917,6,0,L|460:217,2,50,8|8|8,1:0|0:0|1:0,0:0:0:0:
369,236,76635,2,0,L|369:176,2,50,8|8|8,3:0|3:0|3:0,0:0:0:0:
278,195,77354,6,0,L|278:88,1,100,4|0,1:0|0:0,0:0:0:0:
183,65,78072,2,0,L|183:165,1,100,4|0,1:0|0:0,0:0:0:0:
183,265,78791,1,2,0:0:0:0:
194,53,81665,5,8,3:2:0:0:
364,159,82384,1,8,3:2:0:0:
258,329,83102,1,8,3:2:0:0:
88,223,83821,2,0,B|78:173|78:173|88:125|88:125|78:76,1,150,8|2,3:2|2:0,0:0:0:0:
55,31,84540,6,0,L|158:32,1,100,8|8,3:2|3:2,0:0:0:0:
235,90,85258,2,0,L|338:91,1,100,8|8,3:2|3:2,0:0:0:0:
409,157,85977,2,0,B|421:206|421:206|409:254,2,100,8|8|8,3:2|3:2|3:2,0:0:0:0:
328,216,87054,2,0,L|315:269,1,50,8|2,3:2|0:0,0:0:0:0:
304,312,87414,1,8,3:2:0:0:
256,192,87593,12,4,89569,3:2:0:0:
