osu file format v14

[General]
AudioFilename: audio.mp3
AudioLeadIn: 0
PreviewTime: 63701
Countdown: 0
SampleSet: Soft
StackLeniency: 0.7
Mode: 0
LetterboxInBreaks: 0
WidescreenStoryboard: 1

[Editor]
DistanceSpacing: 1.4
BeatDivisor: 4
GridSize: 16
TimelineZoom: 2.2

[Metadata]
Title:hakushu kassai utaawase
TitleUnicode:拍手喝采歌合
Artist:Sati Akura
ArtistUnicode:Sati Akura
Creator:-Rmdy
Version:Hyper
Source:刀語
Tags:katanagatari op opening ryo koeda russian short cut tv edit size supercell русский cover TheMefisto
BeatmapID:1397879
BeatmapSetID:660130

[Difficulty]
HPDrainRate:5
CircleSize:4
OverallDifficulty:7
ApproachRate:7.5
SliderMultiplier:1.5
SliderTickRate:1

[Events]
//Background and Video events
0,0,"katanagatari.jpg",0,0
//Break Periods
2,23229,24720
//Storyboard Layer 0 (Background)
//Storyboard Layer 1 (Fail)
//Storyboard Layer 2 (Pass)
//Storyboard Layer 3 (Foreground)
//Storyboard Sound Samples

[TimingPoints]
1941,571.428571428571,4,2,1,30,1,0
1941,-166.666666666667,4,2,1,30,0,0
2798,-166.666666666667,4,2,1,15,0,0
3083,594.059405940594,4,2,1,30,1,0
3083,-166.666666666667,4,2,1,30,0,0
3974,-166.666666666667,4,2,1,15,0,0
4271,600,4,2,1,30,1,0
4271,-133.333333333333,4,2,1,30,0,0
6071,588.235294117647,4,2,1,30,1,0
6659,612.244897959184,4,2,1,30,1,0
6659,-133.333333333333,4,2,1,30,0,0
7883,594.059405940594,4,2,1,30,1,0
8477,612.244897959184,4,2,1,30,1,0
8477,-133.333333333333,4,2,1,30,0,0
9701,566.037735849057,4,2,1,30,1,0
9984,659.340659340659,4,2,1,30,1,0
10313,582.52427184466,4,2,1,30,1,0
10313,-133.333333333333,4,2,1,30,0,0
11186,612.244897959184,4,2,1,30,1,0
11186,-133.333333333333,4,2,1,30,0,0
13252,639.658848614073,4,2,1,30,1,0
13935,540.540540540541,4,2,1,30,1,0
13935,-133.333333333333,4,2,1,30,0,0
14475,612.244897959184,4,2,1,30,1,0
14475,-133.333333333333,4,2,1,30,0,0
14781,645.161290322581,4,2,1,30,1,0
15103,612.244897959184,4,2,1,30,1,0
15103,-133.333333333333,4,2,1,30,0,0
17517,666.666666666667,4,2,1,30,1,0
17517,-133.333333333333,4,2,1,30,0,0
18850,725.513905683192,4,2,1,30,1,0
18850,-133.333333333333,4,2,1,30,0,0
19575,357.142857142857,4,2,1,30,1,0
19932,419.58041958042,4,2,1,30,1,0
20351,759.493670886076,4,2,1,30,1,0
20351,-133.333333333333,4,2,1,30,0,0
21110,370.37037037037,4,2,1,30,1,0
21480,468.75,4,2,1,30,1,0
21948,1081.08108108108,4,2,1,30,1,0
21948,-133.333333333333,4,2,1,30,0,0
23029,1006.71140939597,4,2,1,30,1,0
23029,-200,4,2,1,30,0,0
25545,-200,4,2,1,5,0,0
25671,-200,4,2,1,10,0,0
25797,-200,4,2,1,14,0,0
25923,-200,4,2,1,18,0,0
26049,-200,4,2,1,22,0,0
26174,-200,4,2,1,26,0,0
26300,-200,4,2,1,30,0,0
26426,-200,4,2,1,34,0,0
26552,-200,4,2,1,38,0,0
26678,-200,4,2,1,42,0,0
26804,-200,4,2,1,46,0,0
26930,-200,4,2,1,50,0,0
27055,359.281437125748,4,2,1,50,1,1
27055,-80,4,2,1,50,0,1
32084,-80,4,2,1,18,0,1
32174,-80,4,2,1,22,0,1
32264,-80,4,2,1,26,0,1
32354,-80,4,2,1,30,0,1
32444,-80,4,2,1,34,0,1
32534,-80,4,2,1,38,0,1
32623,-80,4,2,1,42,0,1
32713,-80,4,2,1,46,0,1
32803,-80,4,2,1,50,0,1
38552,-117.647058823529,4,2,1,30,0,0
39989,-166.666666666667,4,2,1,30,0,0
40707,-166.666666666667,4,2,1,15,0,0
41066,-117.647058823529,4,2,1,30,0,0
41336,-117.647058823529,4,2,1,5,0,0
41426,-117.647058823529,4,2,1,30,0,0
41785,-117.647058823529,4,2,1,5,0,0
41965,-117.647058823529,4,2,1,30,0,0
42863,-166.666666666667,4,2,1,30,0,0
43581,-166.666666666667,4,2,1,15,0,0
44300,-117.647058823529,4,2,1,30,0,0
45737,-166.666666666667,4,2,1,30,0,0
46456,-166.666666666667,4,2,1,15,0,0
46815,-117.647058823529,4,2,1,30,0,0
47534,-117.647058823529,4,2,1,5,0,0
47713,-117.647058823529,4,2,1,30,0,0
48611,-153.846153846153,4,2,1,30,0,0
49689,-117.647058823529,4,2,1,45,0,0
50049,-90.9090909090909,4,2,1,45,0,0
60827,-90.9090909090909,4,2,1,41,0,0
60917,-90.9090909090909,4,2,1,39,0,0
61007,-90.9090909090909,4,2,1,37,0,0
61096,-90.9090909090909,4,2,1,35,0,0
61186,-90.9090909090909,4,2,1,33,0,0
61276,-90.9090909090909,4,2,1,31,0,0
61366,-90.9090909090909,4,2,1,29,0,0
61456,-90.9090909090909,4,2,1,27,0,0
61546,-125,4,2,1,25,0,0
61905,-125,4,2,1,30,0,0
62264,-125,4,2,1,35,0,0
62623,-125,4,2,1,40,0,0
62983,-90.9090909090909,4,2,1,45,0,0
63701,-120.481927710843,4,2,1,45,0,0
64420,-80,4,2,1,50,0,1
69450,-80,4,2,1,18,0,1
69540,-80,4,2,1,22,0,1
69629,-80,4,2,1,26,0,1
69719,-80,4,2,1,30,0,1
69809,-80,4,2,1,34,0,1
69899,-80,4,2,1,38,0,1
69989,-80,4,2,1,42,0,1
70078,-80,4,2,1,46,0,1
70168,-80,4,2,1,50,0,1
76546,-80,4,2,1,48,0,1
76635,-80,4,2,1,46,0,1
76725,-80,4,2,1,44,0,1
76815,-80,4,2,1,42,0,1
76905,-80,4,2,1,40,0,1
76995,-80,4,2,1,38,0,1
77084,-80,4,2,1,36,0,1
77174,-80,4,2,1,34,0,1
77264,-80,4,2,1,32,0,1
77354,-166.666666666667,4,2,1,30,0,1
78072,-166.666666666667,4,2,1,20,0,1
78791,-125,4,2,1,30,0,0
81665,-100,4,2,1,50,0,0
82025,-100,4,2,1,30,0,0
82384,-100,4,2,1,50,0,0
82743,-100,4,2,1,30,0,0
83102,-100,4,2,1,50,0,0
84540,-90.9090909090909,4,2,1,50,0,0

[Colours]
Combo1 : 255,255,74
Combo2 : 174,0,0
Combo3 : 255,119,53

[HitObjects]
418,118,1941,6,0,L|281:101,1,134.999995880127
284,101,3083,2,0,L|336:225,1,134.999995880127
336,225,4271,6,0,L|224:211,1,112.500004291535,2|0,0:0|0:0,0:0:0:0:
218,211,5171,1,0,0:0:0:0:
212,211,5471,2,0,L|100:224,1,112.500004291535
95,225,6365,1,0,0:0:0:0:
91,222,6659,2,0,P|99:167|131:122,1,112.500004291535
131,121,7577,2,0,P|154:77|159:59,1,56.2500021457673,0|2,0:0|0:0,0:0:0:0:
217,223,8477,5,0,0:0:0:0:
217,223,8783,1,0,0:0:0:0:
217,223,9089,2,0,P|239:273|284:307,1,112.500004291535,2|0,0:0|0:0,0:0:0:0:
290,306,9984,1,0,0:0:0:0:
289,301,10313,2,0,P|296:246|328:201,1,112.500004291535
336,196,11186,1,0,0:0:0:0:
330,195,11492,2,0,P|285:161|262:110,2,112.500004291535,0|0|2,0:0|0:0|0:0,0:0:0:0:
374,90,13252,5,0,0:0:0:0:
374,90,13571,1,0,0:0:0:0:
374,90,13935,2,0,P|412:117|435:153,1,84.3750032186509,2|0,0:0|0:0,0:0:0:0:
432,147,14475,2,0,P|448:169|471:185,1,56.2500021457673
330,195,15103,2,0,P|325:241|305:279,1,84.3750032186509
309,273,15715,2,0,P|297:298|295:326,1,56.2500021457673
216,208,16327,2,0,P|173:227|130:229,1,84.3750032186509
138,229,16939,2,0,P|110:231|84:243,1,56.2500021457673
147,115,17517,1,2,0:0:0:0:
216,208,18183,6,0,P|243:205|269:193,1,56.2500021457673
269,193,18850,2,0,L|257:316,1,112.500004291535,2|2,0:0|0:0,0:0:0:0:
257,311,19932,1,2,0:0:0:0:
256,318,20351,2,0,L|358:272,1,112.500004291535,2|2,0:0|0:0,0:0:0:0:
364,267,21480,1,2,0:0:0:0:
371,264,21948,6,0,P|377:199|375:150,1,112.500004291535,2|4,0:0|0:0,0:0:0:0:
256,192,25545,12,0,26552,0:0:0:0:
393,293,27055,6,0,L|291:280,1,93.75,12|2,3:2|2:0,0:0:0:0:
293,275,27324,1,2,2:0:0:0:
285,268,27414,2,0,P|276:214|285:173,1,93.75,8|2,3:2|2:0,0:0:0:0:
361,101,27773,2,0,P|264:70|196:112,1,187.5,8|2,3:2|2:0,0:0:0:0:
183,219,28312,1,2,2:0:0:0:
90,149,28492,2,0,P|95:62|172:2,2,187.5,8|2|8,3:2|2:0|3:2,0:0:0:0:
291,175,29569,5,2,2:0:0:0:
183,219,29749,1,2,2:0:0:0:
90,149,29929,2,0,P|68:233|118:316,1,187.5,8|2,3:2|2:0,0:0:0:0:
183,219,30468,1,2,2:0:0:0:
234,325,30647,2,0,P|313:344|405:280,1,187.5,8|2,3:2|2:0,0:0:0:0:
403,172,31186,1,2,2:0:0:0:
303,110,31366,6,0,L|208:110,1,93.75,8|2,3:2|2:0,0:0:0:0:
201,115,31635,1,2,2:0:0:0:
192,120,31725,2,0,L|97:120,1,93.75,8|2,3:2|2:0,0:0:0:0:
41,217,32084,6,0,L|64:257,3,46.875,8|8|8|8,3:2|3:1|3:1|3:1,0:0:0:0:
111,266,32444,2,0,L|134:306,3,46.875,8|8|8|8,3:2|3:1|3:1|3:1,0:0:0:0:
181,315,32803,6,0,P|228:326|279:314,1,93.75,12|2,3:2|2:0,0:0:0:0:
281,314,33072,1,2,2:0:0:0:
290,310,33162,2,0,P|323:274|338:224,1,93.75,8|2,3:2|2:0,0:0:0:0:
179,134,33522,2,0,P|193:179|223:215,1,93.75,8|2,3:2|2:0,0:0:0:0:
392,133,33881,6,0,P|346:122|300:130,1,93.75,8|2,3:2|2:0,0:0:0:0:
301,130,34150,1,2,2:0:0:0:
301,130,34240,2,0,P|330:165|344:210,1,93.75,8|2,3:2|2:0,0:0:0:0:
186,141,34599,6,0,P|190:94|212:53,1,93.75,8|2,3:2|2:0,0:0:0:0:
212,53,34869,1,2,2:0:0:0:
212,53,34959,2,0,P|236:92|274:119,1,93.75,8|2,3:2|2:0,0:0:0:0:
442,20,35318,1,8,3:2:0:0:
387,118,35498,1,2,2:0:0:0:
444,214,35677,6,0,L|454:265,3,46.875,8|8|8|8,3:2|3:1|3:1|3:1,0:0:0:0:
375,273,36037,2,0,L|365:324,3,46.875,8|8|8|8,3:2|3:1|3:1|3:1,0:0:0:0:
293,276,36396,2,0,L|283:230,3,46.875,8|8|8|8,3:2|3:1|3:1|3:1,0:0:0:0:
206,246,36755,2,0,L|177:202,3,46.875,8|8|8|8,3:2|3:1|3:1|3:1,0:0:0:0:
113,250,37114,6,0,B|75:223|75:223|31:136,2,140.625,12|12|12,3:2|3:2|3:2,0:0:0:0:
206,246,37833,1,12,3:2:0:0:
0,247,38192,1,4,2:1:0:0:
206,246,38552,6,0,P|190:303|132:342,1,127.50000243187,4|0,0:0|0:0,0:0:0:0:
60,309,39090,1,0,0:0:0:0:
60,309,39270,2,0,L|69:244,1,63.7500012159348,0|0,0:0|0:0,0:0:0:0:
34,170,39629,2,0,L|25:105,1,63.7500012159348,0|0,0:0|0:0,0:0:0:0:
134,25,39989,2,0,B|105:125|157:103|131:202,1,179.999994506836,2|0,0:0|0:0,0:0:0:0:
221,82,41066,6,0,P|263:91|320:80,1,95.6250018239022
314,81,41426,2,0,P|301:144|316:205,1,127.50000243187,2|0,0:0|0:0,0:0:0:0:
384,263,41965,1,0,0:0:0:0:
384,263,42144,2,0,P|401:232|405:204,1,63.7500012159348,0|0,0:0|0:0,0:0:0:0:
449,132,42504,2,0,P|454:100|470:72,1,63.7500012159348,0|0,0:0|0:0,0:0:0:0:
493,211,42863,2,0,P|469:291|486:387,1,179.999994506836,2|2,0:0|0:0,0:0:0:0:
384,263,44300,6,0,P|321:251|244:262,1,127.50000243187,2|0,0:0|0:0,0:0:0:0:
203,196,44839,1,0,0:0:0:0:
204,190,45019,2,0,P|224:165|239:129,1,63.7500012159348,0|0,0:0|0:0,0:0:0:0:
323,123,45378,2,0,P|333:153|357:183,1,63.7500012159348,0|0,0:0|0:0,0:0:0:0:
396,49,45737,2,0,P|277:29|231:74,1,179.999994506836,2|2,0:0|0:0,0:0:0:0:
396,185,46815,5,0,0:0:0:0:
396,185,46995,1,0,0:0:0:0:
396,185,47174,2,0,L|382:315,1,127.50000243187,2|0,0:0|0:0,0:0:0:0:
300,327,47713,1,0,0:0:0:0:
295,323,47893,2,0,L|288:258,1,63.7500012159348,2|0,0:0|0:0,0:0:0:0:
200,247,48252,2,0,L|193:312,1,63.7500012159348,0|0,0:0|0:0,0:0:0:0:
95,177,48611,6,0,B|136:279|67:267|113:377,1,194.999991073609,2|4,0:0|0:0,0:0:0:0:
200,247,49689,5,4,3:0:0:0:
95,177,50049,6,0,L|74:91,1,82.5000025177003,12|2,3:2|2:0,0:0:0:0:
73,87,50318,1,2,2:0:0:0:
71,79,50408,2,0,P|114:86|153:77,1,82.5000025177003,8|2,3:2|2:0,0:0:0:0:
233,28,50767,2,0,L|220:198,1,165.000005035401,8|2,3:2|2:0,0:0:0:0:
213,282,51306,1,2,2:0:0:0:
215,186,51486,2,0,P|273:150|358:182,2,165.000005035401,8|2|8,3:2|2:0|3:2,0:0:0:0:
220,290,52384,1,2,2:0:0:0:
220,290,52563,1,2,2:0:0:0:
357,181,52923,6,0,L|368:100,1,82.5000025177003,8|2,3:2|2:0,0:0:0:0:
269,57,53282,2,0,L|280:138,1,82.5000025177003,8|2,3:2|2:0,0:0:0:0:
433,223,53641,2,0,L|455:59,1,165.000005035401,8|2,3:2|2:0,0:0:0:0:
368,99,54180,1,2,2:0:0:0:
352,194,54360,2,0,L|374:357,2,165.000005035401,8|2|8,3:2|2:0|3:2,0:0:0:0:
453,377,55438,6,0,P|415:359|375:356,1,82.5000025177003,2|2,2:0|2:0,2:0:0:0:
223,354,55797,2,0,P|263:321|290:251,1,123.75000377655,8|8,3:2|3:2,0:0:0:0:
289,255,56156,2,0,P|302:216|333:189,1,82.5000025177003,8|8,3:2|3:1,0:0:0:0:
167,243,56516,2,0,P|158:191|111:133,1,123.75000377655,8|8,3:2|3:2,0:0:0:0:
117,139,56875,2,0,P|90:107|82:67,1,82.5000025177003,8|8,3:2|3:1,0:0:0:0:
292,75,57234,6,0,L|169:70,1,123.75000377655,8|8,3:2|3:2,0:0:0:0:
168,69,57593,2,0,P|195:102|203:144,1,82.5000025177003,8|8,3:2|3:1,0:0:0:0:
51,243,57953,2,0,L|117:139,1,123.75000377655,8|8,3:2|3:2,0:0:0:0:
117,138,58312,2,0,P|75:145|35:130,1,82.5000025177003,8|8,3:2|3:1,0:0:0:0:
152,217,58671,6,0,P|212:206|270:225,1,123.75000377655,8|8,3:2|3:2,0:0:0:0:
270,225,59031,2,0,P|242:192|235:149,1,82.5000025177003,8|8,3:2|3:1,0:0:0:0:
407,93,59390,2,0,P|346:103|288:84,1,123.75000377655,8|8,3:2|3:2,0:0:0:0:
289,84,59750,2,0,P|316:116|323:159,1,82.5000025177003,8|8,3:2|3:1,0:0:0:0:
382,326,60108,6,0,P|371:265|390:207,1,123.75000377655,8|8,3:2|3:2,0:0:0:0:
391,208,60468,2,0,P|358:235|315:242,1,82.5000025177003,8|8,3:2|3:1,0:0:0:0:
236,206,60827,5,8,3:1:0:0:
215,207,60916,1,8,3:1:0:0:
195,214,61006,1,8,3:1:0:0:
178,225,61096,1,8,3:1:0:0:
165,240,61186,2,0,L|156:287,3,41.2500012588501,8|8|8|8,3:1|3:1|3:1|3:1,0:0:0:0:
151,302,61546,6,0,P|96:281|28:291,1,120,4|4,3:1|3:1,0:0:0:0:
68,184,62264,2,0,P|113:146|139:82,1,120,4|4,3:1|3:1,0:0:0:0:
210,171,62983,6,0,P|222:231|258:281,2,123.75000377655,8|8|8,3:1|3:1|3:1,0:0:0:0:
297,195,63701,2,0,P|336:241|392:266,1,124.500001804733,4|4,1:0|1:0,0:0:0:0:
317,63,64420,6,0,P|292:128|300:198,1,140.625,12|2,3:2|2:0,0:0:0:0:
301,199,64779,2,0,P|270:163|228:145,1,93.75,8|2,3:2|2:0,0:0:0:0:
199,377,65138,2,0,P|222:311|215:242,1,140.625,8|2,3:2|2:0,0:0:0:0:
212,238,65498,2,0,P|174:265|129:274,1,93.75,8|2,3:2|2:0,0:0:0:0:
292,304,65857,6,0,P|329:276|374:267,1,93.75,8|2,3:2|2:0,0:0:0:0:
384,270,66126,1,2,2:0:0:0:
392,275,66216,2,0,L|386:164,1,93.75,8|2,3:2|2:0,0:0:0:0:
297,73,66575,2,0,L|289:213,1,140.625,8|2,3:2|2:0,0:0:0:0:
288,222,66935,1,8,3:2:0:0:
239,132,67114,1,2,2:0:0:0:
135,129,67294,6,0,P|153:191|213:234,1,140.625,8|2,3:2|2:0,0:0:0:0:
212,233,67653,2,0,P|170:222|126:242,1,93.75,8|2,3:2|2:0,0:0:0:0:
243,136,68013,2,0,P|305:151|372:120,1,140.625,8|2,3:2|2:0,0:0:0:0:
372,121,68372,2,0,P|342:151|337:200,1,93.75,8|2,3:2|2:0,0:0:0:0:
295,16,68731,6,0,P|289:84|242:135,1,140.625,8|2,3:2|2:0,0:0:0:0:
242,135,69090,2,0,P|212:165|207:214,1,93.75,8|2,3:2|2:0,0:0:0:0:
273,306,69450,5,8,3:2:0:0:
251,297,69539,1,8,3:1:0:0:
227,294,69629,1,8,3:1:0:0:
204,295,69719,1,8,3:1:0:0:
181,300,69809,2,0,P|157:305|131:303,3,46.875,8|8|8|8,3:2|3:1|3:1|3:1,0:0:0:0:
112,298,70168,6,0,P|133:255|131:210,1,93.75,12|2,3:2|2:0,0:0:0:0:
128,201,70438,1,2,2:0:0:0:
124,191,70528,2,0,P|165:211|211:210,1,93.75,8|2,3:2|2:0,0:0:0:0:
244,28,70887,2,0,P|205:53|183:94,1,93.75,8|2,3:2|2:0,0:0:0:0:
184,105,71156,1,2,2:0:0:0:
186,114,71246,2,0,P|239:114|275:133,1,93.75,8|2,3:2|2:0,0:0:0:0:
251,343,71605,6,0,P|214:284|210:214,1,140.625,8|2,3:2|2:0,0:0:0:0:
212,210,71965,2,0,P|185:255|151:277,1,93.75,8|2,3:2|2:0,0:0:0:0:
54,115,72324,2,0,P|76:156|115:183,2,93.75,8|2|2,3:2|3:0|3:0,0:0:0:0:
186,111,72863,1,2,2:0:0:0:
99,327,73043,6,0,L|113:186,1,140.625,8|2,3:2|2:0,0:0:0:0:
113,182,73402,2,0,P|150:206|198:212,1,93.75,8|2,3:2|2:0,0:0:0:0:
322,82,73761,2,0,P|252:78|188:107,1,140.625,8|2,3:2|2:0,0:0:0:0:
186,111,74120,2,0,P|232:115|271:140,1,93.75,8|2,3:2|2:0,0:0:0:0:
471,170,74480,6,0,P|424:165|385:140,1,93.75,8|2,3:2|2:0,0:0:0:0:
378,135,74749,1,2,2:0:0:0:
372,128,74839,2,0,P|367:174|342:213,1,93.75,8|2,3:2|2:0,0:0:0:0:
225,72,75198,2,0,P|272:67|311:42,1,93.75,8|2,3:2|2:0,0:0:0:0:
318,37,75467,1,2,2:0:0:0:
324,30,75557,2,0,P|329:76|354:115,1,93.75,8|2,3:2|2:0,0:0:0:0:
458,69,75917,5,8,3:2:0:0:
456,92,76006,1,8,3:1:0:0:
454,115,76096,1,8,3:1:0:0:
452,139,76186,1,8,3:1:0:0:
450,163,76276,2,0,L|444:233,3,46.875,8|8|8|8,3:2|3:1|3:1|3:1,0:0:0:0:
443,233,76635,5,8,3:0:0:0:
435,255,76724,1,8,3:0:0:0:
422,274,76814,1,8,3:0:0:0:
405,290,76904,1,8,3:0:0:0:
385,302,76995,2,0,P|356:310|334:309,3,46.875,8|8|8|8,3:0|3:0|3:0|3:0,0:0:0:0:
318,302,77354,6,0,B|223:272|237:329|140:295,2,179.999994506836,4|4|2,1:0|1:0|0:0,0:0:0:0:
451,340,79060,5,0,0:0:0:0:
451,334,79150,2,0,L|441:275,1,60
400,201,79510,2,0,P|336:189|276:197,1,120,0|0,0:0|0:0,0:0:0:0:
200,215,80049,1,0,0:0:0:0:
200,215,80228,2,0,L|219:96,2,120,0|0|0,0:0|0:0|0:0,0:0:0:0:
66,125,81306,5,2,0:0:0:0:
73,47,81486,1,2,0:0:0:0:
81,140,81665,2,0,P|153:154|228:139,1,150,8|2,3:2|0:0,0:0:0:0:
299,85,82204,1,2,0:0:0:0:
206,134,82384,2,0,P|192:206|207:281,1,150,8|2,3:2|0:0,0:0:0:0:
261,352,82923,1,2,0:0:0:0:
211,258,83102,6,0,P|175:252|138:259,1,75,8|2,3:2|2:0,0:0:0:0:
129,265,83372,1,2,2:0:0:0:
120,259,83462,2,0,P|83:252|47:259,1,75,8|2,3:2|2:0,0:0:0:0:
80,359,83821,6,0,L|115:382,3,37.5,8|8|8|8,3:2|3:1|3:1|3:1,0:0:0:0:
142,358,84180,2,0,L|182:367,3,37.5,8|8|8|8,3:2|3:1|3:1|3:1,0:0:0:0:
199,335,84540,6,0,P|234:331|278:307,1,82.5000025177003,8|2,3:2|2:0,0:0:0:0:
280,303,84809,1,2,2:0:0:0:
285,296,84899,2,0,P|249:275|224:242,1,82.5000025177003,8|2,3:2|2:0,0:0:0:0:
334,116,85258,2,0,P|334:157|319:195,1,82.5000025177003,8|2,3:2|2:0,0:0:0:0:
154,162,85617,5,8,3:2:0:0:
240,54,85797,1,2,2:0:0:0:
240,54,85887,1,2,2:0:0:0:
240,54,85977,2,0,L|230:136,1,82.5000025177003,8|2,3:2|2:0,0:0:0:0:
316,28,86336,5,8,3:2:0:0:
402,135,86516,1,2,2:0:0:0:
402,135,86606,1,2,2:0:0:0:
402,135,86696,2,0,L|391:53,1,82.5000025177003,8|2,3:2|2:0,0:0:0:0:
477,160,87054,1,8,3:2:0:0:
377,233,87234,1,2,2:0:0:0:
292,143,87414,6,0,L|277:102,3,41.2500012588501,8|8|8|8,3:2|3:1|3:1|3:1,0:0:0:0:
202,137,87773,2,0,L|168:108,3,41.2500012588501,8|8|8|8,3:2|3:1|3:1|3:1,0:0:0:0:
144,196,88132,2,0,L|158:237,3,41.2500012588501,8|8|8|8,3:2|3:1|3:1|3:1,0:0:0:0:
78,257,88492,2,0,L|70:299,3,41.2500012588501,8|8|8|8,3:2|3:1|3:1|3:1,0:0:0:0:
150,320,88851,6,0,B|182:347|182:347|267:355,2,123.75000377655,12|12|12,3:2|3:2|3:2,0:0:0:0:
158,234,89569,1,12,3:2:0:0:
45,377,89929,1,4,2:1:0:0:
