osu file format v14

[General]
AudioFilename: audio.mp3
AudioLeadIn: 0
PreviewTime: 63701
Countdown: 0
SampleSet: Soft
StackLeniency: 0.7
Mode: 0
LetterboxInBreaks: 0
WidescreenStoryboard: 1

[Editor]
DistanceSpacing: 1.4
BeatDivisor: 4
GridSize: 16
TimelineZoom: 2.2

[Metadata]
Title:hakushu kassai utaawase
TitleUnicode:拍手喝采歌合
Artist:Sati Akura
ArtistUnicode:Sati Akura
Creator:-Rmdy
Version:Hard
Source:刀語
Tags:katanagatari op opening ryo koeda russian short cut tv edit size supercell русский cover TheMefisto
BeatmapID:1397878
BeatmapSetID:660130

[Difficulty]
HPDrainRate:4
CircleSize:3.5
OverallDifficulty:5
ApproachRate:6
SliderMultiplier:1.3
SliderTickRate:1

[Events]
//Background and Video events
0,0,"katanagatari.jpg",0,0
//Break Periods
2,23229,26005
//Storyboard Layer 0 (Background)
//Storyboard Layer 1 (Fail)
//Storyboard Layer 2 (Pass)
//Storyboard Layer 3 (Foreground)
//Storyboard Sound Samples

[TimingPoints]
1941,571.428571428571,4,2,1,30,1,0
1941,-107.52688172043,4,2,1,30,0,0
3083,594.059405940594,4,2,1,30,1,0
3083,-103.092783505155,4,2,1,30,0,0
4271,600,4,2,1,30,1,0
4271,-102.040816326531,4,2,1,30,0,0
6071,588.235294117647,4,2,1,30,1,0
6071,-104.166666666667,4,2,1,30,0,0
6659,612.244897959184,4,2,1,30,1,0
7883,594.059405940594,4,2,1,30,1,0
7883,-103.092783505155,4,2,1,30,0,0
8477,612.244897959184,4,2,1,30,1,0
9701,566.037735849057,4,2,1,30,1,0
9701,-108.695652173913,4,2,1,30,0,0
9984,659.340659340659,4,2,1,30,1,0
9984,-92.5925925925926,4,2,1,30,0,0
10313,582.52427184466,4,2,1,30,1,0
10313,-105.263157894737,4,2,1,30,0,0
11186,612.244897959184,4,2,1,30,1,0
13252,639.658848614073,4,2,1,30,1,0
13252,-96.1538461538461,4,2,1,30,0,0
13935,540.540540540541,4,2,1,30,1,0
13935,-113.636363636364,4,2,1,30,0,0
14475,612.244897959184,4,2,1,30,1,0
14781,645.161290322581,4,2,1,30,1,0
14781,-95.2380952380952,4,2,1,30,0,0
15103,612.244897959184,4,2,1,30,1,0
17517,666.666666666667,4,2,1,30,1,0
17517,-91.743119266055,4,2,1,30,0,0
18850,725.513905683192,4,2,1,30,1,0
18850,-84.0336134453781,4,2,1,30,0,0
19575,357.142857142857,4,2,1,30,1,0
19575,-172.413793103448,4,2,1,30,0,0
19932,419.58041958042,4,2,1,30,1,0
19932,-144.927536231884,4,2,1,30,0,0
20351,759.493670886076,4,2,1,30,1,0
20351,-80.6451612903226,4,2,1,30,0,0
21110,370.37037037037,4,2,1,30,1,0
21110,-166.666666666667,4,2,1,30,0,0
21480,468.75,4,2,1,30,1,0
21480,-129.87012987013,4,2,1,30,0,0
21948,1081.08108108108,4,2,1,30,1,0
21948,-56.4971751412429,4,2,1,30,0,0
23029,1006.71140939597,4,2,1,30,1,0
23029,-60.9756097560976,4,2,1,30,0,0
27055,359.281437125748,4,2,1,50,1,1
27055,-83.3333333333333,4,2,1,50,0,1
32084,-83.3333333333333,4,2,1,18,0,1
32174,-83.3333333333333,4,2,1,22,0,1
32264,-83.3333333333333,4,2,1,26,0,1
32354,-83.3333333333333,4,2,1,30,0,1
32444,-83.3333333333333,4,2,1,34,0,1
32534,-83.3333333333333,4,2,1,38,0,1
32623,-83.3333333333333,4,2,1,42,0,1
32713,-83.3333333333333,4,2,1,46,0,1
32803,-83.3333333333333,4,2,1,50,0,1
38552,-125,4,2,1,30,0,0
39989,-125,4,2,1,30,0,0
40707,-125,4,2,1,15,0,0
41066,-125,4,2,1,30,0,0
41336,-125,4,2,1,5,0,0
41426,-125,4,2,1,30,0,0
41785,-125,4,2,1,5,0,0
41965,-125,4,2,1,30,0,0
42863,-125,4,2,1,30,0,0
43581,-125,4,2,1,15,0,0
44300,-125,4,2,1,30,0,0
45737,-125,4,2,1,30,0,0
46456,-125,4,2,1,15,0,0
46815,-125,4,2,1,30,0,0
47534,-125,4,2,1,5,0,0
47713,-125,4,2,1,30,0,0
49689,-125,4,2,1,45,0,0
50049,-100,4,2,1,45,0,0
60827,-100,4,2,1,41,0,0
60917,-100,4,2,1,39,0,0
61007,-100,4,2,1,37,0,0
61096,-100,4,2,1,35,0,0
61186,-100,4,2,1,33,0,0
61276,-100,4,2,1,31,0,0
61366,-100,4,2,1,29,0,0
61456,-100,4,2,1,27,0,0
61546,-100,4,2,1,25,0,0
61905,-100,4,2,1,30,0,0
62264,-100,4,2,1,35,0,0
62623,-100,4,2,1,40,0,0
62983,-100,4,2,1,45,0,0
64420,-83.3333333333333,4,2,1,50,0,1
69450,-83.3333333333333,4,2,1,18,0,1
69540,-83.3333333333333,4,2,1,22,0,1
69629,-83.3333333333333,4,2,1,26,0,1
69719,-83.3333333333333,4,2,1,30,0,1
69809,-83.3333333333333,4,2,1,34,0,1
69899,-83.3333333333333,4,2,1,38,0,1
69989,-83.3333333333333,4,2,1,42,0,1
70078,-83.3333333333333,4,2,1,46,0,1
70168,-83.3333333333333,4,2,1,50,0,1
76546,-83.3333333333333,4,2,1,48,0,1
76635,-83.3333333333333,4,2,1,46,0,1
76725,-83.3333333333333,4,2,1,44,0,1
76815,-83.3333333333333,4,2,1,42,0,1
76905,-83.3333333333333,4,2,1,40,0,1
76995,-83.3333333333333,4,2,1,38,0,1
77084,-83.3333333333333,4,2,1,36,0,1
77174,-83.3333333333333,4,2,1,34,0,1
77264,-83.3333333333333,4,2,1,32,0,1
77354,-100,4,2,1,30,0,1
77893,-100,4,2,1,5,0,1
78072,-100,4,2,1,20,0,1
78611,-100,4,2,1,5,0,1
78791,-125,4,2,1,30,0,0
81665,-125,4,2,1,50,0,0
82025,-125,4,2,1,30,0,0
82384,-125,4,2,1,50,0,0
82743,-125,4,2,1,30,0,0
83102,-125,4,2,1,50,0,0

[Colours]
Combo1 : 255,255,74
Combo2 : 174,0,0
Combo3 : 255,119,53

[HitObjects]
166,349,1941,6,0,P|116:228|155:130,1,241.800007563629
408,141,4271,1,2,0:0:0:0:
419,268,4871,6,0,L|413:331,2,63.6999994168091
293,288,6071,2,0,L|297:350,2,62.4000015234375
164,268,7271,2,0,L|158:332,2,65,0|0|2,0:0|0:0|0:0,0:0:0:0:
212,151,8477,6,0,P|241:163|273:168,1,65
357,155,9089,1,2,0:0:0:0:
284,48,9701,2,0,P|256:36|227:30,1,59.7999979925538
138,45,10313,1,0,0:0:0:0:
50,132,10895,2,0,P|43:162|42:192,1,61.7499983510972
89,264,11492,2,0,L|218:270,2,130,0|0|2,0:0|0:0|0:0,0:0:0:0:
76,151,13252,6,0,L|143:153,1,67.5999995874024
243,163,13935,2,0,P|283:179|310:211,1,85.8000026184083,2|0,0:0|0:0,0:0:0:0:
312,218,14475,2,0,P|320:249|316:281,1,65
231,256,15103,2,0,P|210:303|171:334,1,97.5
169,333,15715,2,0,P|129:338|99:330,1,65
131,252,16327,2,0,P|83:231|53:193,1,97.5
54,190,16939,2,0,P|48:150|57:120,1,65
124,99,17517,1,2,0:0:0:0:
266,101,18183,6,0,P|260:137|261:172,1,70.8500007567597
317,246,18850,2,0,P|234:260|183:218,1,154.699996931305,2|2,0:0|0:0,0:0:0:0:
183,119,19932,1,2,0:0:0:0:
75,78,20351,2,0,P|91:142|76:234,1,161.199993604737,2|2,0:0|0:0,0:0:0:0:
35,329,21480,1,2,0:0:0:0:
160,361,21948,2,0,L|389:342,1,230.100007460976,2|4,0:0|0:0,0:0:0:0:
408,295,27055,6,0,P|357:267|293:262,1,116.999996429443,12|2,3:2|2:0,0:0:0:0:
295,263,27414,2,0,P|256:259|223:240,1,77.999997619629,8|2,3:2|2:0,0:0:0:0:
221,139,27773,2,0,P|153:167|121:241,1,155.999995239258,8|2,3:2|2:0,0:0:0:0:
172,327,28312,1,2,2:0:0:0:
265,369,28492,2,0,P|342:370|423:352,2,155.999995239258,8|2|8,3:2|2:0|3:2,0:0:0:0:
406,183,29569,6,0,P|414:141|413:93,1,77.999997619629,2|2,2:0|2:0,0:0:0:0:
359,20,29929,2,0,P|320:40|200:39,1,155.999995239258,8|2,3:2|2:0,0:0:0:0:
116,4,30468,1,2,2:0:0:0:
64,91,30647,2,0,L|77:251,1,155.999995239258,8|2,3:2|2:0,0:0:0:0:
150,317,31186,1,2,2:0:0:0:
223,246,31366,6,0,L|232:129,1,116.999996429443,8|2,3:2|2:0,0:0:0:0:
234,126,31725,2,0,P|267:108|311:105,1,77.999997619629,8|2,3:2|2:0,0:0:0:0:
387,167,32084,2,0,L|391:210,3,38.9999988098145,8|8|8|8,3:2|3:1|3:1|3:1,0:0:0:0:
363,228,32444,2,0,L|359:271,3,38.9999988098145,8|8|8|8,3:2|3:1|3:1|3:1,0:0:0:0:
340,296,32803,6,0,P|281:315|224:301,1,116.999996429443,12|2,3:2|2:0,0:0:0:0:
226,300,33162,2,0,L|218:222,1,77.999997619629,8|2,3:2|2:0,0:0:0:0:
289,148,33522,2,0,P|251:125|208:121,1,77.999997619629,8|2,3:2|2:0,0:0:0:0:
119,143,33881,6,0,L|109:20,1,116.999996429443,8|2,3:2|2:0,0:0:0:0:
109,22,34240,2,0,P|147:45|190:49,1,77.999997619629,8|2,3:2|2:0,0:0:0:0:
280,36,34599,2,0,P|333:29|406:42,1,116.999996429443,8|2,3:2|2:0,0:0:0:0:
397,42,34959,2,0,P|390:79|397:133,1,77.999997619629,8|2,3:2|2:0,0:0:0:0:
457,198,35318,2,0,P|460:236|453:274,1,77.999997619629,8|2,3:2|2:0,0:0:0:0:
364,324,35677,6,0,P|323:324|284:310,1,77.999997619629,8|8,1:0|0:0,0:0:0:0:
233,232,36037,2,0,P|273:232|313:218,1,77.999997619629,8|8,1:0|0:0,0:0:0:0:
401,162,36396,2,0,P|437:149|476:150,1,77.999997619629,8|8,1:0|0:0,0:0:0:0:
498,43,36755,2,0,P|461:55|422:54,1,77.999997619629,8|8,1:0|0:0,0:0:0:0:
326,104,37114,6,0,P|251:88|218:58,2,116.999996429443,12|12|12,3:2|3:2|3:2,0:0:0:0:
273,191,37833,2,0,P|177:211|134:249,1,155.999995239258,12|4,3:2|2:1,0:0:0:0:
68,26,38552,6,0,L|59:141,1,104,4|0,0:0|0:0,0:0:0:0:
54,197,39090,1,0,0:0:0:0:
62,264,39270,2,0,P|80:283|106:297,1,52
170,299,39629,2,0,P|195:292|220:277,1,52
268,233,39989,2,0,B|299:245|323:272|326:311|326:311|355:279|382:272|432:282,1,208,2|0,0:0|0:0,0:0:0:0:
443,113,41066,6,0,P|409:127|359:131,1,78
365,129,41426,2,0,P|325:96|274:90,1,104,2|0,0:0|0:0,0:0:0:0:
221,131,41965,2,0,P|194:141|164:143,2,52
264,183,42504,2,0,L|270:245,1,52
242,297,42863,2,0,B|131:340|151:265|40:309,1,208,2|0,0:0|0:0,0:0:0:0:
373,149,44300,6,0,P|321:147|274:168,1,104,2|0,0:0|0:0,0:0:0:0:
250,231,44839,1,0,0:0:0:0:
191,197,45019,2,0,P|158:197|131:207,1,52,0|0,0:0|0:0,0:0:0:0:
77,178,45378,2,0,P|78:152|87:128,1,52
153,107,45737,2,0,P|254:93|325:18,1,208,2|2,0:0|0:0,0:0:0:0:
304,178,46815,6,0,L|365:142,1,52
417,154,47174,2,0,P|423:204|413:273,1,104,2|0,0:0|0:0,0:0:0:0:
369,305,47713,2,0,L|376:362,2,52,0|2|0,0:0|0:0|0:0,0:0:0:0:
311,270,48252,2,0,P|283:266|245:270,1,52
199,298,48611,2,0,P|172:221|251:133,1,208,2|4,0:0|0:0,0:0:0:0:
369,305,49689,1,4,3:0:0:0:
415,157,50049,6,0,P|374:150|323:115,1,97.5,12|2,3:2|2:0,0:0:0:0:
326,117,50408,2,0,L|315:52,1,65,8|2,3:2|2:0,0:0:0:0:
234,95,50767,2,0,P|232:159|200:218,1,130,8|2,3:2|2:0,0:0:0:0:
123,263,51306,1,2,2:0:0:0:
164,336,51486,2,0,L|303:343,2,130,8|2|8,3:2|2:0|3:2,0:0:0:0:
79,336,52384,1,2,2:0:0:0:
0,306,52563,1,2,2:0:0:0:
108,183,52923,6,0,L|121:108,1,65,8|2,3:2|2:0,0:0:0:0:
208,98,53282,2,0,L|219:162,1,65,8|2,3:2|2:0,0:0:0:0:
308,183,53641,2,0,L|330:54,1,130,8|2,3:2|2:0,0:0:0:0:
412,14,54180,1,2,2:0:0:0:
462,90,54360,2,0,B|468:134|468:134|457:175|457:175|462:217,2,130,8|2|8,3:2|2:0|3:2,0:0:0:0:
386,256,55438,6,0,P|356:245|321:241,1,65,2|2,2:0|2:0,0:0:0:0:
238,274,55797,2,0,P|176:275|130:258,1,97.5,8|8,3:2|3:2,0:0:0:0:
140,262,56156,2,0,P|108:231|97:198,1,65,8|8,3:2|3:1,0:0:0:0:
179,166,56516,2,0,P|241:167|287:150,1,97.5,8|8,3:2|3:2,0:0:0:0:
277,154,56875,2,0,P|309:123|320:90,1,65,8|8,3:2|3:1,0:0:0:0:
401,69,57234,6,0,L|392:166,1,97.5,8|8,3:2|3:2,0:0:0:0:
393,170,57593,2,0,L|398:234,1,65,8|8,3:2|3:1,0:0:0:0:
407,326,57953,2,0,P|356:312|302:316,1,97.5,8|8,3:2|3:2,0:0:0:0:
309,316,58312,2,0,P|276:316|245:307,1,65,8|8,3:2|3:1,0:0:0:0:
225,219,58671,6,0,P|174:205|120:209,1,97.5,8|8,3:2|3:2,0:0:0:0:
127,209,59031,2,0,P|87:226|62:253,1,65,8|8,3:2|3:1,0:0:0:0:
32,158,59390,2,0,P|49:128|55:59,1,97.5,8|8,3:2|3:2,0:0:0:0:
56,62,59749,2,0,P|74:72|116:76,1,65,8|8,3:2|3:1,0:0:0:0:
206,54,60108,6,0,P|253:46|307:55,1,97.5,8|8,3:2|3:2,0:0:0:0:
305,55,60468,2,0,L|313:127,1,65,8|8,3:2|3:1,0:0:0:0:
312,210,60827,2,0,L|308:242,3,32.5,8|8|8|8,3:1|3:1|3:1|3:1,0:0:0:0:
287,263,61186,2,0,L|283:295,3,32.5,8|8|8|8,3:1|3:1|3:1|3:1,0:0:0:0:
262,316,61546,6,0,B|200:335|200:335|125:333,1,130,4|4,3:1|3:1,0:0:0:0:
18,240,62264,2,0,B|52:184|52:184|66:121,1,130,4|4,3:1|3:1,0:0:0:0:
225,61,62983,6,0,L|216:158,2,97.5,8|8|8,3:1|3:1|3:1,0:0:0:0:
313,85,63701,2,0,L|323:214,1,130,4|4,1:0|1:0,0:0:0:0:
105,324,64420,6,0,P|122:279|131:199,1,116.999996429443,12|2,3:2|2:0,0:0:0:0:
132,207,64779,2,0,P|174:232|208:236,1,77.999997619629,8|2,3:2|2:0,0:0:0:0:
279,312,65138,2,0,P|340:310|396:328,1,116.999996429443,8|2,3:2|2:0,0:0:0:0:
392,326,65498,2,0,P|383:279|391:245,1,77.999997619629,8|2,3:2|2:0,0:0:0:0:
440,162,65857,6,0,L|506:121,2,77.999997619629,8|2|8,3:2|2:0|3:2,0:0:0:0:
339,163,66396,1,2,2:0:0:0:
254,108,66575,2,0,P|207:94|133:104,1,116.999996429443,8|2,3:2|2:0,0:0:0:0:
137,105,66935,2,0,L|127:184,1,77.999997619629,8|2,3:2|2:0,0:0:0:0:
31,216,67294,6,0,L|38:337,1,116.999996429443,8|2,3:2|2:0,0:0:0:0:
39,337,67653,2,0,P|80:347|117:342,1,77.999997619629,8|2,3:2|2:0,0:0:0:0:
198,283,68013,2,0,P|214:237|209:163,1,116.999996429443,8|2,3:2|2:0,0:0:0:0:
209,165,68372,2,0,P|206:126|217:89,1,77.999997619629,8|2,3:2|2:0,0:0:0:0:
313,124,68731,6,0,P|350:135|430:116,1,116.999996429443,8|2,3:2|2:0,0:0:0:0:
429,117,69090,2,0,L|420:199,1,77.999997619629,8|2,3:2|2:0,0:0:0:0:
416,297,69450,1,8,3:2:0:0:
326,343,69629,1,8,3:1:0:0:
267,260,69809,2,0,L|222:252,3,38.9999988098145,8|8|8|8,3:2|3:1|3:1|3:1,0:0:0:0:
195,264,70168,6,0,P|159:271|106:268,2,77.999997619629,12|2|8,3:2|2:0|3:2,0:0:0:0:
242,174,70707,1,2,2:0:0:0:
192,84,70887,2,0,P|163:108|144:142,2,77.999997619629,8|2|8,3:2|2:0|3:2,0:0:0:0:
295,86,71426,1,2,2:0:0:0:
392,58,71605,6,0,P|381:120|387:179,1,116.999996429443,8|2,3:2|2:0,0:0:0:0:
387,178,71965,2,0,L|453:222,1,77.999997619629,8|2,3:2|2:0,0:0:0:0:
455,323,72324,1,8,3:2:0:0:
355,341,72504,1,2,3:0:0:0:
255,323,72683,2,0,P|235:289|230:243,1,77.999997619629,2|2,3:0|2:0,0:0:0:0:
286,166,73043,6,0,P|289:117|249:44,1,116.999996429443,8|2,3:2|2:0,0:0:0:0:
257,55,73402,2,0,L|179:37,1,77.999997619629,8|2,3:2|2:0,0:0:0:0:
105,106,73761,2,0,L|116:222,1,116.999996429443,8|2,3:2|2:0,0:0:0:0:
116,227,74120,2,0,L|108:304,1,77.999997619629,8|2,3:2|2:0,0:0:0:0:
203,343,74480,6,0,P|241:331|321:342,1,116.999996429443,8|2,3:2|2:0,0:0:0:0:
320,342,74839,2,0,L|316:264,1,77.999997619629,8|2,3:2|2:0,0:0:0:0:
368,177,75198,2,0,L|381:60,1,116.999996429443,8|2,3:2|2:0,0:0:0:0:
381,57,75557,2,0,P|345:71|300:70,1,77.999997619629,8|2,3:2|2:0,0:0:0:0:
210,37,75917,6,0,P|171:37|135:51,1,77.999997619629,8|8,1:0|0:0,0:0:0:0:
45,113,76276,2,0,P|83:113|119:127,1,77.999997619629,8|8,1:0|0:0,0:0:0:0:
210,189,76635,2,0,P|172:189|136:203,1,77.999997619629,8|8,3:0|3:0,0:0:0:0:
45,265,76995,2,0,P|83:265|119:279,1,77.999997619629,8|8,3:0|3:0,0:0:0:0:
241,283,77354,6,0,P|341:286|424:329,1,195,4|0,1:0|0:0,0:0:0:0:
433,238,78072,2,0,P|385:149|381:56,1,195,4|0,1:0|0:0,0:0:0:0:
293,90,78791,6,0,P|278:54|250:26,2,78,2|0|0,0:0|0:0|0:0,0:0:0:0:
243,164,79510,2,0,L|230:275,1,104
270,348,80049,1,0,0:0:0:0:
353,315,80228,2,0,L|457:313,2,104,0|0|0,0:0|0:0|0:0,0:0:0:0:
195,121,81306,6,0,L|214:169,1,52,2|2,0:0|0:0,0:0:0:0:
273,235,81665,2,0,P|300:188|295:135,1,104,8|2,3:2|0:0,0:0:0:0:
253,63,82204,1,2,0:0:0:0:
337,35,82384,2,0,L|437:60,1,104,8|2,3:2|0:0,0:0:0:0:
488,133,82923,1,2,0:0:0:0:
436,204,83102,6,0,L|446:281,1,78,8|2,3:2|2:0,0:0:0:0:
446,287,83462,2,0,L|439:338,1,52,8|2,3:2|2:0,0:0:0:0:
350,343,83821,2,0,L|327:320,3,26,8|8|8|8,3:2|3:1|3:1|3:1,0:0:0:0:
292,325,84180,2,0,L|269:302,3,26,8|8|8|8,3:2|3:1|3:1|3:1,0:0:0:0:
234,307,84540,6,0,P|194:292|145:298,1,78,12|2,3:2|2:0,0:0:0:0:
155,295,84899,2,0,P|125:297|84:284,1,52,8|2,3:2|2:0,0:0:0:0:
68,211,85258,2,0,L|76:151,1,52,8|2,3:2|2:0,0:0:0:0:
124,85,85617,6,0,P|165:73|213:76,1,78,8|2,3:2|2:0,0:0:0:0:
204,78,85977,2,0,L|227:134,1,52,8|2,3:2|2:0,0:0:0:0:
236,214,86336,2,0,P|277:226|325:223,1,78,8|2,3:2|2:0,0:0:0:0:
316,221,86695,2,0,L|335:172,1,52,8|2,3:2|2:0,0:0:0:0:
397,109,87054,2,0,P|414:134|423:161,1,52,8|2,3:2|2:0,0:0:0:0:
256,192,87414,12,4,89569,2:1:0:0:
