osu file format v14

[General]
AudioFilename: audio.mp3
AudioLeadIn: 0
PreviewTime: 50256
Countdown: 0
SampleSet: Soft
StackLeniency: 0.3
Mode: 0
LetterboxInBreaks: 0
WidescreenStoryboard: 1

[Editor]
Bookmarks: 456,12306,21906,31506,41106,50706,60306,69906,79506,88956
DistanceSpacing: 0.9
BeatDivisor: 2
GridSize: 32
TimelineZoom: 3.799999

[Metadata]
Title:GATE ~Sore wa Akatsuki no You ni~ (TV Size)
TitleUnicode:GATE~それは暁のように~ (TV Size)
Artist:Sati Akura
ArtistUnicode:Sati Akura
Creator:Djulus
Version:Normal
Source:GATE 自衛隊 彼の地にて、斯く戦えり
Tags:Akitoshi -laura- corinn MugiwaraSekai Irohas Slayed opening op short KISIDA KYODAN & THE AKEBOSI ROCKETS Rory russian Сати Акура русский cover кавер rock 岸田教団&THE明星ロケッツ -MikanMyMommy MikanMyMommy ゲート Gate: Jieitai Kano Chi nite, Kaku Tatakaeri and kishida kyoudan akeboshi Gate: Thus the Japanese Self-Defense Force Fought There JSDF Jieitai rokettu 1st season one anime аниме
BeatmapID:2236175
BeatmapSetID:1039456

[Difficulty]
HPDrainRate:3
CircleSize:3.4
OverallDifficulty:4
ApproachRate:5.5
SliderMultiplier:1
SliderTickRate:1

[Events]
//Background and Video events
0,0,"rrs.jpg",0,0
Video,-55,"video.mp4"
//Break Periods
//Storyboard Layer 0 (Background)
//Storyboard Layer 1 (Fail)
//Storyboard Layer 2 (Pass)
//Storyboard Layer 3 (Foreground)
//Storyboard Layer 4 (Overlay)
//Storyboard Sound Samples

[TimingPoints]
517,300,4,2,5,40,1,0
517,-100,4,2,5,40,0,0
1117,-100,4,2,5,40,0,0
1567,-100,4,2,5,60,0,0
2317,-100,4,2,5,60,0,0
2617,-100,4,2,5,60,0,0
3667,-100,4,2,5,60,0,0
3967,-100,4,2,5,60,0,0
9067,-100,4,2,5,50,0,0
9217,-100,4,2,5,55,0,0
9367,-100,4,2,5,60,0,0
9517,-100,4,2,5,65,0,0
9667,-100,4,2,5,70,0,0
9817,-100,4,2,5,75,0,0
9967,-100,4,2,5,80,0,0
10267,-100,4,2,5,80,0,0
11617,-100,4,2,5,50,0,0
11842,-100,4,2,5,5,0,0
11917,-100,4,2,5,60,0,0
12367,-100,4,2,5,60,0,0
21967,-105.263157894737,4,2,5,50,0,0
30667,-100,4,2,5,60,0,0
30967,-100,4,2,5,60,0,0
31567,-105.263157894737,4,2,5,50,0,0
39967,-100,4,2,5,50,0,0
41167,-100,4,2,5,45,0,0
43567,-100,4,2,5,45,0,0
45967,-105.263157894737,4,2,5,55,0,0
48367,-100,4,2,5,60,0,0
49867,-100,4,2,5,60,0,0
50467,-100,4,2,5,30,0,0
50692,-100,4,2,5,5,0,0
50767,-100,4,2,5,65,0,0
56767,-100,4,2,5,65,0,0
58417,-100,4,2,5,65,0,0
59917,-100,4,2,5,65,0,0
60367,-100,4,2,5,65,0,0
68017,-100,4,2,5,65,0,0
69967,-100,4,2,5,65,0,0
77467,-100,4,2,5,65,0,0
77542,-100,4,2,5,5,0,0
77617,-100,4,2,5,65,0,0
77692,-100,4,2,5,5,0,0
77767,-100,4,2,5,65,0,0
77842,-100,4,2,5,5,0,0
77917,-100,4,2,5,65,0,0
77992,-100,4,2,5,5,0,0
78067,-100,4,2,5,65,0,0
78142,-100,4,2,5,5,0,0
78217,-100,4,2,5,65,0,0
78292,-100,4,2,5,5,0,0
78367,-100,4,2,5,65,0,0
78442,-100,4,2,5,5,0,0
78517,-100,4,2,5,65,0,0
79567,-100,4,2,5,65,0,0
87967,-100,4,2,5,65,0,0
88267,-100,4,2,5,65,0,0
88567,-100,4,2,5,65,0,0

[Colours]
Combo1 : 255,213,85
Combo2 : 255,60,60
Combo3 : 255,83,255
Combo4 : 84,88,250

[HitObjects]
56,318,1567,6,0,B|119:298|177:324|177:324|235:288|184:252,1,200,6|0,3:2|0:0,0:0:0:0:
169,228,2317,2,0,L|175:159,1,50,0|4,3:0|0:2,0:0:0:0:
229,107,2767,2,0,P|276:87|336:115,1,100,4|0,3:2|3:0,0:0:0:0:
352,133,3217,2,0,L|424:120,1,50,8|0,0:0|0:0,0:0:0:0:
442,105,3517,6,0,L|432:262,1,150,0|6,3:0|3:2,0:0:0:0:
376,329,4267,1,0,3:0:0:0:
376,329,4417,2,0,B|307:335|313:277|220:299,1,150,8|0,0:0|3:0,0:0:0:0:
155,340,5167,2,0,P|137:269|218:206,1,150,6|8,3:2|0:0,0:0:0:0:
216,184,5767,1,8,0:0:0:0:
216,184,5917,2,0,L|226:125,1,50,0|8,3:0|0:0,0:0:0:0:
171,61,6367,6,0,B|131:93|84:73|84:73|128:129|108:187,1,200,4|0,3:2|3:0,0:0:0:0:
73,195,7117,2,0,L|55:258,1,50,8|8,0:3|0:3,0:0:0:0:
98,323,7567,2,0,P|170:308|250:362,1,150,4|8,3:2|0:2,0:0:0:0:
307,287,8317,1,8,0:2:0:0:
388,325,8617,1,8,0:0:0:0:
388,325,8767,6,0,P|399:271|413:161,2,150,4|0|4,3:2|3:0|0:3,0:0:0:0:
320,373,9967,1,4,3:2:0:0:
115,331,12367,6,0,B|97:271|141:247|141:247|145:200|103:193,1,150,6|8,3:2|0:0,0:0:0:0:
64,138,13117,1,0,3:0:0:0:
64,138,13267,2,0,L|82:66,1,50,0|8,3:0|0:0,0:0:0:0:
97,60,13567,2,0,P|158:69|255:84,1,150,0|8,3:0|0:0,0:0:0:0:
318,134,14317,2,0,L|372:119,2,50,0|0|8,3:0|3:0|0:0,0:0:0:0:
286,165,14767,6,0,P|256:228|314:319,1,150,4|8,3:2|0:0,0:0:0:0:
376,318,15517,1,0,3:0:0:0:
376,318,15667,2,0,L|438:315,1,50,0|8,3:0|0:0,0:0:0:0:
469,326,15967,2,0,L|489:160,1,150,0|8,3:0|0:0,0:0:0:0:
440,100,16717,2,0,L|426:42,2,50,0|0|8,3:0|3:0|0:0,0:0:0:0:
407,131,17167,6,0,B|335:140|340:79|242:104,1,150,4|8,3:2|0:0,0:0:0:0:
232,184,17917,1,0,3:0:0:0:
232,184,18067,2,0,L|238:252,1,50,0|8,3:0|0:0,0:0:0:0:
240,278,18367,2,0,P|176:320|85:285,1,150,0|8,3:0|0:0,0:0:0:0:
47,238,19117,2,0,L|-21:260,2,50,0|0|8,3:0|3:0|0:0,0:0:0:0:
75,202,19567,6,0,P|88:121|98:51,1,150,4|8,3:2|0:0,0:0:0:0:
184,23,20317,1,0,3:0:0:0:
184,23,20467,2,0,L|239:42,1,50,0|8,3:0|0:0,0:0:0:0:
267,65,20767,5,4,3:2:0:0:
356,75,21067,1,4,3:2:0:0:
412,145,21367,1,4,3:2:0:0:
390,232,21667,1,8,0:0:0:0:
302,246,21967,6,0,P|241:213|168:225,1,142.49999619484,6|8,3:2|0:0,0:0:0:0:
96,261,22717,1,0,3:0:0:0:
96,261,22867,2,0,L|74:123,2,94.9999974632264,0|0|0,3:0|3:0|3:0,0:0:0:0:
110,301,23617,1,8,0:0:0:0:
186,339,23917,1,0,3:3:0:0:
186,339,24067,2,0,L|263:338,1,47.4999987316132,0|8,3:0|0:0,0:0:0:0:
275,347,24367,6,0,P|322:272|291:189,1,142.49999619484,0|8,3:0|0:0,0:0:0:0:
293,144,25117,1,0,3:0:0:0:
293,144,25267,2,0,L|190:152,1,94.9999974632264,0|0,3:0|3:0,0:0:0:0:
169,232,25867,2,0,P|116:251|68:254,1,94.9999974632264,0|2,3:0|0:0,0:0:0:0:
47,174,26467,1,0,3:0:0:0:
49,88,26767,6,0,P|131:50|293:67,1,237.499993658066,4|0,3:2|3:0,0:0:0:0:
337,117,27817,1,8,0:0:0:0:
337,117,27967,2,0,B|285:177|285:177|333:220|290:298,1,189.999994926453,0|0,3:0|0:0,0:0:0:0:
254,347,28867,1,0,3:0:0:0:
186,299,29167,6,0,P|132:265|89:283,1,94.9999974632264,0|0,3:0|3:0,0:0:0:0:
62,263,29617,1,8,0:0:0:0:
62,263,29767,2,0,L|47:151,1,94.9999974632264,2|0,0:0|3:0,0:0:0:0:
104,103,30367,2,0,L|157:95,1,47.4999987316132,2|0,0:0|3:0,0:0:0:0:
190,117,30667,1,4,3:2:0:0:
268,73,30967,1,4,3:2:0:0:
325,138,31267,1,4,3:2:0:0:
398,86,31567,6,0,P|480:117|470:187,1,142.49999619484,6|8,3:2|0:0,0:0:0:0:
450,187,32167,1,2,0:0:0:0:
450,187,32317,2,0,P|442:253|447:288,1,94.9999974632264,0|8,3:0|0:0,0:0:0:0:
421,329,32767,2,0,P|359:316|320:321,1,94.9999974632264,0|0,3:0|3:0,0:0:0:0:
247,347,33367,2,0,P|171:352|150:348,1,94.9999974632264,2|0,0:0|3:0,0:0:0:0:
71,293,33967,6,0,B|57:216|101:231|88:136,1,142.49999619484,0|8,3:0|0:0,0:0:0:0:
109,118,34567,1,2,0:0:0:0:
109,118,34717,2,0,P|192:78|220:89,1,94.9999974632264,0|8,3:0|0:0,0:0:0:0:
230,66,35167,2,0,P|223:137|230:222,1,142.49999619484,0|8,3:0|0:0,0:0:0:0:
280,275,35917,2,0,P|354:260|369:266,1,94.9999974632264,0|8,3:0|0:0,0:0:0:0:
410,278,36367,6,0,L|432:120,1,142.49999619484,4|8,3:2|0:0,0:0:0:0:
392,65,37117,1,0,3:0:0:0:
392,65,37267,2,0,L|327:82,1,47.4999987316132,0|8,3:0|0:0,0:0:0:0:
305,63,37567,2,0,P|247:76|154:85,1,142.49999619484,0|8,3:0|0:0,0:0:0:0:
97,138,38317,2,0,L|34:150,2,47.4999987316132,0|0|8,3:0|3:0|0:0,0:0:0:0:
127,168,38767,6,0,P|187:202|178:276,1,142.49999619484,4|8,3:2|0:0,0:0:0:0:
248,324,39517,1,0,3:0:0:0:
248,324,39667,2,0,L|308:311,1,47.4999987316132,0|8,3:0|0:0,0:0:0:0:
338,303,39967,1,4,3:2:0:0:
400,238,40267,1,0,3:0:0:0:
375,151,40567,1,0,3:0:0:0:
288,124,40867,1,0,3:0:0:0:
221,184,41167,6,0,P|135:176|46:165,1,150,4|0,3:2|3:0,0:0:0:0:
38,84,41917,1,0,3:0:0:0:
38,84,42067,2,0,L|104:78,1,50,0|0,0:0|3:0,0:0:0:0:
126,57,42367,2,0,L|263:68,1,100,2|2,0:0|0:2,0:0:0:0:
270,56,42817,1,0,3:0:0:0:
357,36,43117,2,0,P|397:71|411:134,1,100,2|2,3:2|3:2,0:0:0:0:
444,144,43567,6,0,P|424:201|442:294,1,150,2|2,0:0|3:2,0:0:0:0:
370,344,44317,2,0,L|262:324,1,100,2|2,3:2|3:2,0:0:0:0:
244,289,44767,2,0,P|165:262|65:268,1,150,2|0,0:0|3:0,0:0:0:0:
67,228,45367,1,8,0:0:0:0:
67,228,45517,2,0,L|82:122,1,100,8|8,0:0|0:0,0:0:0:0:
107,95,45967,6,0,P|181:47|237:92,1,142.49999619484,4|0,3:2|3:0,0:0:0:0:
282,127,46717,1,8,0:0:0:0:
204,229,47167,2,0,P|128:241|92:230,1,94.9999974632264,0|8,3:0|0:0,0:0:0:0:
68,236,47617,2,0,L|80:312,1,47.4999987316132,0|0,3:0|3:0,0:0:0:0:
78,325,47917,1,8,0:0:0:0:
163,354,48217,1,0,3:0:0:0:
163,354,48367,6,0,P|224:323|305:349,1,150,4|8,3:2|0:0,0:0:0:0:
380,305,49117,2,0,L|433:287,2,50,0|0|8,3:0|3:0|0:0,0:0:0:0:
349,272,49567,2,0,P|334:209|370:128,1,150,4|8,3:2|0:0,0:0:0:0:
406,113,50167,1,4,3:0:0:0:
243,35,50767,6,0,P|147:54|89:62,1,150,4|8,3:2|0:0,0:0:0:0:
71,100,51367,1,2,0:0:0:0:
71,100,51517,2,0,P|52:161|64:200,1,100,0|8,3:0|0:0,0:0:0:0:
99,217,51967,1,2,3:2:0:0:
158,284,52267,2,0,P|237:273|266:283,1,100,0|2,3:0|0:0,0:0:0:0:
298,301,52717,1,0,3:0:0:0:
298,301,52867,2,0,L|370:308,1,50,0|8,3:0|0:0,0:0:0:0:
384,279,53167,6,0,L|351:111,1,150,6|8,3:2|0:0,0:0:0:0:
423,72,53917,1,0,3:0:0:0:
423,72,54067,2,0,L|477:134,1,50,0|8,3:0|0:0,0:0:0:0:
488,140,54367,1,2,3:2:0:0:
486,229,54667,2,0,P|509:285|458:375,1,150,0|0,3:0|3:0,0:0:0:0:
430,362,55267,1,0,3:0:0:0:
343,336,55567,6,0,L|180:360,1,150,6|8,3:2|0:0,0:0:0:0:
115,315,56317,2,0,L|120:212,1,100,0|8,3:0|0:0,0:0:0:0:
131,171,56767,2,0,P|191:152|237:173,1,100,4|0,3:2|3:0,0:0:0:0:
266,179,57217,1,8,0:0:0:0:
266,179,57367,2,0,L|250:54,1,100,4|0,3:2|3:0,0:0:0:0:
225,44,57817,1,8,0:0:0:0:
225,44,57967,6,0,P|155:64|57:73,1,150,4|8,3:2|0:0,0:0:0:0:
43,155,58717,2,0,L|-15:186,2,50,0|0|8,3:0|3:0|0:0,0:0:0:0:
87,160,59167,2,0,P|114:216|101:265,1,100,6|0,3:2|3:0,0:0:0:0:
164,322,59767,2,0,B|241:349|235:274|322:300,1,150,0|8,3:0|0:0,0:0:0:0:
325,255,60367,6,0,L|306:132,1,100,6|0,3:2|3:0,0:0:0:0:
327,114,60817,1,8,0:0:0:0:
327,114,60967,2,0,P|287:73|229:95,1,100,2|0,0:0|3:0,0:0:0:0:
162,106,61567,1,2,3:2:0:0:
217,181,61867,2,0,P|229:241|227:280,1,100,0|0,3:0|0:0,0:0:0:0:
199,315,62317,1,0,3:0:0:0:
199,315,62467,2,0,L|121:319,1,50,0|8,3:0|0:0,0:0:0:0:
104,317,62767,6,0,B|62:285|62:285|59:213|94:186,1,150,4|8,3:2|0:0,0:0:0:0:
81,103,63517,2,0,L|19:114,2,50,0|0|8,3:0|3:0|0:0,0:0:0:0:
116,74,63967,2,0,P|177:46|241:83,1,100,2|0,3:2|3:0,0:0:0:0:
249,67,64417,2,0,L|239:172,1,100,8|0,0:0|3:0,0:0:0:0:
217,205,64867,1,0,3:0:0:0:
147,261,65167,6,0,P|155:334|234:353,1,150,4|8,3:2|0:0,0:0:0:0:
264,355,65767,2,0,P|313:337|382:358,1,100,2|0,0:0|3:0,0:0:0:0:
448,329,66367,2,0,L|429:182,1,100,4|0,3:2|3:0,0:0:0:0:
432,189,66817,1,8,0:0:0:0:
432,189,66967,2,0,P|390:150|316:157,1,100,4|0,3:2|3:0,0:0:0:0:
310,171,67417,1,8,0:0:0:0:
310,171,67567,6,0,P|249:200|159:181,1,150,4|8,3:2|0:0,0:0:0:0:
108,120,68317,1,8,0:0:0:0:
47,195,68617,1,8,0:0:0:0:
47,195,68767,2,0,P|22:274|77:325,1,150,4|8,3:2|0:0,0:0:0:0:
147,347,69517,2,0,B|203:349|200:310|288:320,1,100,8|8,0:0|0:3,0:0:0:0:
280,295,69967,6,0,P|286:190|296:124,1,150,6|8,3:2|0:0,0:0:0:0:
363,90,70717,2,0,L|360:13,2,50,0|0|8,3:0|3:0|0:0,0:0:0:0:
403,108,71167,2,0,P|445:159|446:256,1,150,0|8,3:0|0:0,0:0:0:0:
393,309,71917,1,0,3:0:0:0:
393,309,72067,2,0,L|314:291,1,50,0|8,3:0|0:0,0:0:0:0:
306,273,72367,6,0,P|221:265|158:322,1,150,6|8,3:2|0:0,0:0:0:0:
91,259,73117,2,0,L|23:279,2,50,0|0|8,3:0|3:0|0:0,0:0:0:0:
119,223,73567,2,0,L|130:69,1,150,0|8,3:0|0:0,0:0:0:0:
207,27,74317,1,0,3:0:0:0:
207,27,74467,2,0,L|254:48,1,50,0|8,3:0|0:0,0:0:0:0:
297,52,74767,6,0,P|277:109|286:207,1,150,6|8,3:2|0:0,0:0:0:0:
328,275,75517,2,0,L|329:340,2,50,0|0|8,3:0|3:0|0:0,0:0:0:0:
364,248,75967,2,0,P|420:213|476:224,1,100,0|0,3:0|3:0,0:0:0:0:
495,200,76417,1,8,0:0:0:0:
489,110,76717,1,0,3:0:0:0:
489,110,76867,2,0,L|462:31,1,50,0|8,3:0|0:0,0:0:0:0:
434,39,77167,6,0,P|353:37|320:75,1,100,6|4,3:2|0:3,0:0:0:0:
306,74,77617,1,4,3:0:0:0:
218,94,77917,1,4,3:0:0:0:
218,94,78067,2,0,L|135:89,1,50,4|4,0:3|0:3,0:0:0:0:
123,85,78367,5,6,3:2:0:0:
58,147,78667,1,6,3:2:0:0:
130,200,78967,1,4,3:2:0:0:
58,255,79267,1,4,3:2:0:0:
130,309,79567,6,0,B|190:291|214:335|214:335|261:339|268:297,1,150,6|12,3:2|0:2,0:0:0:0:
342,277,80317,1,0,3:0:0:0:
342,277,80467,2,0,L|428:281,1,50,0|8,3:0|0:0,0:0:0:0:
436,283,80767,2,0,P|447:208|458:134,1,150,0|8,3:0|0:0,0:0:0:0:
388,76,81517,2,0,L|374:27,2,50,0|0|8,3:0|3:0|0:0,0:0:0:0:
358,109,81967,6,0,P|295:79|204:137,1,150,4|8,3:2|0:0,0:0:0:0:
160,170,82717,1,0,3:0:0:0:
160,170,82867,2,0,L|169:231,1,50,0|8,3:0|0:0,0:0:0:0:
145,258,83167,2,0,L|311:278,1,150,0|8,3:0|0:0,0:0:0:0:
383,285,83917,2,0,L|441:271,2,50,0|0|8,3:0|3:0|0:0,0:0:0:0:
371,242,84367,6,0,B|362:170|423:175|398:77,1,150,4|8,3:2|0:0,0:0:0:0:
316,70,85117,1,0,3:0:0:0:
316,70,85267,2,0,L|241:72,1,50,0|8,3:0|0:0,0:0:0:0:
222,80,85567,2,0,P|211:165|201:240,1,150,0|8,3:0|0:0,0:0:0:0:
128,279,86317,2,0,L|125:336,2,50,0|0|8,3:0|3:0|0:0,0:0:0:0:
87,259,86767,2,0,L|61:93,1,150,4|8,3:2|0:0,0:0:0:0:
126,46,87517,1,8,3:2:0:0:
126,46,87667,2,8,L|190:35,1,50,8|8,0:2|0:2,0:0:0:0:
210,65,87967,5,4,3:2:0:0:
187,152,88267,1,4,3:2:0:0:
256,209,88567,1,4,3:2:0:0:
337,170,88867,1,4,3:2:0:0:
