osu file format v14

[General]
AudioFilename: audio.mp3
AudioLeadIn: 0
PreviewTime:50467
Countdown: 0
SampleSet: Normal
StackLeniency: 0.7
Mode: 1
LetterboxInBreaks: 0
WidescreenStoryboard: 1

[Editor]
Bookmarks: 517,1567,9967,12367,21967,31567,41167,45967,50767,69967,79567,87967,88867
DistanceSpacing: 2.5
BeatDivisor: 4
GridSize: 32
TimelineZoom: 1.8

[Metadata]
Title:GATE ~Sore wa Akatsuki no You ni~ (TV Size)
TitleUnicode:GATE~それは暁のように~ (TV Size)
Artist:Sati Akura
ArtistUnicode:Sati Akura
Creator:- Lenkon
Version:Oni
Source:GATE 自衛隊 彼の地にて、斯く戦えり
Tags:opening op short kisida kyodan & the akebosi rockets rory mercury ロゥリィ・マーキュリー russian Сати Акура русский cover кавер rock 岸田教団&the明星ロケッツ ゲート gate: jieitai kano chi nite kaku tatakaeri and kishida kyoudan akeboshi thus japanese self-defense force fought there jsdf rokettsu 1st season one anime аниме hellfly _hellfly_ hurwex ryxliee olmoze MyAimNotOlmoze -_Lenkon
BeatmapID:4396423
BeatmapSetID:2096568

[Difficulty]
HPDrainRate:6.5
CircleSize:5
OverallDifficulty:6
ApproachRate:9.5
SliderMultiplier:1.4
SliderTickRate:1

[Events]
//Background and Video events
0,0,"gate.jpg",0,100
Video,0,"output(3).mp4"
//Break Periods
//Storyboard Layer 0 (Background)
//Storyboard Layer 1 (Fail)
//Storyboard Layer 2 (Pass)
//Storyboard Layer 3 (Foreground)
//Storyboard Layer 4 (Overlay)
//Storyboard Sound Samples

[TimingPoints]
517,300,4,1,0,75,1,0
517,-117.647058823529,4,1,0,75,0,0
1717,300,4,1,0,70,1,0
1717,-117.647058823529,4,1,0,70,0,0
10117,-133.333333333333,4,1,0,70,0,0
11617,-117.647058823529,4,1,0,70,0,0
11917,-109.950038702414,4,1,0,75,0,0
12067,-106.467246416312,4,1,0,75,0,0
12142,-104.807301295837,4,1,0,75,0,0
12217,-103.198322408071,4,1,0,75,0,0
12292,-101.637997975371,4,1,0,75,0,0
12367,-100,4,1,0,80,0,1
21967,-100,4,1,0,65,0,0
22117,-111.111111111111,4,1,0,65,0,0
41317,-133.333333333333,4,1,0,65,0,0
45367,-131.578947368421,4,1,0,65,0,0
45442,-129.679147852384,4,1,0,65,0,0
45517,-127.83342793007,4,1,0,65,0,0
45667,-124.295245955433,4,1,0,65,0,0
45817,-120.947649019598,4,1,0,65,0,0
45967,-117.775642112801,4,1,0,65,0,0
48667,-116.279069767442,4,1,0,65,0,0
48817,-114.424069331832,4,1,0,65,0,0
48967,-112.627325191129,4,1,0,65,0,0
49117,-110.886135462939,4,1,0,65,0,0
49267,-109.197962802806,4,1,0,65,0,0
49342,-108.373006884937,4,1,0,65,0,0
49417,-107.560422067096,4,1,0,65,0,0
49567,-105.971381368748,4,1,0,65,0,0
49867,-102.929899591883,4,1,0,65,0,0
49942,-102.196614021784,4,1,0,65,0,0
50017,-101.473702582607,4,1,0,65,0,0
50092,-100.760946669246,4,1,0,65,0,0
50167,-100.058133775724,4,1,0,65,0,0
50767,-90.9090909090909,4,1,0,88,0,1
56617,-89.2857142857143,4,1,0,88,0,1
56767,-83.3333333333333,4,1,0,88,0,1
56917,-90.9090909090909,4,1,0,88,0,1
57067,-90.9090909090909,4,1,0,88,0,1
57217,-88.9292034611246,4,1,0,88,0,1
57367,-80,4,1,0,88,0,1
57648,-86.9565217391304,4,1,0,88,0,1
57798,-85.4700854700855,4,1,0,88,0,1
57948,-76.9230769230769,4,1,0,88,0,1
58117,-90.9090909090909,4,1,0,88,0,1
59467,-90.9090909090909,4,1,0,88,0,1
59617,-89.5614355623383,4,1,0,88,0,1
59767,-88.2532302888616,4,1,0,88,0,1
59842,-87.6133168737115,4,1,0,88,0,1
59917,-86.9826165240877,4,1,0,88,0,1
60067,-85.7480704540446,4,1,0,88,0,1
60142,-85.1438462710827,4,1,0,88,0,1
60217,-84.5480778417243,4,1,0,88,0,1
60292,-83.9606593934346,4,1,0,88,0,1
60367,-83.3812775679349,4,1,0,88,0,1
60517,-90.9090909090909,4,1,0,88,0,1
66198,-89.2857142857143,4,1,0,88,0,1
66348,-83.3333333333333,4,1,0,88,0,1
66517,-90.9090909090909,4,1,0,88,0,1
66648,-90.9090909090909,4,1,0,88,0,1
66798,-88.9292034611246,4,1,0,88,0,1
66948,-80,4,1,0,88,0,1
67229,-86.9565217391304,4,1,0,88,0,1
67379,-85.4700854700855,4,1,0,88,0,1
67529,-76.9230769230769,4,1,0,88,0,1
67698,-90.9090909090909,4,1,0,88,0,1
67867,-90.9090909090909,4,1,0,88,0,1
68017,-91.2848525567062,4,1,0,88,0,1
68167,-91.6638174496743,4,1,0,88,0,1
68317,-92.04585724608,4,1,0,88,0,1
68467,-92.4310949295074,4,1,0,88,0,1
68542,-92.6249255527161,4,1,0,88,0,1
68617,-92.8196569756757,4,1,0,88,0,1
68767,-93.2114128053839,4,1,0,88,0,1
69067,-94.0049296185092,4,1,0,88,0,1
69217,-94.4068652672422,4,1,0,88,0,1
69292,-94.6090800118451,4,1,0,88,0,1
69367,-94.8121628835034,4,1,0,88,0,1
69517,-95.2209554661113,4,1,0,88,0,1
69667,-94.3396226415094,4,1,0,88,0,1
69742,-92.4179398008024,4,1,0,88,0,1
69817,-90.5729828038135,4,1,0,88,0,1
69892,-88.8003253643921,4,1,0,88,0,1
69967,-87.095647569204,4,1,0,88,0,1
77467,-86.2068965517241,4,1,0,88,0,1
77617,-85.9130886013091,4,1,0,88,0,1
77767,-85.6212765447363,4,1,0,88,0,1
77917,-85.3314401131153,4,1,0,88,0,1
78067,-85.0435593110791,4,1,0,88,0,1
78217,-84.7576144121848,4,1,0,88,0,1
78367,-83.3333333333333,4,1,0,75,0,0
78517,-84.7576144121848,4,1,0,75,0,0
78667,-86.936942027839,4,1,0,75,0,0
78967,-90.8663011418259,4,1,0,75,0,0
79267,-95.1676711614358,4,1,0,75,0,0
79567,-99.8965072185216,4,1,0,80,0,1
88867,-100,4,1,0,80,0,0

[HitObjects]
41,51,517,5,0,0:0:0:0:
41,51,817,1,0,0:0:0:0:
160,64,1117,1,8,0:0:0:0:
160,64,1192,1,8,0:0:0:0:
96,96,1267,1,0,0:0:0:0:
96,96,1417,1,0,0:0:0:0:
32,160,1567,1,12,0:0:0:0:
160,64,2017,1,8,0:0:0:0:
160,64,2317,1,8,0:0:0:0:
160,64,2392,1,8,0:0:0:0:
41,51,2467,1,0,0:0:0:0:
128,192,2767,1,12,0:0:0:0:
41,51,3067,1,0,0:0:0:0:
160,64,3217,1,8,0:0:0:0:
160,64,3517,1,0,0:0:0:0:
0,128,3667,1,8,0:0:0:0:
0,128,3742,1,8,0:0:0:0:
0,128,3817,1,8,0:0:0:0:
0,128,3892,1,8,0:0:0:0:
64,256,3967,1,4,0:0:0:0:
41,51,4267,1,0,0:0:0:0:
160,64,4417,1,8,0:0:0:0:
41,51,4567,1,0,0:0:0:0:
41,51,4717,1,8,0:0:0:0:
160,64,4867,1,0,0:0:0:0:
160,64,4942,1,0,0:0:0:0:
160,64,5017,1,0,0:0:0:0:
160,64,5092,1,0,0:0:0:0:
64,256,5167,1,12,0:0:0:0:
160,64,5617,1,8,0:0:0:0:
160,64,5767,1,8,0:0:0:0:
41,51,6067,1,0,0:0:0:0:
128,256,6367,1,12,0:0:0:0:
41,51,6667,1,0,0:0:0:0:
160,64,6817,1,8,0:0:0:0:
41,51,6967,1,0,0:0:0:0:
41,51,7117,1,0,0:0:0:0:
41,51,7267,1,0,0:0:0:0:
41,51,7417,1,0,0:0:0:0:
192,256,7567,1,12,0:0:0:0:
41,51,7867,1,0,0:0:0:0:
160,64,8017,1,8,0:0:0:0:
41,51,8167,1,0,0:0:0:0:
160,64,8317,1,8,0:0:0:0:
41,51,8467,1,0,0:0:0:0:
41,51,8617,1,0,0:0:0:0:
96,224,8767,1,12,0:0:0:0:
160,64,9067,1,0,0:0:0:0:
160,64,9217,1,8,0:0:0:0:
160,64,9367,1,8,0:0:0:0:
160,64,9517,1,8,0:0:0:0:
160,64,9667,1,8,0:0:0:0:
160,64,9817,1,8,0:0:0:0:
224,320,9967,1,4,0:0:0:0:
41,51,11617,1,0,0:0:0:0:
160,64,11917,1,8,0:0:0:0:
160,64,12067,1,8,0:0:0:0:
160,64,12142,1,8,0:0:0:0:
41,51,12217,1,0,0:0:0:0:
41,51,12292,1,0,0:0:0:0:
64,256,12367,1,12,0:0:0:0:
160,64,12667,1,8,0:0:0:0:
96,128,12817,1,0,0:0:0:0:
96,128,12892,1,0,0:0:0:0:
160,64,12967,1,8,0:0:0:0:
160,64,13117,1,8,0:0:0:0:
96,128,13192,1,0,0:0:0:0:
160,64,13267,1,8,0:0:0:0:
96,128,13417,1,0,0:0:0:0:
160,64,13567,1,8,0:0:0:0:
160,64,13867,1,8,0:0:0:0:
96,128,14017,1,0,0:0:0:0:
96,128,14092,1,0,0:0:0:0:
160,64,14167,1,8,0:0:0:0:
160,64,14317,1,8,0:0:0:0:
96,128,14392,1,0,0:0:0:0:
160,64,14467,1,8,0:0:0:0:
96,128,14617,1,0,0:0:0:0:
160,64,14767,1,8,0:0:0:0:
160,64,15067,1,8,0:0:0:0:
160,64,15217,1,8,0:0:0:0:
160,64,15292,1,8,0:0:0:0:
96,128,15367,1,0,0:0:0:0:
160,64,15517,1,8,0:0:0:0:
96,128,15592,1,0,0:0:0:0:
160,64,15667,1,8,0:0:0:0:
96,128,15817,1,0,0:0:0:0:
160,64,15967,1,8,0:0:0:0:
160,64,16042,1,8,0:0:0:0:
160,64,16117,1,8,0:0:0:0:
160,64,16192,1,8,0:0:0:0:
96,128,16267,1,0,0:0:0:0:
160,64,16417,1,8,0:0:0:0:
96,128,16567,1,0,0:0:0:0:
96,128,16642,1,0,0:0:0:0:
96,128,16717,1,0,0:0:0:0:
96,128,16792,1,0,0:0:0:0:
160,64,16867,1,8,0:0:0:0:
96,128,17017,1,0,0:0:0:0:
121,239,17167,1,12,0:0:0:0:
512,160,17467,1,0,0:0:0:0:
448,224,17617,1,8,0:0:0:0:
448,224,17692,1,8,0:0:0:0:
512,160,17767,1,0,0:0:0:0:
512,160,17917,1,0,0:0:0:0:
448,224,17992,1,8,0:0:0:0:
512,160,18067,1,0,0:0:0:0:
448,224,18217,1,8,0:0:0:0:
512,160,18367,1,0,0:0:0:0:
512,160,18667,1,0,0:0:0:0:
448,224,18817,1,8,0:0:0:0:
448,224,18892,1,8,0:0:0:0:
512,160,18967,1,0,0:0:0:0:
512,160,19117,1,0,0:0:0:0:
448,224,19192,1,8,0:0:0:0:
512,160,19267,1,0,0:0:0:0:
448,224,19417,1,8,0:0:0:0:
512,160,19567,1,0,0:0:0:0:
512,160,19867,1,0,0:0:0:0:
512,160,20017,1,0,0:0:0:0:
512,160,20092,1,0,0:0:0:0:
448,224,20167,1,8,0:0:0:0:
512,160,20317,1,0,0:0:0:0:
448,224,20392,1,8,0:0:0:0:
512,160,20467,1,0,0:0:0:0:
448,224,20617,1,8,0:0:0:0:
288,352,20767,1,4,0:0:0:0:
288,352,21067,1,4,0:0:0:0:
288,352,21367,1,4,0:0:0:0:
512,160,21667,1,0,0:0:0:0:
448,224,21742,1,8,0:0:0:0:
512,160,21817,1,0,0:0:0:0:
352,192,21892,1,0,0:0:0:0:
448,224,21967,1,12,0:0:0:0:
448,224,22267,1,8,0:0:0:0:
512,160,22417,1,0,0:0:0:0:
512,160,22717,1,0,0:0:0:0:
448,224,22867,1,8,0:0:0:0:
448,224,23017,1,8,0:0:0:0:
512,160,23167,1,0,0:0:0:0:
512,160,23242,1,0,0:0:0:0:
448,224,23317,1,8,0:0:0:0:
512,160,23467,1,0,0:0:0:0:
448,224,23767,1,8,0:0:0:0:
512,160,23917,1,0,0:0:0:0:
448,224,24067,1,8,0:0:0:0:
512,160,24217,1,0,0:0:0:0:
448,224,24367,1,8,0:0:0:0:
448,224,24442,1,8,0:0:0:0:
512,160,24517,1,0,0:0:0:0:
512,160,24667,1,0,0:0:0:0:
448,224,24817,1,8,0:0:0:0:
512,160,25267,1,0,0:0:0:0:
448,224,25417,1,8,0:0:0:0:
512,160,25567,1,0,0:0:0:0:
512,160,25642,1,0,0:0:0:0:
512,160,25717,1,0,0:0:0:0:
448,224,25867,1,8,0:0:0:0:
448,224,25942,1,8,0:0:0:0:
512,160,26017,1,0,0:0:0:0:
448,224,26167,1,8,0:0:0:0:
512,160,26467,1,0,0:0:0:0:
448,224,26617,1,8,0:0:0:0:
512,160,26767,1,0,0:0:0:0:
512,160,27067,1,0,0:0:0:0:
448,224,27217,1,8,0:0:0:0:
448,224,27517,1,8,0:0:0:0:
512,160,27667,1,0,0:0:0:0:
512,160,27817,1,0,0:0:0:0:
512,160,27892,1,0,0:0:0:0:
448,224,27967,1,8,0:0:0:0:
448,224,28117,1,8,0:0:0:0:
512,160,28267,1,0,0:0:0:0:
512,160,28417,1,0,0:0:0:0:
448,224,28567,1,8,0:0:0:0:
448,224,28867,1,8,0:0:0:0:
512,160,29167,1,0,0:0:0:0:
512,160,29242,1,0,0:0:0:0:
448,224,29317,1,8,0:0:0:0:
448,224,29467,1,8,0:0:0:0:
448,224,29617,1,8,0:0:0:0:
512,160,29767,1,0,0:0:0:0:
512,160,30067,1,0,0:0:0:0:
448,224,30367,1,8,0:0:0:0:
448,224,30517,1,8,0:0:0:0:
448,224,30592,1,8,0:0:0:0:
96,256,30667,1,4,0:0:0:0:
96,256,30967,1,4,0:0:0:0:
96,256,31267,1,4,0:0:0:0:
64,128,31567,1,12,0:0:0:0:
384,128,31867,1,0,0:0:0:0:
448,64,32017,1,8,0:0:0:0:
448,64,32317,1,8,0:0:0:0:
384,128,32467,1,0,0:0:0:0:
384,128,32617,1,0,0:0:0:0:
448,64,32767,1,8,0:0:0:0:
448,64,32842,1,8,0:0:0:0:
384,128,32917,1,0,0:0:0:0:
448,64,33067,1,8,0:0:0:0:
384,128,33367,1,0,0:0:0:0:
448,64,33517,1,8,0:0:0:0:
384,128,33667,1,0,0:0:0:0:
448,64,33817,1,8,0:0:0:0:
384,128,33967,1,0,0:0:0:0:
384,128,34042,1,0,0:0:0:0:
448,64,34117,1,8,0:0:0:0:
448,64,34267,1,8,0:0:0:0:
448,64,34567,1,8,0:0:0:0:
384,128,34717,1,0,0:0:0:0:
384,128,34867,1,0,0:0:0:0:
384,128,35017,1,0,0:0:0:0:
448,64,35167,1,8,0:0:0:0:
448,64,35242,1,8,0:0:0:0:
448,64,35317,1,8,0:0:0:0:
384,128,35467,1,0,0:0:0:0:
384,128,35542,1,0,0:0:0:0:
448,64,35617,1,8,0:0:0:0:
384,128,35767,1,0,0:0:0:0:
448,64,36067,1,8,0:0:0:0:
384,128,36217,1,0,0:0:0:0:
448,64,36367,1,8,0:0:0:0:
384,128,36667,1,0,0:0:0:0:
448,64,36967,1,8,0:0:0:0:
384,128,37117,1,0,0:0:0:0:
448,64,37267,1,8,0:0:0:0:
384,128,37417,1,0,0:0:0:0:
448,64,37567,1,8,0:0:0:0:
448,64,37642,1,8,0:0:0:0:
384,128,37717,1,0,0:0:0:0:
384,128,37867,1,0,0:0:0:0:
448,64,38017,1,8,0:0:0:0:
384,128,38317,1,0,0:0:0:0:
448,64,38467,1,8,0:0:0:0:
352,128,38767,1,8,0:0:0:0:
384,128,39217,1,0,0:0:0:0:
448,64,39367,1,8,0:0:0:0:
384,128,39517,1,0,0:0:0:0:
448,64,39667,1,8,0:0:0:0:
448,64,39967,1,8,0:0:0:0:
448,64,40117,1,8,0:0:0:0:
448,64,40192,1,8,0:0:0:0:
32,160,40267,1,0,0:0:0:0:
448,64,40417,1,8,0:0:0:0:
32,160,40567,1,0,0:0:0:0:
448,64,40717,1,8,0:0:0:0:
32,160,40867,1,0,0:0:0:0:
32,160,41017,1,0,0:0:0:0:
256,160,41167,1,12,0:0:0:0:
32,160,41617,1,0,0:0:0:0:
32,160,41917,1,0,0:0:0:0:
448,64,42067,1,8,0:0:0:0:
448,64,42217,1,8,0:0:0:0:
448,64,42367,1,8,0:0:0:0:
448,64,42442,1,8,0:0:0:0:
448,64,42517,1,8,0:0:0:0:
32,160,42667,1,0,0:0:0:0:
448,64,43117,1,8,0:0:0:0:
32,160,43267,1,0,0:0:0:0:
32,160,43417,1,0,0:0:0:0:
32,160,43567,1,0,0:0:0:0:
32,160,43642,1,0,0:0:0:0:
32,160,43717,1,0,0:0:0:0:
448,64,44017,1,8,0:0:0:0:
32,160,44317,1,0,0:0:0:0:
448,64,44617,1,8,0:0:0:0:
448,64,44767,1,8,0:0:0:0:
32,160,45067,1,0,0:0:0:0:
32,160,45367,1,0,0:0:0:0:
32,160,45442,1,0,0:0:0:0:
32,160,45517,1,0,0:0:0:0:
448,64,45667,1,8,0:0:0:0:
448,64,45817,1,8,0:0:0:0:
64,288,45967,1,4,0:0:0:0:
448,64,46267,1,8,0:0:0:0:
32,160,46417,1,0,0:0:0:0:
448,64,46717,1,8,0:0:0:0:
32,160,47017,1,0,0:0:0:0:
448,64,47167,1,8,0:0:0:0:
448,64,47467,1,8,0:0:0:0:
448,64,47917,1,8,0:0:0:0:
32,160,48067,1,0,0:0:0:0:
32,160,48217,1,0,0:0:0:0:
448,64,48367,1,8,0:0:0:0:
32,160,48667,1,0,0:0:0:0:
32,160,48817,1,0,0:0:0:0:
448,64,48967,1,8,0:0:0:0:
448,64,49117,1,8,0:0:0:0:
32,160,49267,1,0,0:0:0:0:
32,160,49342,1,0,0:0:0:0:
448,64,49417,1,8,0:0:0:0:
0,384,49567,1,4,0:0:0:0:
448,64,49867,1,8,0:0:0:0:
448,64,49942,1,8,0:0:0:0:
448,64,50017,1,8,0:0:0:0:
448,64,50092,1,8,0:0:0:0:
0,384,50167,1,4,0:0:0:0:
96,96,50767,1,12,0:0:0:0:
448,64,51067,1,8,0:0:0:0:
32,160,51217,1,0,0:0:0:0:
448,64,51367,1,8,0:0:0:0:
32,160,51442,1,0,0:0:0:0:
448,64,51517,1,8,0:0:0:0:
448,64,51592,1,8,0:0:0:0:
32,160,51667,1,0,0:0:0:0:
448,64,51817,1,8,0:0:0:0:
32,160,51967,1,0,0:0:0:0:
448,64,52042,1,8,0:0:0:0:
32,160,52117,1,0,0:0:0:0:
448,64,52267,1,8,0:0:0:0:
448,64,52342,1,8,0:0:0:0:
32,160,52417,1,0,0:0:0:0:
448,64,52567,1,8,0:0:0:0:
32,160,52717,1,0,0:0:0:0:
448,64,52867,1,8,0:0:0:0:
448,64,52942,1,8,0:0:0:0:
32,160,53017,1,0,0:0:0:0:
32,160,53092,1,0,0:0:0:0:
352,192,53167,1,12,0:0:0:0:
32,160,53467,1,0,0:0:0:0:
448,64,53617,1,8,0:0:0:0:
32,160,53767,1,0,0:0:0:0:
32,160,53842,1,0,0:0:0:0:
448,64,53917,1,8,0:0:0:0:
448,64,54067,1,8,0:0:0:0:
448,64,54142,1,8,0:0:0:0:
32,160,54217,1,0,0:0:0:0:
448,64,54367,1,8,0:0:0:0:
32,160,54517,1,0,0:0:0:0:
448,64,54667,1,8,0:0:0:0:
32,160,54742,1,8,0:0:0:0:
32,160,54817,1,0,0:0:0:0:
448,64,54892,1,8,0:0:0:0:
32,160,54967,1,0,0:0:0:0:
448,64,55267,1,8,0:0:0:0:
448,64,55342,1,8,0:0:0:0:
128,320,55417,1,0,0:0:0:0:
448,64,55567,1,12,0:0:0:0:
32,160,55867,1,0,0:0:0:0:
32,160,56017,1,0,0:0:0:0:
448,64,56167,1,8,0:0:0:0:
32,160,56317,1,0,0:0:0:0:
32,160,56392,1,0,0:0:0:0:
448,64,56467,1,8,0:0:0:0:
32,160,56617,1,0,0:0:0:0:
256,288,56767,1,12,0:0:0:0:
32,160,57067,1,0,0:0:0:0:
32,160,57217,1,0,0:0:0:0:
256,288,57367,1,12,0:0:0:0:
32,160,57667,1,0,0:0:0:0:
32,160,57817,1,0,0:0:0:0:
256,288,57967,1,12,0:0:0:0:
32,160,58267,1,0,0:0:0:0:
448,64,58417,1,8,0:0:0:0:
448,64,58717,1,8,0:0:0:0:
32,160,58867,1,0,0:0:0:0:
448,64,58942,1,8,0:0:0:0:
32,160,59017,1,0,0:0:0:0:
448,64,59167,1,8,0:0:0:0:
448,64,59467,1,8,0:0:0:0:
32,160,59617,1,0,0:0:0:0:
448,64,59767,1,8,0:0:0:0:
448,64,59842,1,8,0:0:0:0:
32,160,59917,1,0,0:0:0:0:
448,64,60067,1,8,0:0:0:0:
32,160,60142,1,0,0:0:0:0:
32,160,60217,1,0,0:0:0:0:
32,160,60292,1,0,0:0:0:0:
384,288,60367,1,12,0:0:0:0:
512,128,60667,1,0,0:0:0:0:
96,224,60817,1,8,0:0:0:0:
512,128,60967,1,0,0:0:0:0:
96,224,61042,1,8,0:0:0:0:
512,128,61117,1,0,0:0:0:0:
512,128,61192,1,0,0:0:0:0:
96,224,61267,1,8,0:0:0:0:
512,128,61417,1,0,0:0:0:0:
96,224,61567,1,8,0:0:0:0:
512,128,61642,1,0,0:0:0:0:
96,224,61717,1,8,0:0:0:0:
512,128,61867,1,0,0:0:0:0:
512,128,61942,1,0,0:0:0:0:
96,224,62017,1,8,0:0:0:0:
512,128,62167,1,0,0:0:0:0:
96,224,62317,1,8,0:0:0:0:
512,128,62467,1,0,0:0:0:0:
512,128,62542,1,0,0:0:0:0:
96,224,62617,1,8,0:0:0:0:
512,128,62692,1,0,0:0:0:0:
416,256,62767,1,12,0:0:0:0:
512,128,63217,1,0,0:0:0:0:
96,224,63367,1,8,0:0:0:0:
96,224,63442,1,8,0:0:0:0:
512,128,63517,1,0,0:0:0:0:
512,128,63592,1,0,0:0:0:0:
96,224,63667,1,8,0:0:0:0:
96,224,63817,1,8,0:0:0:0:
512,128,63967,1,0,0:0:0:0:
512,128,64042,1,0,0:0:0:0:
96,224,64117,1,8,0:0:0:0:
96,224,64267,1,8,0:0:0:0:
96,224,64342,1,8,0:0:0:0:
512,128,64417,1,0,0:0:0:0:
96,224,64492,1,8,0:0:0:0:
512,128,64567,1,0,0:0:0:0:
512,128,64867,1,8,0:0:0:0:
96,224,65017,1,0,0:0:0:0:
512,128,65167,1,12,0:0:0:0:
96,224,65467,1,8,0:0:0:0:
512,128,65617,1,0,0:0:0:0:
96,224,65767,1,8,0:0:0:0:
512,128,65842,1,0,0:0:0:0:
96,224,65917,1,8,0:0:0:0:
512,128,65992,1,0,0:0:0:0:
96,224,66067,1,8,0:0:0:0:
512,128,66217,1,0,0:0:0:0:
320,352,66367,1,12,0:0:0:0:
96,224,66667,1,8,0:0:0:0:
512,128,66817,1,0,0:0:0:0:
320,352,66967,1,12,0:0:0:0:
96,224,67267,1,8,0:0:0:0:
512,128,67417,1,0,0:0:0:0:
320,352,67567,1,12,0:0:0:0:
96,224,67867,1,8,0:0:0:0:
512,128,68017,1,0,0:0:0:0:
96,224,68167,1,8,0:0:0:0:
512,128,68317,1,0,0:0:0:0:
96,224,68467,1,8,0:0:0:0:
96,224,68542,1,8,0:0:0:0:
96,224,68617,1,8,0:0:0:0:
288,288,68767,1,4,0:0:0:0:
512,128,69067,1,0,0:0:0:0:
96,224,69217,1,8,0:0:0:0:
96,224,69292,1,8,0:0:0:0:
512,128,69367,1,0,0:0:0:0:
96,224,69517,1,8,0:0:0:0:
512,128,69667,1,0,0:0:0:0:
512,128,69742,1,0,0:0:0:0:
512,128,69817,1,0,0:0:0:0:
512,128,69892,1,0,0:0:0:0:
448,352,69967,1,12,0:0:0:0:
512,128,70267,1,0,0:0:0:0:
96,224,70417,1,8,0:0:0:0:
512,128,70492,1,0,0:0:0:0:
96,224,70567,1,8,0:0:0:0:
512,128,70717,1,0,0:0:0:0:
96,224,70792,1,8,0:0:0:0:
512,128,70867,1,0,0:0:0:0:
96,224,71017,1,8,0:0:0:0:
512,128,71167,1,0,0:0:0:0:
512,128,71242,1,0,0:0:0:0:
96,224,71317,1,8,0:0:0:0:
512,128,71467,1,0,0:0:0:0:
96,224,71542,1,8,0:0:0:0:
96,224,71617,1,8,0:0:0:0:
96,224,71692,1,8,0:0:0:0:
512,128,71767,1,0,0:0:0:0:
96,224,72067,1,8,0:0:0:0:
512,128,72217,1,0,0:0:0:0:
32,384,72367,1,12,0:0:0:0:
480,0,72667,1,8,0:0:0:0:
64,96,72817,1,0,0:0:0:0:
480,0,72892,1,8,0:0:0:0:
64,96,72967,1,0,0:0:0:0:
480,0,73117,1,8,0:0:0:0:
64,96,73192,1,0,0:0:0:0:
480,0,73267,1,8,0:0:0:0:
64,96,73417,1,0,0:0:0:0:
480,0,73567,1,8,0:0:0:0:
480,0,73642,1,8,0:0:0:0:
64,96,73717,1,0,0:0:0:0:
480,0,73867,1,8,0:0:0:0:
64,96,73942,1,0,0:0:0:0:
64,96,74017,1,0,0:0:0:0:
64,96,74092,1,0,0:0:0:0:
480,0,74167,1,8,0:0:0:0:
64,96,74467,1,0,0:0:0:0:
64,96,74617,1,0,0:0:0:0:
0,256,74767,1,12,0:0:0:0:
512,128,75067,1,0,0:0:0:0:
96,224,75217,1,8,0:0:0:0:
512,128,75292,1,0,0:0:0:0:
96,224,75367,1,8,0:0:0:0:
512,128,75517,1,0,0:0:0:0:
96,224,75592,1,8,0:0:0:0:
512,128,75667,1,0,0:0:0:0:
96,224,75817,1,8,0:0:0:0:
512,128,75967,1,0,0:0:0:0:
512,128,76042,1,0,0:0:0:0:
96,224,76117,1,8,0:0:0:0:
512,128,76267,1,0,0:0:0:0:
96,224,76342,1,8,0:0:0:0:
96,224,76417,1,8,0:0:0:0:
96,224,76492,1,8,0:0:0:0:
512,128,76567,1,0,0:0:0:0:
96,224,76867,1,8,0:0:0:0:
512,128,77017,1,0,0:0:0:0:
32,384,77167,1,12,0:0:0:0:
96,224,77467,1,8,0:0:0:0:
96,224,77617,1,8,0:0:0:0:
512,128,77767,1,0,0:0:0:0:
512,128,77917,1,0,0:0:0:0:
96,224,78067,1,8,0:0:0:0:
96,224,78217,1,8,0:0:0:0:
224,352,78367,1,4,0:0:0:0:
224,352,78667,1,4,0:0:0:0:
224,352,78967,1,4,0:0:0:0:
224,352,79267,1,4,0:0:0:0:
320,384,79567,1,12,0:0:0:0:
160,64,79867,1,8,0:0:0:0:
96,128,80017,1,0,0:0:0:0:
96,128,80092,1,0,0:0:0:0:
160,64,80167,1,8,0:0:0:0:
160,64,80317,1,8,0:0:0:0:
96,128,80392,1,0,0:0:0:0:
160,64,80467,1,8,0:0:0:0:
96,128,80617,1,0,0:0:0:0:
160,64,80767,1,8,0:0:0:0:
160,64,81067,1,8,0:0:0:0:
96,128,81217,1,0,0:0:0:0:
96,128,81292,1,0,0:0:0:0:
160,64,81367,1,8,0:0:0:0:
160,64,81517,1,8,0:0:0:0:
96,128,81592,1,0,0:0:0:0:
160,64,81667,1,8,0:0:0:0:
96,128,81817,1,0,0:0:0:0:
160,64,81967,1,8,0:0:0:0:
160,64,82267,1,8,0:0:0:0:
160,64,82417,1,8,0:0:0:0:
160,64,82492,1,8,0:0:0:0:
96,128,82567,1,0,0:0:0:0:
160,64,82717,1,8,0:0:0:0:
96,128,82792,1,0,0:0:0:0:
160,64,82867,1,8,0:0:0:0:
96,128,83017,1,0,0:0:0:0:
160,64,83167,1,8,0:0:0:0:
160,64,83242,1,8,0:0:0:0:
160,64,83317,1,8,0:0:0:0:
160,64,83392,1,8,0:0:0:0:
96,128,83467,1,0,0:0:0:0:
160,64,83617,1,8,0:0:0:0:
96,128,83767,1,0,0:0:0:0:
96,128,83842,1,0,0:0:0:0:
96,128,83917,1,0,0:0:0:0:
96,128,83992,1,0,0:0:0:0:
160,64,84067,1,8,0:0:0:0:
96,128,84217,1,0,0:0:0:0:
121,239,84367,1,12,0:0:0:0:
512,160,84667,1,0,0:0:0:0:
448,224,84817,1,8,0:0:0:0:
448,224,84892,1,8,0:0:0:0:
512,160,84967,1,0,0:0:0:0:
512,160,85117,1,0,0:0:0:0:
448,224,85192,1,8,0:0:0:0:
512,160,85267,1,0,0:0:0:0:
448,224,85417,1,8,0:0:0:0:
512,160,85567,1,0,0:0:0:0:
512,160,85867,1,0,0:0:0:0:
448,224,86017,1,8,0:0:0:0:
448,224,86092,1,8,0:0:0:0:
512,160,86167,1,0,0:0:0:0:
512,160,86317,1,0,0:0:0:0:
448,224,86392,1,8,0:0:0:0:
512,160,86467,1,0,0:0:0:0:
448,224,86617,1,8,0:0:0:0:
512,160,86767,1,0,0:0:0:0:
512,160,87067,1,0,0:0:0:0:
512,160,87217,1,0,0:0:0:0:
512,160,87292,1,0,0:0:0:0:
448,224,87367,1,8,0:0:0:0:
448,224,87517,1,8,0:0:0:0:
512,160,87667,1,0,0:0:0:0:
448,224,87742,1,8,0:0:0:0:
448,224,87817,1,8,0:0:0:0:
448,224,87892,1,8,0:0:0:0:
288,352,87967,5,4,0:0:0:0:
288,352,88267,1,4,0:0:0:0:
288,352,88567,1,4,0:0:0:0:
512,160,88867,1,4,0:0:0:0:
