osu file format v14

[General]
AudioFilename: audio.mp3
AudioLeadIn: 0
PreviewTime: 56450
Countdown: 0
SampleSet: Soft
StackLeniency: 0.9
Mode: 0
LetterboxInBreaks: 0
WidescreenStoryboard: 1

[Editor]
DistanceSpacing: 1.9
BeatDivisor: 4
GridSize: 32
TimelineZoom: 1

[Metadata]
Title:Chikatto Chika Chika
TitleUnicode:チカっとチカ千花っ♡
Artist:Sati Akura
ArtistUnicode:Sati Akura
Creator:-Mikan
Version:iljaaz's Insane
Source:かぐや様は告らせたい~天才たちの恋愛頭脳戦~
Tags:Djulus 3mplify smozit Daycore DendyHere DendyMudak Deca iljaaz Xenon- Xehn Xen Чика Сати Акура Русский Russian cover Anime OP opening Fujiwara Chika CV Kohara Konomi Kaguya-sama: Love Is War Kaguya-sama wa Kokurasetai: Tensai-tachi no Renai Zunousen TV Size Аниме
BeatmapID:2173742
BeatmapSetID:1038445

[Difficulty]
HPDrainRate:5
CircleSize:4.2
OverallDifficulty:8
ApproachRate:9
SliderMultiplier:1.74
SliderTickRate:1

[Events]
//Background and Video events
0,0,"thumb-1920-1002965.jpg",0,0
Video,-3000,"Chika Creditless ED2.avi"
//Break Periods
//Storyboard Layer 0 (Background)
//Storyboard Layer 1 (Fail)
//Storyboard Layer 2 (Pass)
//Storyboard Layer 3 (Foreground)
//Storyboard Layer 4 (Overlay)
//Storyboard Sound Samples

[TimingPoints]
833,337.078651685393,4,2,1,50,1,0
833,-185.185185185185,4,2,1,50,0,0
4540,-185.185185185185,4,2,1,5,0,0
4877,-185.185185185185,4,2,1,50,0,0
7911,-185.185185185185,4,2,1,5,0,0
8248,-185.185185185185,4,2,1,50,0,0
9259,-185.185185185185,4,2,1,5,0,0
9596,-185.185185185185,4,2,1,50,0,0
9934,-185.185185185185,4,2,1,5,0,0
10271,-185.185185185185,4,2,1,50,0,0
10608,-185.185185185185,4,2,1,5,0,0
10945,-185.185185185185,4,2,1,60,0,0
14906,-185.185185185185,4,2,1,5,0,0
14990,-119.047619047619,4,2,1,60,0,0
40524,-119.047619047619,4,2,1,5,0,0
40608,-119.047619047619,4,2,1,70,0,0
42630,-119.047619047619,4,2,1,5,0,0
42715,-119.047619047619,4,2,1,30,0,0
42799,-119.047619047619,4,2,1,40,0,0
42883,-119.047619047619,4,2,1,50,0,0
42967,-119.047619047619,4,2,1,60,0,0
43052,-119.047619047619,4,2,1,70,0,0
43304,-119.047619047619,4,2,1,60,0,0
43641,-156.25,4,2,1,60,0,0
51394,-119.047619047619,4,2,1,60,0,0
54007,-119.047619047619,4,2,1,5,0,0
54091,-87.719298245614,4,2,1,60,0,0
54681,-87.719298245614,4,2,1,5,0,0
54765,-87.719298245614,4,2,1,70,0,0
55439,-69.4444444444444,4,2,1,80,0,0
56619,-96.1538461538461,4,2,1,80,0,0
75664,-96.1538461538461,4,2,1,70,0,0
81057,-96.1538461538461,4,2,1,76,0,0
83754,-96.1538461538461,4,2,1,84,0,0
84428,-96.1538461538461,4,2,1,89,0,0
85102,-96.1538461538461,4,2,1,94,0,0
85776,-96.1538461538461,4,2,1,100,0,0
88473,-227.272727272727,4,2,1,80,0,0
92518,-227.272727272727,4,2,1,60,0,0

[Colours]
Combo1 : 17,254,176
Combo2 : 173,255,95
Combo3 : 255,88,100
Combo4 : 255,94,55

[HitObjects]
0,241,833,6,0,B|108:258|108:258|157:232|117:180,2,187.920004587891,2|8|2,0:3|0:3|0:3,0:0:0:0:
15,124,2855,6,0,B|63:97|296:153|94:319|274:391|360:365,1,469.800011469727,2|0,0:0|0:0,0:0:0:0:
360,365,4877,6,0,B|376:319|345:278|333:292|292:245|326:181,2,187.920004587891,2|2|8,0:0|0:3|0:3,0:0:0:0:
499,152,6900,6,0,B|407:131|407:131|321:167|321:167|223:143,1,281.880006881836,2|0,0:3|0:0,0:0:0:0:
54,84,8248,2,0,P|178:92|155:215,1,281.880006881836,2|0,0:3|0:0,0:0:0:0:
126,358,9597,6,0,P|80:365|34:378,1,93.9600022939454,2|0,0:3|0:0,0:0:0:0:
191,235,10271,2,0,P|144:231|94:206,1,93.9600022939454,2|0,0:3|0:0,0:0:0:0:
244,326,10945,6,0,P|279:322|322:311,1,70.470001720459,8|0,0:1|0:0,0:0:0:0:
327,326,11282,1,8,0:3:0:0:
456,201,11619,6,0,P|445:238|443:283,1,70.470001720459,8|0,0:1|0:0,0:0:0:0:
432,279,11956,1,8,0:3:0:0:
299,213,12293,6,0,B|263:127|329:102|396:71|373:1|309:-31|245:24|291:83,1,328.860008028809,12|2,0:1|0:0,0:0:0:0:
290,82,13810,5,0,3:0:0:0:
180,56,13979,5,0,3:0:0:0:
75,144,14147,5,0,3:0:0:0:
88,286,14316,5,0,3:0:0:0:
97,303,14653,5,2,0:3:0:0:
88,286,14990,6,0,B|168:301|135:343|217:361,1,146.159995539551,8|8,3:2|1:0,0:0:0:0:
334,190,15495,2,0,P|265:175|222:247,1,146.159995539551,8|0,3:0|3:0,0:0:0:0:
396,333,16001,2,0,P|400:293|417:247,1,73.0799977697755,8|0,1:0|0:0,0:0:0:0:
310,379,16338,1,8,3:2:0:0:
192,261,16507,6,0,P|225:244|277:245,1,73.0799977697755,8|8,0:3|1:0,0:0:0:0:
489,147,16844,2,0,P|447:106|351:117,1,146.159995539551,8|0,3:2|3:0,0:0:0:0:
202,38,17349,1,8,1:0:0:0:
290,0,17518,1,2,0:0:0:0:
290,0,17602,1,2,0:0:0:0:
290,0,17686,2,0,P|278:55|271:116,1,109.619996654663,8|0,3:2|0:0,0:0:0:0:
260,125,18024,1,8,1:0:0:0:
51,199,18192,6,0,P|63:162|65:109,1,73.0799977697755,8|0,3:0|0:0,0:0:0:0:
314,243,18529,2,0,P|302:280|300:333,2,73.0799977697755,0|8|8,3:0|1:0|0:0,0:0:0:0:
314,243,19203,5,0,3:0:0:0:
428,177,19372,5,0,3:0:0:0:
410,44,19540,5,0,3:0:0:0:
272,3,19709,5,2,3:0:0:0:
488,344,20383,6,0,P|405:352|377:290,1,146.159995539551,10|8,3:2|1:0,0:0:0:0:
243,180,20889,2,0,P|260:106|267:28,1,146.159995539551,2|0,3:2|3:0,0:0:0:0:
424,192,21394,1,8,1:0:0:0:
328,238,21563,1,2,0:0:0:0:
382,73,21731,2,0,P|416:89|466:99,1,73.0799977697755,10|8,3:2|0:3,0:0:0:0:
328,156,22068,1,8,1:0:0:0:
183,61,22237,6,0,P|107:52|64:113,1,146.159995539551,8|0,3:2|3:0,0:0:0:0:
7,238,22743,2,0,L|102:220,1,73.0799977697755,8|0,1:0|0:0,0:0:0:0:
78,224,23080,2,0,B|154:245|112:286|205:323,1,146.159995539551,10|8,3:2|1:0,0:0:0:0:
321,208,23585,1,2,3:2:0:0:
220,157,23754,6,0,P|231:194|233:245,1,73.0799977697755,2|2,0:0|3:2,0:0:0:0:
395,337,24091,1,8,1:0:0:0:
313,375,24259,1,2,0:0:0:0:
313,375,24428,2,0,P|320:302|339:216,1,146.159995539551,8|8,3:2|1:0,0:0:0:0:
475,119,24934,6,0,P|488:154|489:195,1,73.0799977697755,8|0,3:2|0:0,0:0:0:0:
323,113,25271,1,0,3:0:0:0:
404,7,25439,2,0,P|398:45|382:85,1,73.0799977697755,8|2,1:0|0:0,0:0:0:0:
217,206,25776,2,0,B|139:187|169:149|72:132,1,146.159995539551,10|8,3:2|1:0,0:0:0:0:
242,67,26282,1,2,3:2:0:0:
147,0,26450,6,0,P|156:34|156:85,1,73.0799977697755,2|2,0:0|3:2,0:0:0:0:
13,270,26788,2,0,P|22:236|25:184,1,73.0799977697755,8|2,1:0|0:0,0:0:0:0:
184,318,27125,1,10,3:2:0:0:
93,353,27293,1,8,0:3:0:0:
198,218,27462,1,8,1:0:0:0:
331,358,27630,6,0,P|382:370|437:280,1,146.159995539551,10|8,3:2|3:2,0:0:0:0:
295,126,28136,2,0,P|290:164|280:208,1,73.0799977697755,8|0,1:0|0:0,0:0:0:0:
512,124,28473,5,8,3:2:0:0:
394,68,28641,1,2,0:0:0:0:
383,139,28810,5,8,1:0:0:0:
493,45,28979,1,2,3:2:0:0:
442,211,29147,5,8,0:0:0:0:
300,163,29316,1,2,3:2:0:0:
236,253,29484,5,8,1:0:0:0:
132,292,29653,1,2,0:0:0:0:
48,198,29821,5,8,3:2:0:0:
221,345,29990,5,4,3:0:0:0:
137,214,30158,5,4,3:0:0:0:
183,65,30327,5,4,3:0:0:0:
327,20,30495,5,10,0:3:0:0:
48,19,31170,6,0,P|66:88|59:191,1,146.159995539551,10|8,3:2|1:0,0:0:0:0:
158,348,31675,2,0,P|190:353|246:380,1,73.0799977697755,2|0,3:2|0:0,0:0:0:0:
101,255,32012,1,2,3:2:0:0:
221,169,32181,2,0,P|184:186|135:194,1,73.0799977697755,8|2,1:0|0:0,0:0:0:0:
350,332,32518,2,0,P|360:259|391:177,1,146.159995539551,10|8,3:2|1:0,0:0:0:0:
271,3,33024,6,0,P|318:63|405:60,1,146.159995539551,8|0,3:2|3:0,0:0:0:0:
476,208,33529,2,0,P|463:173|457:124,1,73.0799977697755,8|2,1:0|0:0,0:0:0:0:
248,217,33866,5,10,3:2:0:0:
309,144,34035,1,2,0:0:0:0:
393,237,34203,1,8,1:0:0:0:
267,325,34372,1,2,3:2:0:0:
323,271,34540,6,0,P|388:272|430:354,1,146.159995539551,2|8,0:0|1:0,0:0:0:0:
248,217,35046,1,0,0:0:0:0:
196,275,35215,2,0,L|113:291,1,73.0799977697755,10|8,3:2|0:3,0:0:0:0:
20,74,35552,5,8,1:0:0:0:
144,143,35720,2,0,B|71:128|98:82|8:72,1,146.159995539551,10|0,3:2|3:0,0:0:0:0:
195,0,36226,2,0,P|200:37|216:84,1,73.0799977697755,8|2,1:0|0:0,0:0:0:0:
73,355,36563,6,0,P|94:287|103:193,1,146.159995539551,10|8,3:2|1:0,0:0:0:0:
307,88,37068,2,0,P|379:85|430:160,1,146.159995539551,2|0,3:2|3:0,0:0:0:0:
479,184,37574,1,8,1:0:0:0:
315,294,37743,1,2,0:0:0:0:
358,172,37911,2,0,P|367:207|370:261,1,73.0799977697755,10|8,3:2|0:3,0:0:0:0:
481,322,38248,1,8,1:0:0:0:
417,366,38417,6,0,B|347:370|356:313|276:320,1,146.159995539551,10|0,3:2|3:0,0:0:0:0:
148,192,38922,2,0,L|226:177,1,73.0799977697755,8|0,1:0|0:0,0:0:0:0:
99,384,39259,2,0,P|58:323|86:233,1,146.159995539551,10|8,3:2|1:0,0:0:0:0:
255,145,39765,6,0,P|243:182|237:228,1,73.0799977697755,8|0,3:0|0:0,0:0:0:0:
72,85,40102,1,2,3:2:0:0:
153,20,40271,2,0,P|187:32|233:41,1,73.0799977697755,8|0,1:0|0:0,0:0:0:0:
350,192,40608,5,10,3:0:0:0:
368,154,40692,1,8,0:3:0:0:
407,130,40776,1,8,0:3:0:0:
449,148,40861,1,8,0:3:0:0:
473,178,40945,1,8,0:2:0:0:
464,189,41029,5,2,0:0:0:0:
171,265,41282,5,10,3:0:0:0:
189,303,41366,1,8,0:3:0:0:
229,326,41450,1,8,0:3:0:0:
270,309,41535,1,8,0:3:0:0:
294,279,41619,1,8,0:0:0:0:
282,267,41703,5,2,0:0:0:0:
26,101,41956,6,0,B|-28:109|-16:169|21:192|72:175|93:131|93:131|113:91|157:83|157:83|214:137|274:108|274:108|296:63|296:63|265:27|265:27|239:68|239:68|270:106,1,584.639982158204,14|2,3:0|3:0,0:0:0:0:
327,158,43473,5,2,3:0:0:0:
376,215,43641,2,0,L|362:339,1,111.36,2|8,0:0|3:0,0:0:0:0:
419,378,44316,1,2,0:0:0:0:
510,268,44653,6,0,L|443:283,1,55.68,2|2,3:0|3:0,0:0:0:0:
349,350,44990,2,0,L|283:366,1,55.68,2|2,0:0|0:0,0:0:0:0:
188,287,45327,2,0,B|148:300|148:300|124:324|124:324|82:337,1,111.36,8|2,3:0|0:0,0:0:0:0:
32,120,46001,6,0,P|58:133|94:138,1,55.68,2|2,3:0|3:0,0:0:0:0:
140,212,46338,2,0,P|167:201|213:196,1,55.68,2|2,0:0|0:0,0:0:0:0:
266,96,46675,2,0,P|309:127|386:134,1,111.36,8|2,3:0|0:0,0:0:0:0:
494,38,47349,6,0,P|482:68|481:101,1,55.68,2|2,3:0|3:0,0:0:0:0:
396,219,47686,2,0,P|418:205|455:198,1,55.68,2|2,0:0|0:0,0:0:0:0:
298,49,48024,2,0,P|311:75|323:166,1,111.36,8|2,3:0|0:0,0:0:0:0:
190,336,48698,5,2,3:0:0:0:
147,272,48866,2,0,P|193:244|259:262,1,111.36,2|2,3:0|0:0,0:0:0:0:
391,374,49372,6,0,L|367:201,1,167.04,12|2,3:0|0:0,0:0:0:0:
453,247,50046,1,2,3:0:0:0:
314,344,50215,1,2,3:0:0:0:
413,384,50383,2,0,L|403:317,1,55.68,2|2,0:0|0:0,0:0:0:0:
250,166,50720,6,0,P|231:122|311:46,1,167.04,12|2,3:0|0:0,0:0:0:0:
309,52,51394,6,0,P|233:60|138:91,1,146.159995539551,10|8,3:2|1:0,0:0:0:0:
21,190,51900,2,0,P|57:196|101:213,1,73.0799977697755,0|8,3:2|0:3,0:0:0:0:
224,324,52237,1,2,3:2:0:0:
103,384,52406,2,0,P|116:349|122:301,1,73.0799977697755,8|2,1:0|0:0,0:0:0:0:
349,201,52743,6,0,P|411:192|463:275,1,146.159995539551,10|8,3:2|1:0,0:0:0:0:
321,337,53248,1,2,3:2:0:0:
411,384,53417,2,0,P|401:350|395:299,1,73.0799977697755,8|0,0:3|3:0,0:0:0:0:
268,166,53754,2,0,P|280:109|284:37,1,109.619996654663,8|0,1:0|0:0,0:0:0:0:
313,36,54091,6,0,B|277:-8|200:-3|167:46|167:46|129:95|53:102|24:58|24:58|51:85|104:73,1,396.719995157227,8|8,3:0|3:0,0:0:0:0:
83,77,55439,6,0,B|60:55|64:27|64:27|132:0|221:59|196:143|111:196|111:196|193:217|256:276|208:370|128:387|128:387|135:350|176:323,1,689.040016822266,10|0,3:0|0:0,0:0:0:0:
161,334,56450,1,8,0:3:0:0:
480,111,56788,6,0,B|437:86|400:134|406:132|371:181|319:154,1,180.959998895508,8|8,3:2|1:0,0:0:0:0:
191,53,57293,1,2,3:2:0:0:
287,0,57462,2,0,P|271:42|264:101,1,90.4799994477539,2|2,0:0|3:2,0:0:0:0:
394,263,57799,2,0,P|410:221|417:162,1,90.4799994477539,8|0,1:0|0:0,0:0:0:0:
158,219,58136,5,10,3:2:0:0:
274,277,58304,1,2,0:0:0:0:
176,356,58473,5,8,1:0:0:0:
97,384,58641,1,2,3:2:0:0:
221,118,58810,6,0,P|227:164|246:221,1,90.4799994477539,2|0,0:0|3:0,0:0:0:0:
69,83,59147,1,8,1:0:0:0:
30,151,59316,1,0,0:0:0:0:
172,31,59484,6,0,P|252:23|329:89,1,180.959998895508,10|8,3:2|1:0,0:0:0:0:
467,155,59990,1,2,3:2:0:0:
416,210,60158,2,0,P|368:218|320:235,1,90.4799994477539,2|2,0:0|3:2,0:0:0:0:
495,69,60495,2,0,P|449:65|386:42,1,90.4799994477539,8|2,1:0|0:0,0:0:0:0:
258,165,60832,5,10,3:2:0:0:
371,308,61001,1,2,0:0:0:0:
233,364,61170,1,8,1:0:0:0:
331,214,61338,1,8,3:0:0:0:
141,76,61507,6,0,P|75:70|13:176,1,180.959998895508,6|8,3:0|1:0,0:0:0:0:
59,210,62012,1,2,0:0:0:0:
188,329,62181,6,0,P|194:281|221:220,1,90.4799994477539,10|2,3:2|0:0,0:0:0:0:
42,384,62518,2,0,P|37:340|17:292,1,90.4799994477539,8|2,1:0|3:2,0:0:0:0:
159,178,62855,5,2,0:0:0:0:
286,236,63024,1,2,3:2:0:0:
113,240,63192,5,8,1:0:0:0:
36,281,63361,1,2,0:0:0:0:
36,281,63445,1,2,0:0:0:0:
36,281,63529,1,10,3:2:0:0:
186,72,63782,5,2,0:0:0:0:
186,72,63866,2,0,P|226:90|286:97,1,90.4799994477539,8|2,1:0|3:2,0:0:0:0:
445,163,64203,6,0,P|364:156|319:254,1,180.959998895508,2|8,0:3|1:0,0:0:0:0:
472,162,64709,1,0,0:0:0:0:
372,1,64877,6,0,L|362:54,1,45.239999723877,2|0,3:2|0:0,0:0:0:0:
358,5,65046,2,0,L|348:58,1,45.239999723877,2|0,3:2|0:0,0:0:0:0:
344,11,65215,1,8,0:3:0:0:
61,107,65552,6,0,L|71:160,1,45.239999723877,2|0,3:2|0:0,0:0:0:0:
75,111,65721,2,0,L|85:164,1,45.239999723877,2|0,3:2|0:0,0:0:0:0:
89,117,65890,1,8,0:3:0:0:
262,349,66226,5,2,3:2:0:0:
145,285,66394,1,2,3:2:0:0:
247,315,66563,5,8,0:3:0:0:
179,347,66731,1,2,0:0:0:0:
316,164,66900,6,0,B|420:187|361:245|475:276,1,180.959998895508,2|2,0:0|3:2,0:0:0:0:
462,264,67574,6,0,P|407:231|339:319,1,180.959998895508,10|8,3:2|1:0,0:0:0:0:
135,177,68080,2,0,P|182:171|221:147,1,90.4799994477539,0|0,3:2|0:0,0:0:0:0:
67,285,68417,1,0,3:0:0:0:
112,344,68585,2,0,L|255:374,1,135.719999171631,8|0,1:0|0:0,0:0:0:0:
262,360,68922,5,2,3:2:0:0:
187,269,69091,1,2,3:2:0:0:
240,218,69259,1,2,0:2:0:0:
308,242,69428,1,2,0:2:0:0:
115,84,69597,5,2,3:2:0:0:
45,188,69765,1,2,3:2:0:0:
106,230,69934,1,2,0:2:0:0:
171,196,70102,1,2,0:2:0:0:
269,102,70271,5,2,3:2:0:0:
362,18,70439,1,2,3:2:0:0:
436,19,70608,1,2,0:2:0:0:
478,84,70776,1,2,0:2:0:0:
414,184,70945,5,2,3:2:0:0:
331,270,71113,1,2,3:2:0:0:
467,356,71282,1,2,0:3:0:0:
478,362,71619,5,8,3:2:0:0:
205,118,71788,2,0,P|216:159|220:230,2,90.4799994477539,2|0|2,0:0|0:0|0:0,0:0:0:0:
48,307,72293,5,8,3:2:0:0:
321,63,72462,2,0,P|310:104|306:175,2,90.4799994477539,2|0|2,0:0|0:0|0:0,0:0:0:0:
168,10,72967,5,8,3:2:0:0:
62,81,73136,5,2,0:0:0:0:
50,202,73304,5,8,3:2:0:0:
164,283,73473,5,2,0:0:0:0:
178,293,74484,5,0,3:0:0:0:
244,247,74653,5,0,3:0:0:0:
335,263,74821,5,0,3:0:0:0:
394,353,74990,5,0,3:0:0:0:
383,368,75327,5,8,0:3:0:0:
394,353,75664,6,0,P|374:267|371:158,1,180.959998895508,8|8,3:2|1:0,0:0:0:0:
227,40,76170,2,0,P|162:100|192:192,1,180.959998895508,8|0,3:0|3:0,0:0:0:0:
391,22,76675,2,0,P|346:16|289:-10,1,90.4799994477539,8|0,1:0|0:0,0:0:0:0:
443,165,77012,5,8,3:2:0:0:
307,206,77181,1,0,0:0:0:0:
423,317,77349,1,8,1:0:0:0:
372,259,77518,6,0,P|320:244|240:331,1,180.959998895508,8|0,3:0|3:0,0:0:0:0:
81,224,78024,1,8,1:0:0:0:
149,194,78192,1,2,0:0:0:0:
67,384,78361,6,0,P|54:336|26:293,1,90.4799994477539,10|0,3:2|0:0,0:0:0:0:
169,93,78698,2,0,P|130:115|69:132,1,90.4799994477539,8|8,1:0|3:0,0:0:0:0:
260,308,79035,6,0,P|221:291|161:279,1,90.4799994477539,2|0,0:0|3:0,0:0:0:0:
330,153,79372,2,0,P|291:173|234:187,1,90.4799994477539,8|0,1:0|0:0,0:0:0:0:
444,324,79709,5,10,3:2:0:0:
342,252,79877,1,0,0:0:0:0:
475,193,80046,1,8,1:0:0:0:
438,123,80215,6,0,B|342:107|395:38|281:22,1,180.959998895508,8|0,3:0|3:0,0:0:0:0:
235,67,80720,1,8,1:0:0:0:
107,170,80889,5,2,0:0:0:0:
107,170,80973,1,2,0:0:0:0:
107,170,81057,2,0,P|125:129|135:71,1,90.4799994477539,10|8,1:0|3:2,0:0:0:0:
286,235,81394,2,0,L|183:269,1,90.4799994477539,10|8,1:0|3:2,0:0:0:0:
378,384,81731,5,10,1:0:0:0:
271,345,81900,1,8,3:2:0:0:
412,242,82068,5,10,1:0:0:0:
341,293,82237,1,8,3:2:0:0:
341,293,82321,1,0,0:0:0:0:
341,293,82406,2,0,P|322:251|322:186,1,90.4799994477539,12|8,1:0|3:2,0:0:0:0:
173,97,82743,1,8,1:0:0:0:
279,28,82911,1,8,3:2:0:0:
279,28,83080,6,0,P|264:72|261:117,1,90.4799994477539,8|8,1:0|3:2,0:0:0:0:
108,255,83417,2,0,L|205:234,1,90.4799994477539,8|8,1:0|3:2,0:0:0:0:
219,336,83754,5,8,3:0:0:0:
82,183,83922,1,8,0:3:0:0:
83,276,84091,5,8,3:0:0:0:
194,154,84259,1,8,0:3:0:0:
82,32,84428,5,2,3:0:0:0:
12,106,84597,1,2,0:3:0:0:
168,14,84765,5,2,3:0:0:0:
259,54,84934,1,2,0:3:0:0:
335,189,85102,5,12,1:3:0:0:
461,139,85271,1,4,1:3:0:0:
483,215,85439,5,12,1:3:0:0:
369,112,85608,1,4,1:3:0:0:
291,265,85776,5,10,0:1:0:0:
362,296,85945,1,10,0:1:0:0:
247,191,86113,5,10,0:1:0:0:
119,263,86282,1,10,0:1:0:0:
413,294,88473,6,0,B|451:274|470:228|470:228|513:270|529:331|490:433|357:416|321:369|295:289|351:229|351:229|398:190|412:111|393:61|393:61|338:65|292:109|302:169|302:169|335:143|327:101,1,918.72002803711,14|10,0:1|0:3,0:0:0:0:
