osu file format v14

[General]
AudioFilename: audio.mp3
AudioLeadIn: 0
PreviewTime: 56450
Countdown: 0
SampleSet: Soft
StackLeniency: 0.3
Mode: 0
LetterboxInBreaks: 0
WidescreenStoryboard: 1

[Editor]
Bookmarks: 833,10945,20383,31170,43304,56788,68922,75664,81057,88473
DistanceSpacing: 1.15
BeatDivisor: 4
GridSize: 16
TimelineZoom: 1.7

[Metadata]
Title:Chikatto Chika Chika
TitleUnicode:チカっとチカ千花っ♡
Artist:Sati Akura
ArtistUnicode:Sati Akura
Creator:-Mikan
Version:Xenon's Advanced
Source:かぐや様は告らせたい~天才たちの恋愛頭脳戦~
Tags:Djulus 3mplify smozit Daycore DendyHere DendyMudak Deca iljaaz Xenon- Xehn Xen Чика Сати Акура Русский Russian cover Anime OP opening Fujiwara Chika CV Kohara Konomi Kaguya-sama: Love Is War Kaguya-sama wa Kokurasetai: Tensai-tachi no Renai Zunousen TV Size Аниме
BeatmapID:2204917
BeatmapSetID:1038445

[Difficulty]
HPDrainRate:5
CircleSize:4
OverallDifficulty:5.5
ApproachRate:7
SliderMultiplier:0.999999999999999
SliderTickRate:1

[Events]
//Background and Video events
0,0,"thumb-1920-1002965.jpg",0,0
Video,-3000,"Chika Creditless ED2.avi"
//Break Periods
//Storyboard Layer 0 (Background)
//Storyboard Layer 1 (Fail)
//Storyboard Layer 2 (Pass)
//Storyboard Layer 3 (Foreground)
//Storyboard Layer 4 (Overlay)
//Storyboard Sound Samples

[TimingPoints]
833,337.078651685393,4,2,1,50,1,0
833,-142.857142857143,4,2,1,50,0,0
8585,-142.857142857143,4,2,1,5,0,0
9597,-142.857142857143,4,2,1,50,0,0
9934,-142.857142857143,4,2,1,5,0,0
10271,-142.857142857143,4,2,1,50,0,0
10608,-142.857142857143,4,2,1,5,0,0
10945,-80,4,2,1,60,0,0
11198,-80,4,2,1,5,0,0
11282,-80,4,2,1,60,0,0
11535,-80,4,2,1,5,0,0
11619,-80,4,2,1,60,0,0
11872,-80,4,2,1,5,0,0
11956,-80,4,2,1,60,0,0
12209,-80,4,2,1,5,0,0
12293,-80,4,2,1,60,0,0
14906,-80,4,2,1,5,0,0
14990,-80,4,2,1,60,0,0
40524,-80,4,2,1,5,0,0
40608,-80,4,2,1,70,0,0
42630,-80,4,2,1,5,0,0
42715,-80,4,2,1,30,0,0
42799,-80,4,2,1,40,0,0
42883,-80,4,2,1,50,0,0
42967,-80,4,2,1,60,0,0
43052,-80,4,2,1,70,0,0
43304,-90.9090909090909,4,2,1,60,0,0
51394,-80,4,2,1,60,0,0
54007,-80,4,2,1,5,0,0
54091,-80,4,2,1,60,0,0
54681,-80,4,2,1,5,0,0
54765,-80,4,2,1,70,0,0
55439,-80,4,2,1,80,0,0
56788,-71.4285714285714,4,2,1,80,0,1
74990,-80,4,2,1,80,0,0
75664,-80,4,2,1,70,0,0
81057,-71.4285714285714,4,2,1,76,0,0
83754,-71.4285714285714,4,2,1,84,0,0
84428,-71.4285714285714,4,2,1,89,0,0
85102,-71.4285714285714,4,2,1,94,0,0
85776,-71.4285714285714,4,2,1,100,0,0
88473,-223.214285714286,4,2,1,80,0,1
92518,-133.333333333333,4,2,1,60,0,0

[Colours]
Combo1 : 151,255,255
Combo2 : 253,196,237
Combo3 : 255,79,167
Combo4 : 255,108,108

[HitObjects]
129,144,833,6,0,P|164:110|204:170,3,139.999995727539,2|8|2|2,0:3|0:3|0:3|0:0,0:0:0:0:
352,311,4877,6,0,P|375:253|427:286,3,139.999995727539,2|2|8|2,0:0|0:3|0:3|0:3,0:0:0:0:
389,91,8248,5,2,0:3:0:0:
262,267,9597,6,0,L|244:124,1,139.999995727539,2|2,0:3|0:3,0:0:0:0:
351,58,10945,6,0,B|410:37|410:37|457:78,1,125,8|8,0:1|0:3,0:0:0:0:
428,238,11619,2,0,B|368:258|368:258|321:217,1,125,8|8,0:1|0:3,0:0:0:0:
198,111,12293,6,0,P|110:127|81:211,1,187.5,12|0,0:1|0:3,0:0:0:0:
146,259,12967,1,8,0:3:0:0:
378,125,13810,6,0,L|387:45,2,62.4999999999999,0|0|0,3:0|3:0|3:0,0:0:0:0:
316,176,14316,2,0,L|331:300,1,125,0|2,3:0|0:3,0:0:0:0:
182,241,14990,6,0,P|124:228|81:277,1,125,8|8,3:2|1:0,0:0:0:0:
64,350,15495,2,0,L|48:222,1,125,8|0,3:0|3:0,0:0:0:0:
91,158,16001,1,8,1:0:0:0:
246,192,16338,6,0,L|308:184,1,62.4999999999999,8|8,3:2|0:3,0:0:0:0:
364,247,16675,1,8,1:0:0:0:
364,247,16844,2,0,P|341:210|388:150,1,125,8|0,3:2|3:0,0:0:0:0:
433,89,17349,1,8,1:0:0:0:
279,133,17686,6,0,L|154:117,1,125,8|8,3:2|1:0,0:0:0:0:
98,60,18192,2,0,P|73:115|96:172,1,125,8|0,3:0|3:0,0:0:0:0:
171,200,18698,1,8,1:0:0:0:
391,294,19203,6,0,P|416:276|446:280,2,62.4999999999999,0|0|0,3:0|3:0|3:0,0:0:0:0:
348,362,19709,2,0,L|363:234,1,125,2|0,3:0|0:0,0:0:0:0:
219,207,20383,6,0,P|183:157|199:99,1,125,10|8,3:2|1:0,0:0:0:0:
277,83,20889,2,0,P|312:132|296:190,1,125,2|0,3:2|3:0,0:0:0:0:
272,266,21394,2,0,L|279:329,1,62.4999999999999,8|2,1:0|0:0,0:0:0:0:
355,368,21731,5,10,3:2:0:0:
355,368,21900,2,0,P|385:372|410:354,1,62.4999999999999,8|8,0:3|1:0,0:0:0:0:
490,356,22237,2,0,P|432:337|417:279,1,125,8|0,3:2|3:0,0:0:0:0:
461,213,22743,1,8,1:0:0:0:
470,220,23080,6,0,L|452:77,1,125,10|8,3:2|1:0,0:0:0:0:
383,66,23585,1,2,3:2:0:0:
383,66,23754,2,0,L|390:3,2,62.4999999999999,2|2|8,0:0|3:2|1:0,0:0:0:0:
310,98,24259,1,2,0:0:0:0:
249,47,24428,5,8,3:2:0:0:
249,47,24597,2,0,P|204:36|172:52,1,62.4999999999999,8|8,0:3|1:0,0:0:0:0:
135,99,24934,2,0,L|152:241,1,125,8|0,3:2|3:0,0:0:0:0:
215,268,25439,1,8,1:0:0:0:
313,142,25776,6,0,P|367:140|396:208,1,125,10|8,3:2|1:0,0:0:0:0:
448,266,26282,1,2,3:2:0:0:
448,266,26450,2,0,L|510:258,2,62.4999999999999,2|2|8,0:0|3:2|1:0,0:0:0:0:
402,333,26956,1,2,0:0:0:0:
402,333,27125,6,0,L|277:317,1,125,10|8,3:2|1:0,0:0:0:0:
210,359,27630,2,0,B|189:299|189:299|230:252,1,125,10|8,3:2|3:2,0:0:0:0:
309,241,28136,1,8,1:0:0:0:
150,216,28473,6,0,L|25:231,1,125,8|8,3:2|1:0,0:0:0:0:
15,154,28979,1,2,3:2:0:0:
15,154,29147,2,0,L|142:138,1,125,8|8,0:0|1:0,0:0:0:0:
189,76,29653,1,2,0:0:0:0:
189,76,29821,6,0,P|175:31|189:-1,1,62.4999999999999,8|4,3:2|3:0,0:0:0:0:
258,7,30158,2,0,P|271:51|257:84,1,62.4999999999999,4|4,3:0|3:0,0:0:0:0:
344,89,30495,2,0,P|381:42|441:47,1,125,10|0,0:3|0:0,0:0:0:0:
341,206,31170,6,0,P|303:159|243:164,1,125,10|8,3:2|1:0,0:0:0:0:
181,215,31675,2,0,L|196:342,1,125,2|2,3:2|3:2,0:0:0:0:
127,379,32181,2,0,L|64:371,1,62.4999999999999,8|2,1:0|0:0,0:0:0:0:
19,310,32518,5,10,3:2:0:0:
19,310,32686,2,0,P|22:279|9:250,1,62.4999999999999,8|8,0:3|1:0,0:0:0:0:
59,187,33024,2,0,P|71:150|148:185,1,125,8|0,3:2|3:0,0:0:0:0:
222,164,33529,1,8,1:0:0:0:
325,286,33866,6,0,L|387:278,1,62.4999999999999,10|2,3:2|0:0,0:0:0:0:
460,323,34203,1,8,1:0:0:0:
460,323,34372,1,2,3:2:0:0:
512,262,34540,2,0,L|496:134,1,125,2|8,0:0|1:0,0:0:0:0:
425,105,35046,1,0,0:0:0:0:
425,105,35215,6,0,P|437:76|434:45,1,62.4999999999999,10|8,3:2|0:3,0:0:0:0:
368,5,35552,1,8,1:0:0:0:
368,5,35720,2,0,L|240:20,1,125,10|0,3:2|3:0,0:0:0:0:
200,87,36226,1,8,1:0:0:0:
328,191,36563,6,0,L|310:333,1,125,10|8,3:2|1:0,0:0:0:0:
361,377,37068,2,0,P|315:337|256:349,1,125,2|0,3:2|3:0,0:0:0:0:
192,300,37574,2,0,L|199:237,1,62.4999999999999,8|2,1:0|0:0,0:0:0:0:
265,192,37911,6,0,L|255:112,1,62.4999999999999,10|8,3:2|0:3,0:0:0:0:
199,78,38248,1,8,1:0:0:0:
199,78,38417,2,0,P|139:67|101:117,1,125,10|0,3:2|3:0,0:0:0:0:
41,164,38922,2,0,L|48:226,1,62.4999999999999,8|0,1:0|0:0,0:0:0:0:
109,278,39259,5,10,3:2:0:0:
218,160,39597,1,8,1:0:0:0:
218,160,39765,2,0,P|276:148|315:193,1,125,8|2,3:0|3:2,0:0:0:0:
379,241,40271,1,8,1:0:0:0:
268,357,40608,6,0,B|167:378|196:292|96:314,1,187.5,10|0,3:0|0:0,0:0:0:0:
35,261,41282,2,0,P|77:188|149:232,1,187.5,10|0,3:0|0:0,0:0:0:0:
222,265,41956,5,14,3:0:0:0:
118,252,43304,6,0,L|110:188,1,55.0000016784668,2|2,3:0|3:0,0:0:0:0:
47,149,43641,2,0,L|62:21,2,110.000003356934,2|8|2,0:0|3:0|0:0,0:0:0:0:
149,274,44653,6,0,L|203:267,1,55.0000016784668,2|2,3:0|3:0,0:0:0:0:
276,302,44990,2,0,B|294:250|294:250|258:208,2,110.000003356934,2|8|2,0:0|3:0|0:0,0:0:0:0:
362,165,46001,6,0,L|369:228,1,55.0000016784668,2|2,3:0|3:0,0:0:0:0:
433,268,46338,2,0,L|417:395,2,110.000003356934,2|8|2,0:0|3:0|0:0,0:0:0:0:
331,143,47350,6,0,L|276:149,1,55.0000016784668,2|2,3:0|3:0,0:0:0:0:
204,115,47687,2,0,B|185:166|185:166|221:208,2,110.000003356934,2|8|2,0:0|3:0|0:0,0:0:0:0:
67,28,48698,6,0,L|73:82,1,55.0000016784668,2|2,3:0|3:0,0:0:0:0:
19,142,49035,2,0,L|12:196,1,55.0000016784668,2|2,0:0|0:0,0:0:0:0:
66,255,49372,2,0,P|114:234|150:272,1,110.000003356934,12|2,3:0|0:0,0:0:0:0:
301,287,50046,6,0,L|295:342,1,55.0000016784668,2|2,3:0|3:0,0:0:0:0:
374,355,50383,2,0,L|381:301,1,55.0000016784668,2|2,0:0|0:0,0:0:0:0:
429,236,50720,2,0,P|464:198|512:218,1,110.000003356934,12|2,3:0|0:0,0:0:0:0:
391,141,51394,6,0,P|363:97|299:123,1,125,10|8,3:2|1:0,0:0:0:0:
254,180,51900,2,0,L|126:195,1,125,0|2,3:2|3:2,0:0:0:0:
65,146,52406,2,0,L|74:66,1,62.4999999999999,8|2,1:0|0:0,0:0:0:0:
17,23,52743,6,0,P|73:1|129:26,1,125,10|8,3:2|1:0,0:0:0:0:
155,106,53248,1,2,3:2:0:0:
155,106,53417,2,0,L|217:98,1,62.4999999999999,8|0,0:3|3:0,0:0:0:0:
274,42,53754,1,8,1:0:0:0:
404,135,54091,6,0,B|303:114|332:200|232:178,1,187.5,8|0,3:0|0:0,0:0:0:0:
171,231,54765,2,0,P|213:304|285:260,1,187.5,8|2,3:0|0:0,0:0:0:0:
358,227,55439,5,10,3:0:0:0:
86,95,56788,6,0,B|161:110|140:46|215:62,1,139.999995727539,0|8,0:0|1:0,0:0:0:0:
289,32,57293,1,2,3:2:0:0:
353,80,57462,2,0,P|381:61|415:66,1,69.9999978637695,2|2,0:0|3:2,0:0:0:0:
433,145,57799,2,0,P|404:163|370:158,1,69.9999978637695,8|0,1:0|0:0,0:0:0:0:
291,138,58136,5,10,3:2:0:0:
291,138,58304,1,2,0:0:0:0:
236,197,58473,2,0,L|245:276,1,69.9999978637695,8|2,1:0|3:2,0:0:0:0:
300,324,58810,2,0,P|333:319|362:337,2,69.9999978637695,2|0|8,0:0|3:0|1:0,0:0:0:0:
241,379,59316,6,0,L|102:361,1,139.999995727539,0|2,0:0|0:0,0:0:0:0:
46,304,59821,2,0,L|36:224,1,69.9999978637695,8|2,1:0|3:2,0:0:0:0:
94,177,60158,1,2,0:0:0:0:
94,177,60327,1,2,3:2:0:0:
164,215,60495,2,0,P|192:196|226:201,1,69.9999978637695,8|2,1:0|0:0,0:0:0:0:
279,263,60832,6,0,P|308:202|280:141,1,139.999995727539,10|8,3:2|1:0,0:0:0:0:
202,116,61338,1,8,3:0:0:0:
263,63,61507,2,0,P|257:29|275:0,2,69.9999978637695,6|0|8,3:0|0:0|1:0,0:0:0:0:
340,84,62012,6,0,P|404:92|441:179,1,139.999995727539,2|2,0:0|0:0,0:0:0:0:
493,214,62518,2,0,L|484:283,1,69.9999978637695,8|2,1:0|3:2,0:0:0:0:
426,339,62855,1,2,0:0:0:0:
426,339,63024,1,2,3:2:0:0:
350,312,63192,2,0,P|321:330|287:325,1,69.9999978637695,8|2,1:0|0:0,0:0:0:0:
223,274,63529,6,0,L|206:131,1,139.999995727539,10|8,3:2|1:0,0:0:0:0:
142,87,64035,1,2,3:2:0:0:
69,121,64203,2,0,P|40:103|6:108,2,69.9999978637695,2|0|8,0:3|3:2|1:0,0:0:0:0:
289,163,64877,6,0,L|368:173,1,69.9999978637695,2|2,3:2|3:2,0:0:0:0:
494,365,65552,6,0,L|424:373,1,69.9999978637695,2|2,3:2|3:2,0:0:0:0:
222,241,66226,6,0,L|301:251,1,69.9999978637695,2|2,3:2|3:2,0:0:0:0:
479,97,66900,6,0,B|453:57|453:57|357:68,1,139.999995727539,2|2,0:0|3:2,0:0:0:0:
230,162,67574,6,0,P|173:131|137:184,1,139.999995727539,10|8,3:2|1:0,0:0:0:0:
88,247,68080,1,0,3:2:0:0:
81,240,68417,1,0,3:0:0:0:
24,183,68585,2,0,L|32:113,1,69.9999978637695,8|0,1:0|0:0,0:0:0:0:
92,61,68922,6,0,L|161:52,1,69.9999978637695,2|2,3:2|3:2,0:0:0:0:
293,214,69597,6,0,L|362:222,1,69.9999978637695,2|2,3:2|3:2,0:0:0:0:
472,6,70271,6,0,L|403:15,1,69.9999978637695,2|2,3:2|3:2,0:0:0:0:
269,175,70945,6,0,L|200:167,1,69.9999978637695,2|2,3:2|3:2,0:0:0:0:
15,323,71619,5,8,3:2:0:0:
85,362,71788,2,0,B|160:377|139:313|214:329,1,139.999995727539,2|2,0:0|0:0,0:0:0:0:
282,370,72293,5,8,3:2:0:0:
345,320,72462,2,0,L|325:161,1,139.999995727539,2|2,0:0|0:0,0:0:0:0:
262,134,72967,5,8,3:2:0:0:
262,134,73136,1,2,0:0:0:0:
195,178,73304,2,0,P|166:160|132:165,1,69.9999978637695,8|2,3:2|0:0,0:0:0:0:
307,220,74484,6,0,L|295:125,2,69.9999978637695,0|0|0,3:0|3:0|3:0,0:0:0:0:
265,289,74990,2,0,B|325:309|325:309|372:268,1,125,0|8,3:0|0:3,0:0:0:0:
229,218,75664,6,0,P|171:231|128:182,1,125,8|8,3:2|1:0,0:0:0:0:
103,112,76169,2,0,L|87:240,1,125,8|0,3:0|3:0,0:0:0:0:
134,300,76675,1,8,1:0:0:0:
287,344,77012,6,0,L|279:282,1,62.4999999999999,8|0,3:2|0:0,0:0:0:0:
342,226,77349,1,8,1:0:0:0:
342,226,77518,2,0,P|305:249|245:202,1,125,8|0,3:0|3:0,0:0:0:0:
184,157,78023,1,8,1:0:0:0:
323,76,78360,6,0,L|448:60,1,125,10|8,3:2|1:0,0:0:0:0:
504,3,78866,2,0,P|529:58|506:115,1,125,8|0,3:0|3:0,0:0:0:0:
475,188,79372,2,0,L|484:267,1,62.4999999999999,8|0,1:0|0:0,0:0:0:0:
415,294,79709,6,0,P|386:282|355:285,1,62.4999999999999,10|0,3:2|0:0,0:0:0:0:
313,354,80046,1,8,1:0:0:0:
313,354,80215,2,0,L|328:226,1,125,8|0,3:0|3:0,0:0:0:0:
397,190,80720,2,0,L|389:127,1,62.4999999999999,8|2,1:0|0:0,0:0:0:0:
327,75,81057,6,0,P|293:67|261:81,1,69.9999978637695,10|8,1:0|3:2,0:0:0:0:
192,42,81394,2,0,P|166:65|159:99,1,69.9999978637695,10|8,1:0|3:2,0:0:0:0:
87,134,81731,2,0,P|91:168|115:193,1,69.9999978637695,10|8,1:0|3:2,0:0:0:0:
102,272,82068,2,0,P|132:287|166:282,1,69.9999978637695,10|8,1:0|3:2,0:0:0:0:
194,206,82406,6,0,L|352:225,1,139.999995727539,12|8,1:0|1:0,0:0:0:0:
453,329,83080,2,0,L|294:348,1,139.999995727539,8|8,1:0|1:0,0:0:0:0:
244,306,83585,1,8,3:2:0:0:
187,364,83754,6,0,P|153:355|131:328,1,69.9999978637695,8|8,3:0|0:3,0:0:0:0:
51,331,84091,2,0,P|39:298|48:265,1,69.9999978637695,8|8,3:0|0:3,0:0:0:0:
0,202,84428,2,0,P|19:173|52:162,1,69.9999978637695,2|2,3:0|0:3,0:0:0:0:
75,85,84765,2,0,P|109:85|137:105,1,69.9999978637695,2|2,3:0|0:3,0:0:0:0:
132,188,85102,5,12,1:3:0:0:
132,188,85271,1,4,1:3:0:0:
190,242,85439,2,0,L|269:232,1,69.9999978637695,12|4,1:3|1:3,0:0:0:0:
322,284,85776,5,10,0:1:0:0:
389,239,85945,1,10,0:1:0:0:
454,285,86113,2,0,L|445:354,1,69.9999978637695,10|10,0:1|0:1,0:0:0:0:
149,198,88473,6,0,B|185:158|143:104|143:104|230:73|274:158|274:158|217:248|267:317|325:320|355:291|363:265|366:242|348:218,1,537.60001575,14|10,0:1|0:3,0:0:0:0:
