osu file format v14

[General]
AudioFilename: audio.mp3
AudioLeadIn: 0
PreviewTime: 56450
Countdown: 0
SampleSet: Soft
StackLeniency: 0.3
Mode: 0
LetterboxInBreaks: 0
WidescreenStoryboard: 0

[Editor]
DistanceSpacing: 1.9
BeatDivisor: 4
GridSize: 32
TimelineZoom: 1.7

[Metadata]
Title:Chikatto Chika Chika
TitleUnicode:チカっとチカ千花っ♡
Artist:Sati Akura
ArtistUnicode:Sati Akura
Creator:-Mikan
Version:General Secretary of the CPSU Central Committee
Source:かぐや様は告らせたい~天才たちの恋愛頭脳戦~
Tags:Djulus 3mplify smozit Daycore DendyHere DendyMudak Deca iljaaz Xenon- Xehn Xen Чика Сати Акура Русский Russian cover Anime OP opening Fujiwara Chika CV Kohara Konomi Kaguya-sama: Love Is War Kaguya-sama wa Kokurasetai: Tensai-tachi no Renai Zunousen TV Size Аниме
BeatmapID:2173002
BeatmapSetID:1038445

[Difficulty]
HPDrainRate:5
CircleSize:4
OverallDifficulty:9.2
ApproachRate:9.2
SliderMultiplier:1.78
SliderTickRate:1

[Events]
//Background and Video events
0,0,"thumb-1920-1002965.jpg",0,0
Video,-3000,"Chika Creditless ED2.avi"
//Break Periods
//Storyboard Layer 0 (Background)
//Storyboard Layer 1 (Fail)
//Storyboard Layer 2 (Pass)
//Storyboard Layer 3 (Foreground)
//Storyboard Layer 4 (Overlay)
//Storyboard Sound Samples

[TimingPoints]
833,337.078651685393,4,2,1,50,1,0
833,-250,4,2,1,50,0,0
8585,-250,4,2,1,5,0,0
9597,-250,4,2,1,50,0,0
9934,-250,4,2,1,5,0,0
10271,-250,4,2,1,50,0,0
10608,-250,4,2,1,5,0,0
10945,-100,4,2,1,60,0,0
11198,-100,4,2,1,5,0,0
11282,-250,4,2,1,60,0,0
11535,-250,4,2,1,5,0,0
11619,-100,4,2,1,60,0,0
11872,-100,4,2,1,5,0,0
11956,-250,4,2,1,60,0,0
12209,-250,4,2,1,5,0,0
12293,-153.846153846153,4,2,1,60,0,0
12967,-117.647058823529,4,2,1,60,0,0
14653,-90.9090909090909,4,2,1,60,0,0
14906,-90.9090909090909,4,2,1,5,0,0
14990,-100,4,2,1,60,0,0
19709,-153.846153846153,4,2,1,60,0,0
20383,-100,4,2,1,60,0,0
30495,-153.846153846153,4,2,1,60,0,0
31170,-100,4,2,1,60,0,0
39765,-80,4,2,1,60,0,0
40271,-500,4,2,1,60,0,0
40524,-500,4,2,1,5,0,0
40608,-66.6666666666667,4,2,1,70,0,0
42630,-66.6666666666667,4,2,1,5,0,0
42715,-181.818181818182,4,2,1,30,0,0
42799,-181.818181818181,4,2,1,40,0,0
42883,-181.818181818181,4,2,1,50,0,0
42967,-181.818181818181,4,2,1,60,0,0
43052,-181.818181818181,4,2,1,70,0,0
43304,-200,4,2,1,60,0,0
51394,-100,4,2,1,60,0,0
54007,-100,4,2,1,5,0,0
54091,-133.333333333333,4,2,1,60,0,0
54681,-133.333333333333,4,2,1,5,0,0
54765,-100,4,2,1,70,0,0
55439,-86.9565217391304,4,2,1,80,0,0
56788,-86.9565217391304,4,2,1,80,0,1
74990,-86.9565217391304,4,2,1,80,0,0
75664,-100,4,2,1,70,0,1
81057,-100,4,2,1,76,0,1
83754,-100,4,2,1,84,0,1
84428,-100,4,2,1,89,0,1
85102,-100,4,2,1,94,0,1
85776,-100,4,2,1,100,0,1
86282,-100,4,2,1,100,0,0
88473,-196.078431372549,4,2,1,80,0,1
92518,-196.078431372549,4,2,1,60,0,0

[Colours]
Combo1 : 151,255,255
Combo2 : 253,196,237
Combo3 : 255,79,167
Combo4 : 255,108,108

[HitObjects]
58,298,833,6,0,B|138:287|112:333|197:323,1,142.4,2|8,0:3|0:3,0:0:0:0:
262,291,2181,2,0,B|253:265|228:261|228:261|207:317|243:350,1,142.4,2|2,0:3|0:0,0:0:0:0:
453,86,4877,6,0,B|368:97|402:51|314:61,1,142.4,2|2,0:0|0:3,0:0:0:0:
246,96,6226,2,0,B|258:119|281:126|281:126|298:77|258:29,1,142.4,8|2,0:3|0:3,0:0:0:0:
263,36,8248,6,0,L|277:111,1,71.2,2|0,0:3|0:0,0:0:0:0:
191,323,9597,6,0,L|201:246,1,71.2,2|0,0:3|0:0,0:0:0:0:
200,252,10271,2,0,L|210:175,1,71.2,2|0,0:3|0:0,0:0:0:0:
66,67,10945,6,0,P|90:103|168:75,1,133.5,8|0,0:1|0:0,0:0:0:0:
161,60,11282,2,0,P|135:75|123:102,1,53.4,8|0,0:3|0:0,0:0:0:0:
309,167,11619,6,0,P|285:203|207:175,1,133.5,8|0,0:1|0:0,0:0:0:0:
213,160,11956,2,0,P|239:175|251:202,1,53.4,8|0,0:3|0:0,0:0:0:0:
84,353,12293,6,0,P|103:292|114:168,1,173.549992055512,12|0,0:1|0:3,0:0:0:0:
161,60,12967,6,0,B|197:43|252:34|252:34|299:100|243:173,1,226.950004328728,8|2,0:3|0:0,0:0:0:0:
253,157,13810,5,0,3:0:0:0:
69,110,13979,1,0,3:0:0:0:
15,291,14147,1,0,3:0:0:0:
211,340,14316,1,0,3:0:0:0:
211,340,14653,6,0,B|242:291|215:255|215:255|203:292|272:315,1,146.850004481506,2|0,0:3|0:0,0:0:0:0:
304,258,14990,6,0,P|319:211|410:172,1,133.5,8|0,3:2|0:0,0:0:0:0:
399,187,15327,1,8,1:0:0:0:
481,68,15495,2,0,P|412:50|340:23,1,133.5,8|0,3:0|0:0,0:0:0:0:
346,13,15832,1,0,3:0:0:0:
405,264,16001,1,8,1:0:0:0:
485,166,16170,1,0,0:0:0:0:
283,94,16338,6,0,P|292:145|299:194,1,89,8|8,3:2|0:3,0:0:0:0:
479,356,16675,1,8,1:0:0:0:
479,356,16844,2,0,P|485:311|493:268,1,89,8|0,3:2|0:0,0:0:0:0:
238,300,17181,5,0,3:0:0:0:
150,238,17349,2,0,P|100:245|54:257,1,89,8|2,1:0|0:0,0:0:0:0:
51,266,17602,1,2,0:0:0:0:
56,280,17686,2,0,P|62:215|67:129,1,133.5,8|0,3:2|0:0,0:0:0:0:
56,131,18024,1,8,1:0:0:0:
192,32,18192,2,0,P|245:30|282:94,1,133.5,8|0,3:0|0:0,0:0:0:0:
273,105,18529,5,0,3:0:0:0:
89,50,18698,1,8,1:0:0:0:
165,128,18866,1,8,0:0:0:0:
165,128,19203,5,0,3:0:0:0:
450,32,19372,1,0,3:0:0:0:
153,133,19540,1,0,3:0:0:0:
458,28,19709,2,0,P|445:127|437:204,1,173.549992055512,2|0,3:0|0:0,0:0:0:0:
254,338,20383,6,0,P|215:285|135:292,1,133.5,10|0,3:2|0:0,0:0:0:0:
141,300,20720,1,8,1:0:0:0:
291,192,20889,2,0,P|281:148|271:96,1,89,2|0,3:2|0:0,0:0:0:0:
74,59,21226,1,0,3:0:0:0:
165,24,21394,2,0,P|154:81|145:113,1,89,8|2,1:0|0:0,0:0:0:0:
51,205,21731,5,10,3:2:0:0:
272,104,21900,1,8,0:3:0:0:
64,51,22068,1,8,1:0:0:0:
178,190,22237,1,8,3:2:0:0:
174,200,22574,5,0,3:0:0:0:
279,89,22743,2,0,B|351:72|333:126|417:112,1,133.5,8|0,1:0|0:0,0:0:0:0:
426,100,23080,6,0,P|448:141|429:189,1,89,10|0,3:2|0:0,0:0:0:0:
254,338,23417,1,8,1:0:0:0:
291,192,23585,1,2,3:2:0:0:
378,289,23754,1,2,0:0:0:0:
378,289,23922,5,2,3:2:0:0:
170,305,24091,1,8,1:0:0:0:
300,178,24259,2,0,P|367:190|401:194,1,89,2|8,0:0|3:2,0:0:0:0:
259,352,24597,5,8,0:3:0:0:
144,209,24765,1,8,1:0:0:0:
13,355,24934,2,0,P|22:283|27:210,1,133.5,8|0,3:2|0:0,0:0:0:0:
16,210,25271,1,0,3:0:0:0:
170,305,25439,2,0,P|237:292|271:290,1,89,8|2,1:0|0:0,0:0:0:0:
280,302,25692,1,2,0:0:0:0:
289,321,25776,6,0,B|389:359|368:278|465:312,1,178,10|8,3:2|1:0,0:0:0:0:
504,172,26282,1,2,3:2:0:0:
343,248,26450,1,2,0:0:0:0:
328,83,26619,1,2,3:2:0:0:
459,310,26788,1,8,1:0:0:0:
435,133,26956,6,0,P|440:109|448:85,1,44.5,2|0,0:0|0:0,0:0:0:0:
343,248,27125,2,0,P|294:207|238:215,1,89,10|8,3:2|0:3,0:0:0:0:
58,327,27462,1,8,1:0:0:0:
0,249,27630,2,0,P|47:190|128:222,1,133.5,10|0,3:2|0:0,0:0:0:0:
105,216,27967,5,8,3:2:0:0:
49,33,28136,1,8,1:0:0:0:
42,37,28473,5,8,3:2:0:0:
264,16,28641,1,2,0:0:0:0:
50,117,28810,5,8,1:0:0:0:
273,102,28978,1,2,3:2:0:0:
45,199,29147,5,8,0:0:0:0:
280,197,29316,1,2,3:2:0:0:
31,275,29484,5,8,1:0:0:0:
275,295,29653,1,2,0:0:0:0:
119,272,29821,5,8,3:2:0:0:
352,228,29990,1,4,3:0:0:0:
31,158,30158,1,4,3:0:0:0:
238,359,30327,1,4,3:0:0:0:
465,203,30495,6,0,P|413:212|352:227,1,115.699994703675,10|0,0:3|0:0,0:0:0:0:
351,227,31170,6,0,P|346:160|415:151,1,133.5,10|0,3:2|0:0,0:0:0:0:
399,143,31507,1,8,1:0:0:0:
222,87,31675,2,0,P|249:122|244:181,1,89,2|0,3:2|0:0,0:0:0:0:
380,62,32012,1,2,3:2:0:0:
296,34,32181,1,8,1:0:0:0:
395,68,32349,1,2,0:0:0:0:
168,147,32518,6,0,P|118:141|50:137,1,89,10|8,3:2|0:3,0:0:0:0:
222,87,32855,1,8,1:0:0:0:
129,276,33024,1,8,3:2:0:0:
121,286,33361,5,0,3:0:0:0:
8,48,33529,2,0,B|69:34|36:72|124:53,1,89,8|2,1:0|0:0,0:0:0:0:
112,50,33782,1,2,0:0:0:0:
124,36,33866,6,0,P|111:86|104:148,1,89,10|2,3:2|0:0,0:0:0:0:
135,270,34203,1,8,1:0:0:0:
31,311,34372,2,0,P|21:233|11:199,1,89,2|2,3:2|0:0,0:0:0:0:
223,85,34709,1,0,3:0:0:0:
281,181,34877,2,0,L|179:168,1,89,8|0,1:0|0:0,0:0:0:0:
121,286,35215,5,10,3:2:0:0:
28,132,35383,1,8,0:3:0:0:
129,307,35552,1,8,1:0:0:0:
234,63,35720,2,0,B|268:51|320:62|273:89|339:91|363:83,1,133.5,10|0,3:2|0:0,0:0:0:0:
426,38,36057,1,0,3:0:0:0:
395,177,36226,2,0,P|383:241|380:301,1,89,8|2,1:0|0:0,0:0:0:0:
383,290,36479,1,2,0:0:0:0:
391,308,36563,6,0,B|355:290|355:248|355:248|424:283|480:232,1,178,10|8,3:2|1:0,0:0:0:0:
318,353,37068,2,0,B|286:368|229:359|271:337|221:322|166:343,1,133.5,2|0,3:2|0:0,0:0:0:0:
125,372,37406,1,0,3:0:0:0:
47,272,37574,2,0,L|58:178,1,89,8|2,1:0|0:0,0:0:0:0:
235,106,37911,5,10,3:2:0:0:
154,222,38080,1,8,0:3:0:0:
95,74,38248,1,8,1:0:0:0:
272,224,38417,1,10,3:2:0:0:
266,236,38754,5,0,3:0:0:0:
389,118,38922,2,0,L|374:17,1,89,8|0,1:0|0:0,0:0:0:0:
86,82,39259,6,0,B|132:99|171:68|132:67|183:38|236:56,1,133.5,10|0,3:2|0:0,0:0:0:0:
222,63,39597,1,8,1:0:0:0:
307,285,39765,6,0,B|247:277|247:277|260:158,1,166.875,8|0,3:0|0:0,0:0:0:0:
261,156,40102,1,2,3:2:0:0:
412,111,40271,6,0,L|409:144,1,26.7,8|0,1:0|0:0,0:0:0:0:
409,137,40608,6,0,P|356:158|329:148,1,66.7500025463105,10|8,3:0|0:3,0:0:0:0:
315,49,40776,2,8,P|367:27|394:37,1,66.7500025463105,8|8,0:3|0:3,0:3:0:0:
250,252,40945,1,8,0:2:0:0:
250,252,41282,6,0,P|197:230|170:240,1,66.7500025463105,10|8,3:0|0:3,0:0:0:0:
156,340,41450,2,8,P|208:361|235:351,1,66.7500025463105,8|8,0:3|0:3,0:3:0:0:
87,83,41619,1,8,0:0:0:0:
87,83,41956,22,0,B|85:29|36:21|-40:31|-29:102|-31:191|52:113|66:171|74:206|74:206|100:158|145:132|146:206|225:136|215:61|178:44|126:48,1,534.000020370484,14|2,3:0|0:0,0:0:0:0:
156,49,42743,6,2,L|158:66,8,16.3166671646118
218,6,43304,5,2,3:0:0:0:
478,86,43473,1,2,3:0:0:0:
430,23,43641,1,2,0:0:0:0:
353,40,43810,1,2,0:0:0:0:
343,117,43979,2,0,L|355:173,2,44.5,8|0|2,3:0|0:0|0:0,0:0:0:0:
358,30,44653,5,2,3:0:0:0:
319,299,44821,1,2,3:0:0:0:
256,254,44990,1,2,0:0:0:0:
274,176,45158,1,2,0:0:0:0:
352,160,45327,2,0,L|411:172,2,44.5,8|0|2,3:0|0:0|0:0,0:0:0:0:
259,170,46001,5,2,3:0:0:0:
294,381,46170,1,2,3:0:0:0:
364,350,46338,1,2,0:0:0:0:
366,276,46507,1,2,0:0:0:0:
298,240,46675,2,0,P|258:248|209:259,1,89,8|2,3:0|0:0,0:0:0:0:
144,202,47349,5,2,3:0:0:0:
389,270,47518,1,2,3:0:0:0:
453,221,47686,1,2,0:0:0:0:
447,141,47855,1,2,0:0:0:0:
452,133,47939,1,2,0:0:0:0:
457,125,48024,2,0,P|443:69|442:64,2,44.5,8|0|2,3:0|0:0|0:0,0:0:0:0:
474,220,48698,5,2,3:0:0:0:
210,258,48866,1,2,3:0:0:0:
262,194,49035,2,0,P|308:206|321:208,1,44.5,2|2,0:0|0:0,0:0:0:0:
389,270,49372,2,0,P|352:287|336:334,1,89,12|2,3:0|0:0,0:0:0:0:
396,379,49877,1,2,0:0:0:0:
396,379,50046,5,2,3:0:0:0:
339,139,50215,2,0,P|349:104|352:79,1,44.5,2|2,3:0|0:0,0:0:0:0:
304,205,50552,1,2,0:0:0:0:
214,109,50720,2,0,P|174:121|155:151,1,66.75,12|0,3:0|0:0,0:0:0:0:
158,158,51057,5,2,0:0:0:0:
48,2,51226,1,2,0:0:0:0:
29,90,51394,6,0,P|81:73|120:64,1,89,10|0,3:2|0:0,0:0:0:0:
304,205,51731,1,8,1:0:0:0:
435,120,51900,2,0,P|383:103|344:94,1,89,0|8,3:2|0:3,0:0:0:0:
146,245,52237,5,2,3:2:0:0:
217,106,52406,1,8,1:0:0:0:
325,282,52574,1,2,0:0:0:0:
135,167,52743,6,0,P|81:194|65:273,1,133.5,10|0,3:2|0:0,0:0:0:0:
74,276,53080,1,8,1:0:0:0:
198,367,53248,2,0,P|263:350|315:349,1,89,2|8,3:2|0:3,0:0:0:0:
447,197,53585,1,0,3:0:0:0:
384,331,53754,2,0,P|366:259|344:183,1,133.5,8|0,1:0|0:0,0:0:0:0:
325,187,54091,6,0,P|294:149|416:74,1,233.625008912087,8|0,3:0|0:0,0:0:0:0:
414,88,54765,6,0,B|349:106|261:93|324:31|242:7|156:40,1,267,8|2,3:0|0:0,0:0:0:0:
153,48,55355,1,2,0:0:0:0:
152,65,55439,6,0,B|226:60|252:133|217:195|142:187|142:187|234:225|235:339|169:402|59:382|18:348|13:276,1,614.100011713028,10|8,3:0|0:3,0:0:0:0:
106,274,56619,6,0,P|165:254|298:240,1,153.525002928257,2|0,0:0|0:0,0:0:0:0:
268,254,56956,1,2,0:0:0:0:
152,65,57125,1,8,1:0:0:0:
93,281,57293,1,2,3:2:0:0:
277,74,57462,1,2,0:0:0:0:
27,29,57630,1,2,3:2:0:0:
265,157,57799,2,0,P|314:164|369:167,1,102.350001952171,8|0,1:0|0:0,0:0:0:0:
211,317,58136,5,10,3:2:0:0:
176,99,58304,1,2,0:0:0:0:
390,303,58473,1,8,1:0:0:0:
358,85,58641,1,2,3:2:0:0:
174,227,58810,2,0,P|112:211|61:205,1,102.350001952171,2|0,0:0|3:0,0:0:0:0:
275,384,59147,6,0,P|326:343|312:251,1,153.525002928257,8|0,1:0|0:0,0:0:0:0:
296,253,59484,1,10,3:2:0:0:
488,302,59653,1,2,0:0:0:0:
454,106,59821,1,8,1:0:0:0:
415,228,59990,1,2,3:2:0:0:
328,17,60158,5,2,0:0:0:0:
344,143,60327,1,2,3:2:0:0:
446,17,60495,1,8,1:0:0:0:
260,88,60664,1,2,0:0:0:0:
490,182,60832,5,10,3:2:0:0:
245,88,61001,1,2,0:0:0:0:
512,53,61170,1,8,1:0:0:0:
270,187,61338,2,0,P|204:176|193:177,1,51.1750009760857,8|0,3:0|0:0,0:0:0:0:
352,296,61507,2,0,P|346:221|344:127,1,153.525002928257,6|0,3:0|0:0,0:0:0:0:
357,125,61844,2,0,P|428:150|416:190,1,102.350001952171,8|2,1:0|0:0,0:0:0:0:
268,268,62181,6,0,P|196:269|154:270,1,102.350001952171,10|2,3:2|0:0,0:0:0:0:
23,79,62518,2,0,P|94:77|136:76,1,102.350001952171,8|2,1:0|3:2,0:0:0:0:
249,25,62855,1,2,0:0:0:0:
94,231,63024,1,2,3:2:0:0:
94,0,63192,1,8,1:0:0:0:
268,268,63361,1,2,0:0:0:0:
448,82,63529,6,0,P|379:75|348:157,1,153.525002928257,10|0,3:2|0:0,0:0:0:0:
357,156,63866,1,8,1:0:0:0:
466,272,64035,1,2,3:2:0:0:
256,369,64203,6,0,P|265:299|269:255,1,102.350001952171,2|0,0:3|3:2,0:0:0:0:
249,25,64540,1,8,1:0:0:0:
248,13,64877,5,2,3:2:0:0:
115,255,65046,1,2,3:2:0:0:
43,171,65215,2,0,P|128:165|160:162,1,102.350001952171,8|0,0:3|0:0,0:0:0:0:
293,267,65552,5,2,3:2:0:0:
149,55,65720,1,2,3:2:0:0:
248,13,65889,2,0,P|238:80|232:136,1,102.350001952171,8|0,0:3|0:0,0:0:0:0:
117,252,66226,5,2,3:2:0:0:
415,173,66394,1,2,3:2:0:0:
331,288,66563,2,0,P|324:211|317:172,1,102.350001952171,8|0,0:3|0:0,0:0:0:0:
512,5,66900,6,0,P|496:98|487:184,1,153.525002928257,2|0,0:0|0:0,0:0:0:0:
474,177,67237,2,0,P|420:191|387:156,1,102.350001952171,2|0,3:2|0:0,0:0:0:0:
117,252,67574,2,0,B|201:243|179:314|293:304,1,153.525002928257,10|0,3:2|0:0,0:0:0:0:
273,290,67911,1,8,1:0:0:0:
371,73,68080,2,0,P|314:111|311:149,1,102.350001952171,0|0,3:2|0:0,0:0:0:0:
393,302,68417,5,0,3:0:0:0:
169,151,68585,1,8,1:0:0:0:
158,154,68922,5,2,3:2:0:0:
461,75,69091,1,2,3:2:0:0:
355,29,69259,1,2,0:2:0:0:
406,164,69428,1,2,0:2:0:0:
502,0,69597,5,2,3:2:0:0:
294,247,69765,1,2,3:2:0:0:
309,140,69934,1,2,0:2:0:0:
390,315,70102,1,2,0:2:0:0:
160,312,70271,5,2,3:2:0:0:
503,246,70439,1,2,3:2:0:0:
469,354,70608,1,2,0:2:0:0:
410,153,70776,1,2,0:2:0:0:
366,346,70945,5,2,3:2:0:0:
455,72,71113,1,2,3:2:0:0:
512,168,71282,2,0,P|460:160|385:150,1,102.350001952171,2|0,0:3|0:0,0:0:0:0:
175,20,71619,5,8,3:2:0:0:
256,321,71788,2,0,P|268:247|285:166,1,153.525002928257,2|0,0:0|0:0,0:0:0:0:
297,154,72125,1,2,0:0:0:0:
389,226,72293,5,8,3:2:0:0:
45,191,72462,2,0,B|128:182|119:247|207:228,1,153.525002928257,2|0,0:0|0:0,0:0:0:0:
203,219,72799,1,2,0:0:0:0:
32,299,72967,5,8,3:2:0:0:
175,20,73136,1,2,0:0:0:0:
256,321,73304,1,8,3:2:0:0:
0,130,73473,6,0,P|76:64|135:88,1,153.525002928257,2|0,0:0|0:0,0:0:0:0:
131,92,73810,6,2,P|117:140|121:169,1,51.1750009760857,2|0,0:0|0:0,0:0:0:0:
223,168,73979,2,2,P|233:107|222:85,1,51.1750009760857,2|0,0:0|0:0,0:0:0:0:
109,133,74147,2,2,P|133:187|144:194,1,51.1750009760857,2|0,0:0|0:0,0:0:0:0:
250,146,74316,2,2,P|226:92|215:85,1,51.1750009760857,2|0,0:0|0:0,0:0:0:0:
32,299,74484,5,0,3:0:0:0:
141,333,74653,1,0,3:0:0:0:
20,294,74821,1,0,3:0:0:0:
152,336,74990,1,0,3:0:0:0:
507,48,75327,5,8,0:3:0:0:
313,265,75664,6,0,P|251:251|192:245,1,89,8|0,3:2|0:0,0:0:0:0:
32,299,76001,1,8,1:0:0:0:
118,342,76170,2,0,B|130:285|130:285|97:237|97:237|112:163,1,178,8|0,3:0|3:0,0:0:0:0:
257,52,76675,2,0,L|267:151,1,89,8|0,1:0|0:0,0:0:0:0:
149,88,77012,5,8,3:2:0:0:
357,42,77181,1,0,0:0:0:0:
133,72,77349,1,8,1:0:0:0:
283,155,77518,2,0,B|364:158|324:202|419:222,1,133.5,8|0,3:0|0:0,0:0:0:0:
418,201,77855,1,0,3:0:0:0:
222,277,78024,2,0,P|161:290|145:319,1,89,8|2,1:0|0:0,0:0:0:0:
144,333,78276,1,2,0:0:0:0:
144,333,78361,6,0,P|135:268|127:217,1,89,10|0,3:2|0:0,0:0:0:0:
301,373,78698,2,0,P|310:308|318:257,1,89,8|8,1:0|3:0,0:0:0:0:
257,52,79035,2,0,P|248:117|240:168,1,89,2|0,0:0|3:0,0:0:0:0:
414,12,79372,2,0,P|423:77|431:128,1,89,8|0,1:0|0:0,0:0:0:0:
473,210,79709,5,10,3:2:0:0:
322,114,79877,1,0,0:0:0:0:
507,44,80046,1,8,1:0:0:0:
352,209,80215,2,0,B|302:201|302:201|271:222|271:222|199:209,1,133.5,8|0,3:0|0:0,0:0:0:0:
211,201,80552,1,0,3:0:0:0:
383,353,80720,2,0,P|454:339|488:337,1,89,8|2,1:0|0:0,0:0:0:0:
481,345,80973,1,2,0:0:0:0:
483,360,81057,5,10,1:0:0:0:
426,100,81226,1,8,3:2:0:0:
333,380,81394,1,10,1:0:0:0:
322,114,81563,1,8,3:2:0:0:
242,326,81731,5,10,1:0:0:0:
502,269,81900,1,8,3:2:0:0:
222,176,82068,1,10,1:0:0:0:
488,165,82237,1,8,3:2:0:0:
304,253,82406,5,12,1:0:0:0:
379,33,82574,1,8,3:2:0:0:
502,269,82743,1,8,1:0:0:0:
242,101,82911,1,8,3:2:0:0:
502,60,83080,1,8,1:0:0:0:
203,20,83248,1,8,3:2:0:0:
402,124,83417,1,8,1:0:0:0:
337,17,83585,1,8,3:2:0:0:
201,260,83754,5,8,3:0:0:0:
328,2,83922,1,8,0:3:0:0:
358,311,84091,1,8,3:0:0:0:
214,9,84259,1,8,0:3:0:0:
47,276,84428,5,2,3:0:0:0:
441,190,84597,1,2,0:3:0:0:
69,120,84765,1,2,3:0:0:0:
368,295,84934,1,2,0:3:0:0:
409,3,85102,5,12,1:3:0:0:
182,313,85271,1,4,1:3:0:0:
86,4,85439,1,12,1:3:0:0:
357,312,85608,1,4,1:3:0:0:
46,199,85776,5,10,0:1:0:0:
464,113,85945,1,10,0:1:0:0:
27,205,86113,1,10,0:1:0:0:
482,108,86282,1,10,0:1:0:0:
495,112,88473,6,2,B|388:57|259:219|386:298|386:298|398:238|434:202|434:202|310:153|251:258|251:258|188:358|98:336|-1:278|2:237|20:162|94:129|135:166|146:209,1,1089.36000664893,14|10,0:1|0:3,0:1:0:0:
