osu file format v14

[General]
AudioFilename: audio.mp3
AudioLeadIn: 0
PreviewTime: 56450
Countdown: 0
SampleSet: Soft
StackLeniency: 0.3
Mode: 0
LetterboxInBreaks: 0
WidescreenStoryboard: 1

[Editor]
DistanceSpacing: 1.9
BeatDivisor: 4
GridSize: 32
TimelineZoom: 3.899998

[Metadata]
Title:Chikatto Chika Chika
TitleUnicode:チカっとチカ千花っ♡
Artist:Sati Akura
ArtistUnicode:Sati Akura
Creator:-Mikan
Version:Deca's Another
Source:かぐや様は告らせたい~天才たちの恋愛頭脳戦~
Tags:Djulus 3mplify smozit Daycore DendyHere DendyMudak Deca iljaaz Xenon- Xehn Xen Чика Сати Акура Русский Russian cover Anime OP opening Fujiwara Chika CV Kohara Konomi Kaguya-sama: Love Is War Kaguya-sama wa Kokurasetai: Tensai-tachi no Renai Zunousen TV Size Аниме
BeatmapID:2172108
BeatmapSetID:1038445

[Difficulty]
HPDrainRate:7
CircleSize:4
OverallDifficulty:8
ApproachRate:9
SliderMultiplier:1.7
SliderTickRate:1

[Events]
//Background and Video events
0,0,"73833928_p0.jpg",0,0
Video,-3000,"Chika Creditless ED2.avi"
//Break Periods
//Storyboard Layer 0 (Background)
//Storyboard Layer 1 (Fail)
//Storyboard Layer 2 (Pass)
//Storyboard Layer 3 (Foreground)
//Storyboard Layer 4 (Overlay)
//Storyboard Sound Samples

[TimingPoints]
833,337.078651685393,4,2,1,50,1,0
833,-200,4,2,1,50,0,0
10945,-200,4,2,1,60,0,0
14906,-200,4,2,1,5,0,0
14990,-100,4,2,1,60,0,0
19709,-142.857142857143,4,2,1,60,0,0
20383,-100,4,2,1,60,0,0
40524,-100,4,2,1,5,0,0
40608,-100,4,2,1,70,0,0
42630,-100,4,2,1,5,0,0
42715,-100,4,2,1,30,0,0
42799,-100,4,2,1,40,0,0
42883,-100,4,2,1,50,0,0
42967,-100,4,2,1,60,0,0
43052,-100,4,2,1,70,0,0
43304,-100,4,2,1,60,0,0
43473,-125,4,2,1,60,0,0
51394,-100,4,2,1,60,0,0
54007,-100,4,2,1,5,0,0
54091,-100,4,2,1,60,0,0
54681,-100,4,2,1,5,0,0
54765,-100,4,2,1,70,0,0
55439,-100,4,2,1,80,0,0
56619,-83.3333333333333,4,2,1,80,0,0
66900,-111.111111111111,4,2,1,80,0,0
67574,-83.3333333333333,4,2,1,80,0,0
73473,-125,4,2,1,80,0,0
75664,-83.3333333333333,4,2,1,70,0,0
81057,-83.3333333333333,4,2,1,76,0,0
83754,-83.3333333333333,4,2,1,84,0,0
84428,-83.3333333333333,4,2,1,89,0,0
85102,-83.3333333333333,4,2,1,94,0,0
85776,-83.3333333333333,4,2,1,100,0,0
88473,-333.333333333333,4,2,1,80,0,0
92518,-83.3333333333333,4,2,1,60,0,0

[Colours]
Combo1 : 17,254,176
Combo2 : 173,255,95
Combo3 : 255,88,100
Combo4 : 255,94,55

[HitObjects]
159,139,833,6,0,B|247:139|225:180|321:192,1,170,2|8,0:3|0:3,0:0:0:0:
325,201,2181,1,2,0:3:0:0:
275,316,2855,6,0,B|242:293|211:217|361:166|424:233|472:356,1,340,2|0,0:0|0:0,0:0:0:0:
464,345,4877,5,2,0:0:0:0:
492,251,5552,2,0,B|498:139|394:122|394:122,1,170,2|8,0:3|0:3,0:0:0:0:
325,22,6900,2,0,B|313:104|313:104|323:170|323:170|305:274,1,255,2|0,0:3|0:0,0:0:0:0:
294,284,8248,5,2,0:3:0:0:
213,254,9597,5,2,0:3:0:0:
136,294,10271,5,2,0:3:0:0:
216,364,10945,6,0,P|216:335|212:272,1,85,8|8,0:1|0:3,0:0:0:0:
226,289,11619,2,0,P|223:331|223:374,1,85,8|8,0:1|0:3,0:0:0:0:
217,380,12293,2,0,P|220:234|221:30,1,340,12|0,0:1|0:0,0:0:0:0:
303,159,13810,5,0,3:0:0:0:
380,206,13978,1,0,3:0:0:0:
145,175,14147,5,0,3:0:0:0:
63,209,14315,1,0,3:0:0:0:
295,229,14990,6,0,B|374:255|374:255|473:195,1,170,8|8,3:2|1:0,0:0:0:0:
207,124,15495,2,0,B|251:186|186:275|186:275,1,127.5,8|0,3:0|0:0,0:0:0:0:
203,245,15832,1,0,3:0:0:0:
137,158,16001,2,0,L|44:171,1,85,8|0,1:0|0:0,0:0:0:0:
305,291,16338,5,8,3:2:0:0:
255,183,16507,1,8,0:3:0:0:
361,232,16675,1,8,1:0:0:0:
203,245,16844,2,0,L|222:378,1,127.5,8|0,3:2|0:0,0:0:0:0:
221,371,17181,1,0,3:0:0:0:
167,315,17349,1,8,1:0:0:0:
203,245,17518,1,2,0:0:0:0:
176,73,17686,5,8,3:2:0:0:
176,73,18024,1,8,1:0:0:0:
104,167,18192,1,8,3:0:0:0:
243,125,18361,1,2,0:2:0:0:
264,126,18445,1,0,0:0:0:0:
279,139,18529,1,0,3:0:0:0:
296,139,18613,1,2,0:2:0:0:
296,141,18698,2,0,P|337:152|405:158,1,85,8|8,1:0|0:0,0:0:0:0:
480,98,19203,5,0,3:0:0:0:
343,236,19372,1,0,3:0:0:0:
351,79,19540,5,0,3:0:0:0:
489,228,19709,2,0,B|484:286|484:286|480:288|480:288|476:361,1,118.999996368408,2|0,3:0|0:0,0:0:0:0:
317,246,20383,6,0,B|219:257|251:288|145:297,1,170,10|8,3:2|1:0,0:0:0:0:
271,171,20889,2,0,P|276:140|285:66,1,85,2|0,3:2|0:0,0:0:0:0:
261,180,21226,1,0,3:0:0:0:
417,189,21394,1,8,1:0:0:0:
399,100,21563,1,2,0:0:0:0:
317,246,21731,2,0,B|356:269|356:269|417:271,1,85,10|8,3:2|0:3,0:0:0:0:
477,252,22068,1,8,1:0:0:0:
305,332,22237,2,0,L|128:353,1,170,8|0,3:2|3:0,0:0:0:0:
213,316,22743,1,8,1:0:0:0:
139,90,23080,6,0,B|241:103|234:215|234:215,1,170,10|8,3:2|1:0,0:0:0:0:
297,121,23585,1,2,3:2:0:0:
290,262,23754,2,0,B|333:249|333:249|387:267,1,85,2|2,0:0|3:2,0:0:0:0:
214,316,24091,1,8,1:0:0:0:
156,254,24259,1,2,0:0:0:0:
51,148,24428,5,8,3:2:0:0:
78,235,24597,1,8,0:3:0:0:
134,171,24765,5,8,1:0:0:0:
105,320,24934,1,8,3:2:0:0:
105,320,25271,1,0,3:0:0:0:
182,373,25439,2,0,B|268:354|368:364|368:364,1,170,8|10,1:0|3:2,0:0:0:0:
470,176,26113,5,8,1:0:0:0:
388,205,26282,1,2,3:2:0:0:
350,113,26450,5,2,0:0:0:0:
471,152,26619,1,2,3:2:0:0:
501,54,26788,5,8,1:0:0:0:
344,96,26956,1,2,0:0:0:0:
311,0,27125,2,0,B|400:8|353:44|455:52,1,127.5,10|0,3:2|0:0,0:0:0:0:
505,31,27462,5,8,1:0:0:0:
247,56,27630,2,0,P|195:123|217:222,1,170,10|8,3:2|3:2,0:0:0:0:
121,60,28136,1,8,1:0:0:0:
103,238,28473,5,8,3:2:0:0:
174,273,28641,1,2,0:0:0:0:
217,367,28810,5,8,1:0:0:0:
311,291,28979,1,2,3:2:0:0:
422,348,29147,5,8,0:0:0:0:
388,268,29316,1,2,3:2:0:0:
422,189,29484,1,8,1:0:0:0:
500,163,29653,1,2,0:0:0:0:
509,79,29821,5,8,3:2:0:0:
344,19,29990,1,4,3:0:0:0:
276,195,30158,5,4,3:0:0:0:
186,47,30327,1,4,3:0:0:0:
388,113,30495,6,0,B|217:107|295:182|134:173,1,255,10|0,0:3|0:0,0:0:0:0:
194,340,31170,2,0,P|205:291|215:232,1,85,10|0,3:2|0:0,0:0:0:0:
372,370,31507,1,8,1:0:0:0:
372,370,31675,2,0,P|361:322|355:284,1,85,2|0,3:2|0:0,0:0:0:0:
336,91,32012,5,2,3:2:0:0:
336,91,32181,1,8,1:0:0:0:
336,91,32349,1,2,0:0:0:0:
168,198,32518,5,10,3:2:0:0:
141,107,32686,1,8,0:3:0:0:
224,82,32855,1,8,1:0:0:0:
251,173,33024,2,0,P|244:265|240:350,1,170,8|0,3:2|3:0,0:0:0:0:
251,350,33529,2,0,P|249:305|252:257,1,85,8|2,1:0|0:0,0:0:0:0:
298,51,33866,5,10,3:2:0:0:
382,92,34035,1,2,0:0:0:0:
300,42,34203,1,8,1:0:0:0:
383,82,34372,1,2,3:2:0:0:
470,121,34540,2,0,P|466:173|463:223,1,85,2|0,0:0|3:0,0:0:0:0:
465,302,34877,5,8,1:0:0:0:
386,334,35046,1,0,0:0:0:0:
289,380,35215,5,10,3:2:0:0:
249,235,35383,1,8,0:3:0:0:
365,163,35552,5,8,1:0:0:0:
217,309,35720,2,0,B|119:297|165:257|44:241,1,170,10|0,3:2|3:0,0:0:0:0:
0,384,36226,2,0,B|27:351|15:290|15:290,1,85,8|2,1:0|0:0,0:0:0:0:
175,91,36563,6,0,L|153:193,1,85,10|0,3:2|0:0,0:0:0:0:
175,91,36900,1,8,1:0:0:0:
230,188,37068,2,0,B|300:197|300:197|321:189|321:189|412:199,1,170,2|0,3:2|3:0,0:0:0:0:
293,284,37574,1,8,1:0:0:0:
372,324,37743,1,2,0:0:0:0:
512,253,37911,6,0,P|457:268|411:267,1,85,10|8,3:2|0:3,0:0:0:0:
397,197,38248,1,8,1:0:0:0:
512,157,38417,2,0,B|472:158|472:158|407:112,1,85,10|0,3:2|0:0,0:0:0:0:
327,10,38754,5,0,3:0:0:0:
304,87,38922,1,8,1:0:0:0:
285,165,39091,1,0,0:0:0:0:
304,87,39259,1,10,3:2:0:0:
136,184,39597,1,8,1:0:0:0:
136,184,39765,2,0,B|243:185|189:229|308:247,1,170,8|2,3:0|3:2,0:0:0:0:
400,204,40271,1,8,1:0:0:0:
400,204,40608,6,0,L|406:149,1,42.5,10|8,3:0|0:3,0:0:0:0:
399,161,40776,2,0,L|405:216,1,42.5,8|8,0:3|0:3,0:0:0:0:
393,204,40945,1,8,0:2:0:0:
315,308,41282,6,0,L|321:253,1,42.5,10|8,3:0|0:3,0:0:0:0:
314,265,41450,2,0,L|320:320,1,42.5,8|8,0:3|0:3,0:0:0:0:
308,308,41619,1,8,0:0:0:0:
186,325,41956,6,0,P|75:298|188:31,1,510,14|0,3:0|0:0,0:0:0:0:
233,218,43304,5,2,3:0:0:0:
252,96,43473,2,0,P|294:110|320:115,2,68,2|2|2,3:0|0:0|0:0,0:0:0:0:
195,149,43979,2,0,P|234:130|340:150,1,136,8|2,3:0|0:0,0:0:0:0:
439,168,44653,5,2,3:0:0:0:
481,269,44821,1,2,3:0:0:0:
512,193,44990,5,2,0:0:0:0:
404,243,45158,1,2,0:0:0:0:
404,243,45327,2,0,P|372:233|329:225,1,68,8|0,3:0|0:0,0:0:0:0:
260,214,45664,1,2,0:0:0:0:
141,224,46001,5,2,3:0:0:0:
193,163,46170,2,0,P|199:140|201:87,1,68,2|2,3:0|0:0,0:0:0:0:
201,95,46507,1,2,0:0:0:0:
62,240,46675,2,0,L|215:266,1,136,8|2,3:0|0:0,0:0:0:0:
355,291,47349,5,2,3:0:0:0:
431,261,47518,1,2,3:0:0:0:
368,207,47686,1,2,0:0:0:0:
295,238,47855,1,2,0:0:0:0:
240,308,48024,6,0,P|211:293|198:239,1,68,8|0,3:0|0:0,0:0:0:0:
148,352,48361,1,2,0:0:0:0:
88,118,48698,5,2,3:0:0:0:
209,59,48866,2,0,P|245:72|304:84,2,68,2|2|2,3:0|0:0|0:0,0:0:0:0:
107,39,49372,1,12,3:0:0:0:
164,144,49540,1,0,0:0:0:0:
141,220,49709,1,2,0:0:0:0:
67,254,49877,1,2,0:0:0:0:
0,137,50046,5,2,3:0:0:0:
74,170,50215,1,2,3:0:0:0:
181,294,50383,5,2,0:0:0:0:
247,245,50552,1,2,0:0:0:0:
314,201,50720,1,12,3:0:0:0:
314,201,51057,2,0,P|326:164|324:113,1,68,2|2,0:0|0:0,0:0:0:0:
328,118,51394,6,0,L|507:158,1,170,10|8,3:2|1:0,0:0:0:0:
328,118,51900,1,0,3:2:0:0:
328,118,52237,5,2,3:2:0:0:
261,58,52406,1,8,1:0:0:0:
344,35,52574,1,2,0:0:0:0:
247,138,52743,2,0,B|152:153|173:103|62:139,1,170,10|8,3:2|1:0,0:0:0:0:
201,217,53248,1,2,3:2:0:0:
120,331,53417,2,0,P|125:277|109:210,1,85,8|0,0:3|3:0,0:0:0:0:
166,108,53754,1,8,1:0:0:0:
175,96,54091,5,8,3:0:0:0:
253,63,54765,5,8,3:0:0:0:
512,211,55439,6,0,B|227:229|413:319|107:345,1,425,10|0,3:0|0:0,0:0:0:0:
196,184,56619,6,0,P|243:189|332:197,1,101.999996887207,2|8,0:0|3:2,0:0:0:0:
196,184,56956,1,2,0:0:0:0:
80,281,57125,1,8,1:0:0:0:
179,262,57293,1,2,3:2:0:0:
420,283,57462,5,2,0:0:0:0:
355,332,57630,1,2,3:2:0:0:
280,301,57799,1,8,1:0:0:0:
344,251,57967,1,0,0:0:0:0:
424,379,58136,5,10,3:2:0:0:
231,368,58304,1,2,0:0:0:0:
242,175,58473,1,8,1:0:0:0:
435,186,58641,1,2,3:2:0:0:
500,281,58810,2,0,B|519:331|519:331|506:383,1,101.999996887207,2|0,0:0|3:0,0:0:0:0:
344,251,59147,6,0,B|329:219|343:192|343:192|359:175|359:175|370:147|360:107,1,152.999995330811,8|0,1:0|0:0,0:0:0:0:
360,108,59484,1,10,3:2:0:0:
265,173,59653,1,2,0:0:0:0:
435,186,59821,2,0,B|476:215|476:215|546:214,1,101.999996887207,8|2,1:0|3:2,0:0:0:0:
291,31,60158,5,2,0:0:0:0:
216,64,60327,1,2,3:2:0:0:
88,53,60495,1,8,1:0:0:0:
155,125,60664,1,2,0:0:0:0:
216,316,60832,5,10,3:2:0:0:
49,221,61001,1,2,0:0:0:0:
30,329,61170,5,8,1:0:0:0:
236,213,61338,1,8,3:0:0:0:
140,376,61507,5,6,3:0:0:0:
128,197,61675,1,0,0:0:0:0:
115,28,61844,6,0,B|176:38|176:38|198:59|198:59|266:74,1,152.999995330811,8|0,1:0|0:0,0:0:0:0:
331,32,62181,1,10,3:2:0:0:
272,150,62349,1,2,0:0:0:0:
489,151,62518,5,8,1:0:0:0:
511,235,62686,1,2,3:2:0:0:
343,188,62855,5,2,0:0:0:0:
405,126,63023,1,2,3:2:0:0:
449,296,63192,5,8,1:0:0:0:
365,273,63361,1,2,0:0:0:0:
498,142,63529,5,10,3:2:0:0:
498,142,63698,2,0,B|509:200|522:244|522:244,1,101.999996887207,0|8,0:0|1:0,0:0:0:0:
332,181,64035,1,2,3:2:0:0:
450,308,64203,2,0,B|321:282|370:354|233:340,1,203.999993774414,2|8,0:3|1:0,0:0:0:0:
187,276,64877,5,2,3:2:0:0:
187,276,65046,1,2,3:2:0:0:
144,196,65552,5,2,3:2:0:0:
144,196,65720,1,2,3:2:0:0:
211,127,66226,5,2,3:2:0:0:
211,127,66394,1,2,3:2:0:0:
173,43,66900,6,0,P|183:99|185:170,1,114.749996498108,2|0,0:0|0:0,0:0:0:0:
173,43,67237,1,2,3:2:0:0:
168,329,67574,6,0,B|123:309|123:229|204:205|273:240,1,203.999993774414,10|8,3:2|1:0,0:0:0:0:
354,317,68080,2,0,B|328:273|328:273|343:213,1,101.999996887207,0|0,3:2|0:0,0:0:0:0:
392,85,68417,1,0,3:0:0:0:
185,156,68585,1,8,1:0:0:0:
105,92,68922,5,2,3:2:0:0:
370,193,69091,1,2,3:2:0:0:
286,232,69259,1,2,0:2:0:0:
208,271,69428,1,2,0:2:0:0:
463,120,69597,5,2,3:2:0:0:
381,311,69765,1,2,3:2:0:0:
370,193,69934,5,2,0:2:0:0:
482,267,70102,1,2,0:2:0:0:
263,127,70271,5,2,3:2:0:0:
119,344,70439,1,2,3:2:0:0:
119,344,70608,1,2,0:2:0:0:
119,344,70776,1,2,0:2:0:0:
77,111,70945,5,2,3:2:0:0:
253,252,71113,1,2,3:2:0:0:
253,252,71282,2,0,B|346:240|311:294|430:281,1,152.999995330811,2|0,0:3|0:0,0:0:0:0:
481,243,71619,1,8,3:2:0:0:
326,103,71788,1,2,0:0:0:0:
427,110,72125,5,2,0:0:0:0:
309,366,72293,1,8,3:2:0:0:
253,252,72462,1,2,0:0:0:0:
219,333,72799,1,2,0:0:0:0:
140,166,72967,5,8,3:2:0:0:
60,204,73136,1,2,0:0:0:0:
189,76,73304,5,8,3:2:0:0:
474,164,73473,2,0,B|234:108|318:276|104:278,1,408,2|0,0:0|3:0,0:0:0:0:
225,292,74653,5,0,3:0:0:0:
324,239,74821,5,0,3:0:0:0:
435,297,74990,5,0,3:0:0:0:
435,297,75327,1,8,0:3:0:0:
435,297,75664,2,0,B|294:287|321:140|321:140,1,203.999993774414,8|8,3:2|1:0,0:0:0:0:
392,108,76170,1,8,3:0:0:0:
242,170,76338,1,0,0:0:0:0:
173,119,76507,1,0,3:0:0:0:
151,207,76675,1,8,1:0:0:0:
173,119,76844,1,0,0:0:0:0:
82,143,77012,1,8,3:2:0:0:
291,73,77181,5,0,0:0:0:0:
464,128,77349,1,8,1:0:0:0:
349,155,77518,1,8,3:0:0:0:
379,69,77686,1,0,0:0:0:0:
359,163,77855,1,0,3:0:0:0:
390,74,78024,1,8,1:0:0:0:
295,37,78192,6,0,P|236:31|181:24,1,101.999996887207,2|10,0:0|3:2,0:0:0:0:
58,86,78529,1,0,0:0:0:0:
179,154,78698,1,8,1:0:0:0:
251,185,78866,1,8,3:0:0:0:
3,311,79035,5,2,0:0:0:0:
76,178,79203,1,0,3:0:0:0:
209,251,79372,1,8,1:0:0:0:
135,384,79540,1,0,0:0:0:0:
78,271,79709,5,10,3:2:0:0:
290,292,79877,2,0,P|340:304|422:328,1,101.999996887207,0|8,0:0|1:0,0:0:0:0:
434,143,80215,1,8,3:0:0:0:
269,35,80383,5,0,0:0:0:0:
334,131,80552,1,0,3:0:0:0:
255,169,80720,1,8,1:0:0:0:
255,169,80804,1,0,0:0:0:0:
258,173,80889,2,0,P|264:230|266:286,1,101.999996887207,2|10,0:0|1:0,0:0:0:0:
109,179,81226,1,8,3:2:0:0:
50,335,81394,5,10,1:0:0:0:
188,281,81563,1,8,3:2:0:0:
420,347,81731,5,10,1:0:0:0:
258,173,81900,1,8,3:2:0:0:
442,157,82068,5,10,1:0:0:0:
264,360,82237,1,8,3:2:0:0:
109,179,82406,5,12,1:0:0:0:
249,71,82574,1,8,3:2:0:0:
149,82,82743,5,8,1:0:0:0:
213,167,82911,1,8,3:2:0:0:
320,314,83080,5,8,1:0:0:0:
372,122,83248,1,8,3:2:0:0:
320,314,83417,1,8,1:0:0:0:
391,253,83585,6,0,B|448:238|496:255|496:255,1,101.999996887207,8|8,3:2|3:0,0:0:0:0:
395,257,83922,1,8,0:3:0:0:
213,270,84091,1,8,3:0:0:0:
144,221,84259,1,8,0:3:0:0:
78,318,84428,5,2,3:0:0:0:
65,175,84597,1,2,0:3:0:0:
198,45,84765,5,2,3:0:0:0:
165,135,84934,1,2,0:3:0:0:
176,349,85102,5,12,1:3:0:0:
313,156,85271,1,4,1:3:0:0:
374,356,85439,5,12,1:3:0:0:
194,197,85608,1,4,1:3:0:0:
442,282,85776,5,10,0:1:0:0:
384,26,85945,1,10,0:1:0:0:
136,84,86113,1,10,0:1:0:0:
192,322,86282,1,10,0:1:0:0:
0,62,88473,6,0,B|356:95|152:336|512:330,1,611.999981323243,14|10,0:1|0:3,0:0:0:0:
