osu file format v14

[General]
AudioFilename: audio.mp3
AudioLeadIn: 0
PreviewTime: 56450
Countdown: 0
SampleSet: Soft
StackLeniency: 0.3
Mode: 0
LetterboxInBreaks: 0
WidescreenStoryboard: 1

[Editor]
Bookmarks: 833,14990,31170,43304
DistanceSpacing: 1.1
BeatDivisor: 4
GridSize: 32
TimelineZoom: 1

[Metadata]
Title:Chikatto Chika Chika
TitleUnicode:チカっとチカ千花っ♡
Artist:Sati Akura
ArtistUnicode:Sati Akura
Creator:-Mikan
Version:Daycore's Hard
Source:かぐや様は告らせたい~天才たちの恋愛頭脳戦~
Tags:Djulus 3mplify smozit Daycore DendyHere DendyMudak Deca iljaaz Xenon- Xehn Xen Чика Сати Акура Русский Russian cover Anime OP opening Fujiwara Chika CV Kohara Konomi Kaguya-sama: Love Is War Kaguya-sama wa Kokurasetai: Tensai-tachi no Renai Zunousen TV Size Аниме
BeatmapID:2176320
BeatmapSetID:1038445

[Difficulty]
HPDrainRate:5
CircleSize:4.5
OverallDifficulty:6.5
ApproachRate:8.2
SliderMultiplier:1.45
SliderTickRate:0.5

[Events]
//Background and Video events
0,0,"kaguya-sama-wa-kokurasetai-shirogane-miyuki-shinomiya-kaguya-fujiwara-chika.jpg",0,0
Video,-3000,"Chika Creditless ED2.avi"
//Break Periods
//Storyboard Layer 0 (Background)
//Storyboard Layer 1 (Fail)
//Storyboard Layer 2 (Pass)
//Storyboard Layer 3 (Foreground)
//Storyboard Layer 4 (Overlay)
//Storyboard Sound Samples

[TimingPoints]
833,337.078651685393,4,2,1,50,1,0
10945,-133.333333333333,4,2,1,60,0,0
14906,-133.333333333333,4,2,1,5,0,0
14990,-100,4,2,1,60,0,0
40524,-100,4,2,1,5,0,0
40608,-100,4,2,1,70,0,0
42630,-100,4,2,1,5,0,0
42715,-100,4,2,1,30,0,0
42799,-100,4,2,1,40,0,0
42883,-100,4,2,1,50,0,0
42967,-100,4,2,1,60,0,0
43052,-100,4,2,1,70,0,0
43304,-100,4,2,1,60,0,0
54007,-100,4,2,1,5,0,0
54091,-100,4,2,1,60,0,0
54681,-100,4,2,1,5,0,0
54765,-100,4,2,1,70,0,0
55439,-100,4,2,1,80,0,0
56619,-86.9565217391304,4,2,1,80,0,0
56788,-86.9565217391304,4,2,1,80,0,1
64709,-86.9565217391304,4,2,1,80,0,0
64877,-86.9565217391304,4,2,1,80,0,1
65383,-86.9565217391304,4,2,1,80,0,0
65552,-86.9565217391304,4,2,1,80,0,1
66057,-86.9565217391304,4,2,1,80,0,0
66226,-86.9565217391304,4,2,1,80,0,1
66731,-86.9565217391304,4,2,1,80,0,0
67237,-86.9565217391304,4,2,1,80,0,1
67406,-86.9565217391304,4,2,1,80,0,0
67574,-86.9565217391304,4,2,1,80,0,1
68754,-86.9565217391304,4,2,1,80,0,0
68922,-86.9565217391304,4,2,1,80,0,1
69428,-86.9565217391304,4,2,1,80,0,0
69597,-86.9565217391304,4,2,1,80,0,1
70102,-86.9565217391304,4,2,1,80,0,0
70271,-86.9565217391304,4,2,1,80,0,1
70776,-86.9565217391304,4,2,1,80,0,0
70945,-86.9565217391304,4,2,1,80,0,1
71450,-86.9565217391304,4,2,1,80,0,0
71535,-86.9565217391304,4,2,1,80,0,0
71619,-86.9565217391304,4,2,1,80,0,1
72125,-86.9565217391304,4,2,1,80,0,0
72293,-86.9565217391304,4,2,1,80,0,1
72799,-86.9565217391304,4,2,1,80,0,0
72967,-86.9565217391304,4,2,1,80,0,1
73136,-86.9565217391304,4,2,1,80,0,0
73304,-86.9565217391304,4,2,1,80,0,1
73473,-111.111111111111,4,2,1,80,0,0
74484,-90.9090909090909,4,2,1,80,0,0
75664,-90.9090909090909,4,2,1,70,0,0
81057,-90.9090909090909,4,2,1,76,0,0
83754,-90.9090909090909,4,2,1,84,0,0
84428,-90.9090909090909,4,2,1,89,0,0
85102,-90.9090909090909,4,2,1,94,0,0
85776,-90.9090909090909,4,2,1,100,0,0
88473,-230.414746543779,4,2,1,80,0,0
92518,-230.414746543779,4,2,1,60,0,0

[Colours]
Combo1 : 151,255,255
Combo2 : 253,196,237
Combo3 : 255,79,167
Combo4 : 255,108,108

[HitObjects]
84,113,10945,6,0,P|120:109|194:108,1,108.750004148483,8|8,0:1|0:3,0:0:0:0:
250,206,11619,2,0,P|214:202|130:201,1,108.750004148483,8|8,0:1|0:3,0:0:0:0:
309,88,12293,2,0,P|295:187|310:311,1,217.500008296967,12|8,0:1|0:3,0:0:0:0:
434,355,13810,1,0,3:0:0:0:
434,355,13979,2,0,P|428:322|430:295,1,54.3750020742417,0|0,3:0|3:0,0:0:0:0:
471,237,14316,2,0,P|407:227|364:261,1,108.750004148483,0|2,3:0|0:3,0:0:0:0:
372,249,14990,6,0,P|297:257|236:188,1,145,8|8,3:2|1:0,0:0:0:0:
222,139,15495,2,0,P|147:131|86:200,1,145,8|0,3:0|3:0,0:0:0:0:
97,252,16001,1,8,1:0:0:0:
97,252,16170,1,0,0:0:0:0:
42,310,16338,2,0,P|81:330|165:304,1,72.5,8|8,3:2|0:3,0:0:0:0:
180,295,16675,1,8,1:0:0:0:
254,323,16844,2,0,B|265:298|258:267|258:267|277:245|277:245|267:213|284:172,1,145,8|0,3:2|3:0,0:0:0:0:
238,118,17349,2,0,P|283:108|336:132,1,72.5,8|2,1:0|0:0,0:0:0:0:
383,87,17686,6,0,B|360:116|360:116|370:149|370:149|369:156|369:156|377:191|377:191|340:243,1,145,8|8,3:2|1:0,0:0:0:0:
344,294,18192,2,0,B|437:298|398:243|505:245,1,145,8|0,3:0|3:0,0:0:0:0:
481,327,18698,1,8,1:0:0:0:
481,327,18866,1,8,0:0:0:0:
359,215,19203,5,0,3:0:0:0:
389,141,19372,1,0,3:0:0:0:
315,110,19540,1,0,3:0:0:0:
285,184,19709,2,0,B|197:180|224:213|126:217,1,145,2|0,3:0|0:0,0:0:0:0:
268,51,20383,6,0,B|247:91|247:91|286:187,1,145,10|8,3:2|1:0,0:0:0:0:
351,226,20889,2,0,B|372:186|372:186|333:90,1,145,2|0,3:2|3:0,0:0:0:0:
268,51,21394,2,0,P|228:56|152:54,1,72.5,8|2,1:0|0:0,0:0:0:0:
122,24,21731,1,10,3:2:0:0:
122,24,21900,1,8,0:3:0:0:
45,46,22068,1,8,1:0:0:0:
38,125,22237,2,0,B|22:208|63:191|50:278,1,145,8|0,3:2|3:0,0:0:0:0:
14,338,22743,2,0,P|41:345|108:324,1,72.5,8|0,1:0|0:0,0:0:0:0:
156,304,23080,6,0,P|215:285|321:332,1,145,10|8,3:2|1:0,0:0:0:0:
349,362,23585,1,2,3:2:0:0:
424,335,23754,2,0,P|420:291|428:239,1,72.5,2|2,0:0|3:2,0:0:0:0:
465,195,24091,2,0,P|469:151|461:99,1,72.5,8|2,1:0|0:0,0:0:0:0:
411,65,24428,2,0,P|434:50|504:53,2,72.5,8|8|8,3:2|0:3|1:0,0:0:0:0:
345,19,24934,2,0,P|372:70|298:185,1,145,8|0,3:2|3:0,0:0:0:0:
276,178,25439,1,8,1:0:0:0:
276,178,25608,1,2,0:0:0:0:
199,156,25776,6,0,B|162:133|162:133|160:260,1,145,10|8,3:2|1:0,0:0:0:0:
125,306,26282,1,2,3:2:0:0:
125,306,26450,2,0,P|157:315|225:289,1,72.5,2|2,0:0|3:2,0:0:0:0:
230,237,26788,2,0,P|198:228|130:254,1,72.5,8|2,1:0|0:0,0:0:0:0:
79,237,27125,2,0,P|123:205|78:96,1,145,10|8,3:2|1:0,0:0:0:0:
49,81,27630,2,0,P|128:91|199:91,1,145,10|8,3:2|3:2,0:0:0:0:
270,70,28136,2,0,P|302:65|371:68,1,72.5,8|0,1:0|0:0,0:0:0:0:
413,29,28473,6,0,P|414:99|380:147,1,72.5,8|2,3:2|0:0,0:0:0:0:
376,171,28810,2,0,P|375:241|409:289,1,72.5,8|2,1:0|3:2,0:0:0:0:
413,318,29147,1,8,0:0:0:0:
413,318,29316,1,2,3:2:0:0:
337,342,29484,2,0,P|263:334|234:324,1,72.5,8|2,1:0|0:0,0:0:0:0:
225,265,29821,2,0,P|299:257|328:247,1,72.5,8|4,3:2|3:0,0:0:0:0:
313,179,30158,1,4,3:0:0:0:
233,173,30327,1,4,3:0:0:0:
153,169,30495,2,0,B|177:142|177:142|332:149,1,145,10|0,0:3|0:0,0:0:0:0:
126,47,31170,6,0,P|156:70|135:183,1,145,10|8,3:2|1:0,0:0:0:0:
98,226,31675,2,0,B|83:176|61:129|61:129|86:132|134:92,1,145,2|2,3:2|3:2,0:0:0:0:
130,51,32181,1,8,1:0:0:0:
130,51,32349,1,2,0:0:0:0:
209,59,32518,2,0,P|234:65|304:64,1,72.5,10|8,3:2|0:3,0:0:0:0:
350,29,32855,1,8,1:0:0:0:
425,2,33024,2,0,B|437:103|385:54|401:161,1,145,8|0,3:2|3:0,0:0:0:0:
395,220,33529,2,0,P|394:251|425:302,1,72.5,8|2,1:0|0:0,0:0:0:0:
411,368,33866,6,0,P|383:352|324:352,1,72.5,10|2,3:2|0:0,0:0:0:0:
283,294,34203,2,0,P|255:309|196:309,1,72.5,8|2,1:0|3:2,0:0:0:0:
161,372,34540,2,0,P|185:284|174:190,1,145,2|8,0:0|1:0,0:0:0:0:
144,155,35046,1,0,0:0:0:0:
179,83,35215,2,0,P|224:72|274:65,1,72.5,10|8,3:2|0:3,0:0:0:0:
318,27,35552,1,8,1:0:0:0:
391,56,35720,2,0,B|381:140|418:115|412:220,1,145,10|0,3:2|3:0,0:0:0:0:
387,273,36226,1,8,1:0:0:0:
387,273,36394,1,2,0:0:0:0:
411,348,36563,6,0,P|358:348|302:266,1,145,10|8,3:2|1:0,0:0:0:0:
228,251,37068,2,0,P|281:251|337:169,1,145,2|0,3:2|3:0,0:0:0:0:
317,106,37574,1,8,1:0:0:0:
317,106,37743,1,2,0:0:0:0:
266,44,37911,2,0,P|310:26|352:37,2,72.5,10|8|8,3:2|0:3|1:0,0:0:0:0:
195,5,38417,2,0,P|219:53|162:171,1,145,10|0,3:2|3:0,0:0:0:0:
145,196,38922,2,0,P|130:252|150:311,1,72.5,8|0,1:0|0:0,0:0:0:0:
106,341,39259,6,0,B|142:350|166:338|166:338|194:349|194:349|220:335|268:343,1,145,10|8,3:2|1:0,0:0:0:0:
270,266,39765,2,0,B|243:271|217:257|217:257|189:268|189:268|165:256|129:265,1,145,8|2,3:0|3:2,0:0:0:0:
50,272,40271,2,0,P|16:266|-29:230,1,72.5,8|0,1:0|0:0,0:0:0:0:
18,173,40608,6,0,P|22:152|19:117,3,36.25,10|8|8|8,3:0|0:3|0:3|0:3,0:0:0:0:
14,97,40945,2,0,P|62:81|115:80,1,72.5,8|0,0:2|0:0,0:0:0:0:
158,51,41282,2,0,P|162:72|159:107,3,36.25,10|8|8|8,3:0|0:3|0:3|0:3,0:0:0:0:
154,127,41619,2,0,P|202:143|255:144,1,72.5,8|0,0:0|0:0,0:0:0:0:
302,132,41956,2,0,B|279:132|267:107|267:107|263:200|263:200|268:213|268:213|265:308|265:308|263:285|242:264,1,290,14|2,3:0|0:0,0:0:0:0:
215,360,43304,6,0,P|274:379|303:367,1,72.5,2|2,3:0|3:0,0:0:0:0:
338,320,43641,2,0,P|373:319|404:337,1,72.5,2|2,0:0|0:0,0:0:0:0:
471,382,43979,1,8,3:0:0:0:
471,382,44147,1,0,0:0:0:0:
488,303,44316,2,0,B|493:251|493:251|512:225|512:225|517:144,1,145,2|2,0:0|3:0,0:0:0:0:
478,94,44821,1,2,3:0:0:0:
398,92,44990,2,0,P|347:89|306:76,1,72.5,2|2,0:0|0:0,0:0:0:0:
255,47,45327,1,8,3:0:0:0:
255,47,45495,1,0,0:0:0:0:
180,76,45664,2,0,B|161:152|221:135|198:223,1,145,2|2,0:0|3:0,0:0:0:0:
151,278,46170,5,2,3:0:0:0:
170,355,46338,2,0,P|104:344|88:328,1,72.5,2|2,0:0|0:0,0:0:0:0:
55,275,46675,2,0,B|111:222|111:222|158:288,1,145,8|2,3:0|0:0,0:0:0:0:
291,351,47349,1,2,3:0:0:0:
291,351,47518,2,0,P|348:342|382:350,1,72.5,2|2,3:0|0:0,0:0:0:0:
431,304,47855,1,2,0:0:0:0:
431,304,48024,2,0,P|394:259|384:225,1,72.5,8|0,3:0|0:0,0:0:0:0:
354,174,48361,2,0,P|345:225|257:272,1,145,2|2,0:0|3:0,0:0:0:0:
193,254,48866,6,0,B|194:228|180:208|180:208|299:187,1,145,2|2,3:0|0:0,0:0:0:0:
248,115,49372,2,0,L|156:130,1,72.5,12|0,3:0|0:0,0:0:0:0:
166,47,49709,2,0,L|237:35,1,72.5,2|2,0:0|0:0,0:0:0:0:
317,40,50046,1,2,3:0:0:0:
317,40,50215,1,2,3:0:0:0:
390,8,50383,2,0,P|396:59|381:89,1,72.5,2|2,0:0|0:0,0:0:0:0:
356,151,50720,2,0,P|350:202|365:232,1,72.5,12|0,3:0|0:0,0:0:0:0:
413,277,51057,1,2,0:0:0:0:
396,355,51226,1,2,0:0:0:0:
317,369,51394,6,0,B|235:360|280:313|179:300,1,145,10|8,3:2|1:0,0:0:0:0:
121,267,51900,2,0,P|120:213|191:227,1,145,0|2,3:2|3:2,0:0:0:0:
268,239,52406,2,0,P|318:228|361:208,1,72.5,8|2,1:0|0:0,0:0:0:0:
415,237,52743,2,0,P|396:165|327:141,1,145,10|8,3:2|1:0,0:0:0:0:
255,140,53248,1,2,3:2:0:0:
255,140,53417,2,0,B|343:137|313:92|422:91,1,145,8|8,0:3|1:0,0:0:0:0:
256,192,54091,12,8,56113,3:0:0:0:
256,25,56619,6,0,P|261:70|254:200,1,166.750003180504,2|2,0:0|0:0,0:0:0:0:
190,256,57125,2,0,P|232:277|296:273,1,83.375001590252,8|2,1:0|3:2,0:0:0:0:
333,214,57462,2,0,P|291:193|227:197,1,83.375001590252,2|2,0:0|3:2,0:0:0:0:
166,167,57799,1,8,1:0:0:0:
166,167,57967,1,0,0:0:0:0:
84,123,58136,2,0,P|74:176|98:225,1,83.375001590252,10|2,3:2|0:0,0:0:0:0:
127,283,58473,1,8,1:0:0:0:
92,367,58641,1,2,3:2:0:0:
43,288,58810,2,0,B|137:291|99:235|219:238,1,166.750003180504,2|8,0:0|1:0,0:0:0:0:
269,180,59316,6,0,B|240:218|240:218|251:346,1,166.750003180504,0|2,0:0|0:0,0:0:0:0:
331,378,59821,2,0,B|377:389|377:389|421:369,1,83.375001590252,8|2,1:0|3:2,0:0:0:0:
475,310,60158,1,2,0:0:0:0:
475,310,60327,1,2,3:2:0:0:
444,223,60495,2,0,P|453:182|477:122,1,83.375001590252,8|2,1:0|0:0,0:0:0:0:
444,53,60832,1,10,3:2:0:0:
359,90,61001,1,2,0:0:0:0:
296,22,61170,2,0,P|278:90|281:129,1,83.375001590252,8|8,1:0|3:0,0:0:0:0:
260,191,61507,2,0,P|340:162|348:63,1,166.750003180504,6|8,3:0|1:0,0:0:0:0:
296,22,62012,6,0,P|216:51|208:150,1,166.750003180504,2|2,0:0|0:0,0:0:0:0:
156,206,62518,2,0,P|96:229|50:220,1,83.375001590252,8|2,1:0|3:2,0:0:0:0:
15,161,62855,1,2,0:0:0:0:
93,139,63023,1,2,3:2:0:0:
123,52,63192,2,0,P|188:75|234:72,1,83.375001590252,8|2,1:0|0:0,0:0:0:0:
268,12,63529,2,0,P|241:56|308:161,1,166.750003180504,10|8,3:2|1:0,0:0:0:0:
363,199,64035,2,0,P|390:243|323:348,1,166.750003180504,2|0,3:2|3:2,0:0:0:0:
252,350,64540,2,0,P|203:337|159:342,1,83.375001590252,8|0,1:0|0:0,0:0:0:0:
84,307,64877,5,2,3:2:0:0:
84,307,65046,2,0,P|93:246|102:135,1,166.750003180504,2|0,3:2|0:0,0:0:0:0:
177,89,65552,1,2,3:2:0:0:
177,89,65721,2,0,P|186:150|195:261,1,166.750003180504,2|0,3:2|0:0,0:0:0:0:
271,304,66226,1,2,3:2:0:0:
271,304,66395,2,0,P|280:243|289:132,1,166.750003180504,2|0,3:2|0:0,0:0:0:0:
305,48,66900,2,0,P|346:50|407:69,1,83.375001590252,2|0,0:0|0:0,0:0:0:0:
463,9,67237,1,2,3:2:0:0:
463,9,67406,1,0,0:0:0:0:
469,100,67574,6,0,B|445:138|461:182|461:182|461:182|461:182|458:181|458:181|464:182|464:182|461:182|461:182|467:230|436:265,1,166.750003180504,10|8,3:2|1:0,0:0:0:0:
459,339,68080,2,0,B|368:335|392:287|304:286,1,166.750003180504,0|0,3:2|3:0,0:0:0:0:
214,300,68585,1,8,1:0:0:0:
214,300,68754,1,0,0:0:0:0:
136,273,68922,6,0,P|107:252|72:179,2,83.375001590252,2|2|2,3:2|3:2|0:2,0:0:0:0:
205,213,69428,1,2,0:2:0:0:
228,124,69597,2,0,P|260:109|341:115,2,83.375001590252,2|2|2,3:2|3:2|0:2,0:0:0:0:
205,213,70102,1,2,0:2:0:0:
286,255,70271,2,0,P|282:290|236:357,2,83.375001590252,2|2|2,3:2|3:2|0:2,0:0:0:0:
205,213,70776,1,2,0:2:0:0:
136,273,70945,6,0,P|107:252|72:179,1,83.375001590252,2|2,3:2|3:2,0:0:0:0:
29,136,71282,2,0,B|107:134|72:92|178:93,1,125.062502385378,2|0,0:3|0:0,0:0:0:0:
179,64,71619,5,8,3:2:0:0:
249,4,71788,2,0,P|227:75|269:163,1,166.750003180504,2|2,0:0|0:0,0:0:0:0:
352,170,72293,1,8,3:2:0:0:
313,86,72462,2,0,B|237:86|252:154|157:146,1,166.750003180504,2|2,0:0|0:0,0:0:0:0:
80,108,72967,1,8,3:2:0:0:
33,187,73136,1,2,0:0:0:0:
116,225,73304,1,8,3:2:0:0:
163,146,73473,2,0,B|137:180|132:218|158:258|201:265|201:265|220:263|220:263|277:280|292:352|242:394,1,326.24999004364,2|0,0:0|0:0,0:0:0:0:
161,381,74484,6,0,P|90:368|55:349,1,79.7500024337769,0|0,3:0|3:0,0:0:0:0:
28,296,74821,1,0,3:0:0:0:
2,380,74990,2,0,P|13:299|20:183,1,159.500004867554,0|8,3:0|0:3,0:0:0:0:
19,46,75664,6,0,P|75:38|150:104,1,159.500004867554,8|8,3:2|1:0,0:0:0:0:
162,187,76170,2,0,P|218:195|293:129,1,159.500004867554,8|0,3:0|3:0,0:0:0:0:
379,122,76675,2,0,P|386:204|397:232,1,79.7500024337769,8|0,1:0|0:0,0:0:0:0:
431,273,77012,1,8,3:2:0:0:
431,273,77181,2,0,P|489:269|530:269,1,79.7500024337769,0|8,0:0|1:0,0:0:0:0:
475,349,77518,2,0,P|413:348|314:330,1,159.500004867554,8|0,3:0|3:0,0:0:0:0:
232,306,78024,1,8,1:0:0:0:
148,328,78192,6,0,B|138:272|138:272|156:233|156:233|144:159,1,159.500004867554,2|0,0:0|0:0,0:0:0:0:
92,104,78698,2,0,P|137:86|178:95,1,79.7500024337769,8|8,1:0|3:0,0:0:0:0:
236,143,79035,1,2,0:0:0:0:
321,159,79203,1,0,3:0:0:0:
392,107,79372,1,8,1:0:0:0:
477,91,79540,1,0,0:0:0:0:
442,171,79709,2,0,B|367:144|413:78|293:78,1,159.500004867554,10|8,3:2|1:0,0:0:0:0:
232,67,80215,2,0,B|152:74|184:131|109:158,1,159.500004867554,8|0,3:0|3:0,0:0:0:0:
22,160,80720,1,8,1:0:0:0:
22,160,80889,1,2,0:0:0:0:
8,246,81057,6,0,P|-2:298|2:339,1,79.7500024337769,10|8,1:0|3:2,0:0:0:0:
84,352,81394,2,0,P|74:272|4:246,1,159.500004867554,10|10,1:0|1:0,0:0:0:0:
22,160,81900,1,8,3:2:0:0:
100,122,82068,2,0,B|126:132|126:132|187:129,1,79.7500024337769,10|8,1:0|3:2,0:0:0:0:
266,126,82406,2,0,B|317:128|317:128|343:118,1,79.7500024337769,12|8,1:0|3:2,0:0:0:0:
384,40,82743,2,0,P|377:109|385:209,1,159.500004867554,8|8,1:0|1:0,0:0:0:0:
368,284,83248,1,8,3:2:0:0:
368,284,83417,1,8,1:0:0:0:
375,371,83585,6,0,B|286:369|324:306|214:305,1,159.500004867554,8|8,3:2|0:3,0:0:0:0:
147,313,84091,1,8,3:0:0:0:
147,313,84259,1,8,0:3:0:0:
88,247,84428,5,2,3:0:0:0:
104,160,84597,1,2,0:3:0:0:
172,105,84765,1,2,3:0:0:0:
156,18,84934,1,2,0:3:0:0:
239,44,85102,2,0,P|291:40|333:60,1,79.7500024337769,12|4,1:3|1:3,0:0:0:0:
353,128,85439,2,0,P|301:132|259:112,1,79.7500024337769,12|4,1:3|1:3,0:0:0:0:
239,44,85776,5,10,0:1:0:0:
172,105,85945,1,10,0:1:0:0:
156,18,86113,1,10,0:1:0:0:
89,79,86282,1,10,0:1:0:0:
102,169,88473,6,0,B|90:140|99:99|115:72|182:59|212:86|232:119|223:168|223:168|214:216|239:313|331:343|413:329|474:271|479:180|479:180|443:246|413:250,1,755.159991473108,14|10,0:1|0:3,0:0:0:0:
