osu file format v14

[General]
AudioFilename: audio.mp3
AudioLeadIn: 0
PreviewTime: 56450
Countdown: 0
SampleSet: Soft
StackLeniency: 0.7
Mode: 0
LetterboxInBreaks: 0
WidescreenStoryboard: 1

[Editor]
Bookmarks: 87967,87988,88009,88031,88052,88073,88094,88115,88136
DistanceSpacing: 0.9
BeatDivisor: 4
GridSize: 8
TimelineZoom: 1.7

[Metadata]
Title:Chikatto Chika Chika
TitleUnicode:チカっとチカ千花っ♡
Artist:Sati Akura
ArtistUnicode:Sati Akura
Creator:-Mikan
Version:3mplify's Normal
Source:かぐや様は告らせたい~天才たちの恋愛頭脳戦~
Tags:Djulus 3mplify smozit Daycore DendyHere DendyMudak Deca iljaaz Xenon- Xehn Xen Чика Сати Акура Русский Russian cover Anime OP opening Fujiwara Chika CV Kohara Konomi Kaguya-sama: Love Is War Kaguya-sama wa Kokurasetai: Tensai-tachi no Renai Zunousen TV Size Аниме
BeatmapID:2176322
BeatmapSetID:1038445

[Difficulty]
HPDrainRate:4
CircleSize:3
OverallDifficulty:5
ApproachRate:5.5
SliderMultiplier:1.2
SliderTickRate:1

[Events]
//Background and Video events
0,0,"zXWNijN.jpg",0,0
Video,-3000,"Chika Creditless ED2.avi" F,0,-3000,-2000,0,1 F,0,94960,95960,1,0
//Break Periods
2,3055,3752
2,43304,47573
//Storyboard Layer 0 (Background)
//Storyboard Layer 1 (Fail)
//Storyboard Layer 2 (Pass)
//Storyboard Layer 3 (Foreground)
//Storyboard Layer 4 (Overlay)
//Storyboard Sound Samples

[TimingPoints]
833,337.078651685393,4,2,1,50,1,0
833,-100,4,2,1,50,0,0
10945,-100,4,2,1,60,0,0
11282,-100,4,2,1,60,0,0
11619,-100,4,2,1,60,0,0
11956,-100,4,2,1,60,0,0
12293,-100,4,2,1,60,0,0
12967,-100,4,2,1,60,0,0
14653,-100,4,2,1,60,0,0
14906,-100,4,2,1,5,0,0
14990,-100,4,2,1,60,0,0
19709,-100,4,2,1,60,0,0
20383,-100,4,2,1,60,0,0
30495,-100,4,2,1,60,0,0
31170,-100,4,2,1,60,0,0
39765,-100,4,2,1,60,0,0
40271,-100,4,2,1,60,0,0
40524,-100,4,2,1,5,0,0
40608,-100,4,2,1,70,0,0
42630,-100,4,2,1,100,0,0
42715,-100,4,2,1,30,0,0
42799,-100,4,2,1,40,0,0
42883,-100,4,2,1,50,0,0
42967,-100,4,2,1,60,0,0
43052,-100,4,2,1,70,0,0
43304,-100,4,2,1,60,0,0
51394,-100,4,2,1,60,0,0
54007,-100,4,2,1,5,0,0
54091,-100,4,2,1,60,0,0
54681,-100,4,2,1,5,0,0
54765,-100,4,2,1,70,0,0
55439,-100,4,2,1,80,0,0
56788,-100,4,2,1,80,0,1
68585,-100,4,2,1,80,0,0
74484,-100,4,2,1,80,0,1
74653,-100,4,2,1,80,0,0
74821,-100,4,2,1,80,0,1
74990,-100,4,2,1,80,0,0
75664,-100,4,2,1,70,0,0
81057,-100,4,2,1,76,0,1
83754,-100,4,2,1,84,0,1
84428,-100,4,2,1,89,0,1
85102,-100,4,2,1,94,0,1
85776,-100,4,2,1,100,0,1
86282,-100,4,2,1,100,0,0
87967,-100,4,2,1,100,0,1
87988,-100,4,2,1,100,0,1
88009,-100,4,2,1,100,0,1
88031,-100,4,2,1,100,0,1
88052,-100,4,2,1,100,0,1
88073,-100,4,2,1,100,0,1
88094,-100,4,2,1,100,0,1
88115,-100,4,2,1,100,0,1
88136,-100,4,2,1,100,0,0
88473,-100,4,2,1,80,0,0
92518,-100,4,2,1,60,0,0

[Colours]
Combo1 : 255,72,255
Combo2 : 146,146,201
Combo3 : 139,86,203
Combo4 : 255,128,255

[HitObjects]
196,82,833,6,0,B|217:146|169:186|165:191|162:196|113:237|136:302,1,240,2|8,0:3|0:3,0:0:0:0:
136,302,2181,2,0,P|74:200|64:81,1,240,2|2,0:3|0:0,0:0:0:0:
316,302,4877,6,0,B|294:237|342:197|346:192|349:187|398:146|375:81,1,240,2|2,0:0|0:3,0:0:0:0:
375,81,6225,2,0,P|436:182|446:301,1,240,8|2,0:3|0:3,0:0:0:0:
433,328,8248,1,2,0:3:0:0:
409,342,9597,2,0,B|354:378|296:338|296:338|200:266|200:266,1,240,2|2,0:3|0:3,0:0:0:0:
31,132,10945,5,8,0:1:0:0:
109,333,11619,1,8,0:1:0:0:
136,118,12293,2,0,B|138:93|138:93|142:53|183:57|183:57|271:67,1,180,12|0,0:1|0:3,0:0:0:0:
325,75,12967,1,8,0:3:0:0:
424,326,13810,6,0,L|400:266,1,60,0|0,3:0|3:0,0:0:0:0:
354,232,14147,2,0,L|290:223,1,60,0|0,3:0|3:0,0:0:0:0:
316,329,14653,1,2,0:3:0:0:
214,293,14990,6,0,P|188:241|200:175,1,120,8|8,3:2|1:0,0:0:0:0:
218,132,15495,1,8,3:0:0:0:
110,139,15832,1,0,3:0:0:0:
58,121,16001,2,0,L|81:57,2,60,8|0|8,1:0|0:0|3:2,0:0:0:0:
42,172,16507,2,0,P|48:273|62:297,1,120,8|8,0:3|3:2,0:0:0:0:
101,384,17181,1,0,3:0:0:0:
138,345,17349,2,0,L|201:345,1,60,8|2,1:0|0:0,0:0:0:0:
234,306,17686,6,0,B|254:247|214:247|234:188,1,120,8|8,3:2|1:0,0:0:0:0:
256,139,18192,1,8,3:0:0:0:
334,212,18529,1,0,3:0:0:0:
384,231,18698,2,0,P|418:231|461:208,1,60,8|8,1:0|0:0,0:0:0:0:
511,139,19203,2,0,L|424:123,1,60,0|0,3:0|3:0,0:0:0:0:
398,118,19540,2,0,L|368:34,1,60,0|2,3:0|3:0,0:0:0:0:
179,147,20383,5,10,3:2:0:0:
286,133,20720,1,8,1:0:0:0:
279,187,20889,2,0,P|230:246|176:256,1,120,2|0,3:2|3:0,0:0:0:0:
137,249,21394,1,8,1:0:0:0:
35,210,21731,1,10,3:2:0:0:
33,264,21900,2,0,P|81:337|119:351,1,120,8|8,0:3|3:2,0:0:0:0:
215,358,22574,1,0,3:0:0:0:
264,335,22743,2,0,P|293:333|341:347,1,60,8|0,1:0|0:0,0:0:0:0:
372,360,23080,5,10,3:2:0:0:
346,255,23417,1,8,1:0:0:0:
356,202,23585,2,0,P|375:148|425:104,1,120,2|2,3:2|3:2,0:0:0:0:
471,86,24091,1,8,1:0:0:0:
400,3,24428,1,8,3:2:0:0:
356,35,24597,2,0,P|318:49|282:46,1,60,8|8,0:3|1:0,0:0:0:0:
244,48,24934,2,0,P|214:43|188:28,1,60,8|0,3:2|0:0,0:0:0:0:
140,2,25271,2,0,P|140:61|134:121,1,120,0|2,3:0|0:0,0:0:0:0:
127,174,25776,5,10,3:2:0:0:
110,280,26113,1,8,1:0:0:0:
163,285,26282,2,0,P|195:283|232:254,1,60,2|2,3:2|0:0,0:0:0:0:
260,235,26619,2,0,P|238:209|227:179,2,60,2|8|2,3:2|1:0|0:0,0:0:0:0:
308,261,27125,2,0,P|366:268|430:248,1,120,10|8,3:2|1:0,0:0:0:0:
472,227,27630,1,10,3:2:0:0:
487,334,27967,2,0,L|428:354,1,60,8|8,3:2|1:0,0:0:0:0:
322,368,28473,6,0,B|257:371|268:332|204:336,1,120,8|8,3:2|1:0,0:0:0:0:
154,333,28979,2,0,B|94:329|105:368|40:364,1,120,2|2,3:2|3:2,0:0:0:0:
4,325,29484,1,8,1:0:0:0:
71,240,29821,2,0,L|118:172,1,60,8|4,3:2|3:0,0:0:0:0:
60,160,30158,2,0,L|-7:111,1,60,4|4,3:0|3:0,0:0:0:0:
42,80,30495,1,10,0:3:0:0:
255,47,31170,6,0,B|311:65|325:22|384:43,1,120,10|8,3:2|1:0,0:0:0:0:
422,61,31675,1,2,3:2:0:0:
359,149,32012,1,2,3:2:0:0:
332,196,32181,2,0,P|338:224|357:262,2,60,8|2|10,1:0|0:0|3:2,0:0:0:0:
279,184,32686,2,0,B|210:174|218:212|141:188,1,120,8|8,0:3|3:2,0:0:0:0:
53,185,33361,2,0,L|66:260,1,60,0|8,3:0|1:0,0:0:0:0:
152,305,33866,6,0,L|154:376,2,60,10|2|8,3:2|0:0|1:0,0:0:0:0:
196,273,34372,1,2,3:2:0:0:
250,277,34540,2,0,P|272:315|277:354,1,60,2|0,0:0|3:0,0:0:0:0:
271,384,34877,2,0,P|342:321|386:324,1,120,8|10,1:0|3:2,0:0:0:0:
471,333,35552,2,0,L|441:268,1,60,8|10,1:0|3:2,0:0:0:0:
400,180,36057,1,0,3:0:0:0:
348,191,36226,2,0,P|316:190|269:163,1,60,8|2,1:0|0:0,0:0:0:0:
243,154,36563,1,10,3:2:0:0:
168,77,36900,5,8,1:0:0:0:
133,117,37068,2,0,P|114:172|130:229,1,120,2|0,3:2|3:0,0:0:0:0:
163,273,37574,2,0,P|232:270|283:303,1,120,8|10,1:0|3:2,0:0:0:0:
356,366,38248,2,0,L|374:308,1,60,8|10,1:0|3:2,0:0:0:0:
401,203,38754,1,0,3:0:0:0:
419,152,38922,2,0,P|438:128|465:111,1,60,8|0,1:0|0:0,0:0:0:0:
512,95,39259,5,10,3:2:0:0:
432,22,39597,2,0,L|351:33,1,60,8|8,1:0|3:0,0:0:0:0:
266,43,40102,1,2,3:2:0:0:
291,91,40271,2,0,L|322:154,1,60,8|0,1:0|0:0,0:0:0:0:
304,197,40608,5,10,3:0:0:0:
120,85,41282,1,10,3:0:0:0:
199,286,41956,2,0,B|218:343|267:326|275:397|275:397,1,120,14|0,3:0|0:0,0:0:0:0:
37,72,48698,5,2,3:0:0:0:
88,72,48866,2,0,P|175:83|269:120,1,180,2|12,3:0|3:0,0:0:0:0:
426,255,50047,1,2,3:0:0:0:
375,255,50215,2,0,P|288:266|193:303,1,180,2|12,3:0|3:0,0:0:0:0:
1,379,51394,6,0,B|1:317|1:317|36:257,1,120,10|8,3:2|1:0,0:0:0:0:
62,223,51900,1,0,3:2:0:0:
39,117,52238,1,2,3:2:0:0:
90,103,52406,2,0,B|128:116|128:116|158:147|158:147|217:165,1,120,8|10,1:0|3:2,0:0:0:0:
298,180,53080,1,8,1:0:0:0:
290,127,53248,2,0,B|284:86|284:86|347:26|347:26,1,120,2|0,3:2|3:0,0:0:0:0:
386,1,53754,1,8,1:0:0:0:
489,31,54091,6,0,P|532:106|446:145,1,180,8|0,3:0|0:0,0:0:0:0:
418,138,54765,2,0,P|468:209|385:255,1,180,8|2,3:0|0:0,0:0:0:0:
358,240,55439,1,10,3:0:0:0:
358,240,56788,5,8,3:2:0:0:
302,332,57125,2,0,L|242:327,1,60,8|2,1:0|3:2,0:0:0:0:
134,315,57630,1,2,3:2:0:0:
146,261,57799,2,0,L|150:201,1,60,8|0,1:0|0:0,0:0:0:0:
155,147,58136,2,0,P|91:186|40:179,1,120,10|8,3:2|1:0,0:0:0:0:
1,157,58641,1,2,3:2:0:0:
73,76,58979,1,0,3:0:0:0:
115,43,59147,2,0,B|142:49|142:49|180:41,1,60,8|0,1:0|0:0,0:0:0:0:
218,73,59484,6,0,B|277:87|279:50|337:64,1,120,10|8,3:2|1:0,0:0:0:0:
386,80,59990,1,2,3:2:0:0:
325,169,60327,2,0,P|314:205|317:253,1,60,2|8,3:2|1:0,0:0:0:0:
291,332,60832,2,0,L|223:317,1,60,10|2,3:2|0:0,0:0:0:0:
208,269,61170,2,0,L|172:213,1,60,8|8,1:0|3:0,0:0:0:0:
134,188,61507,2,0,L|82:155,1,60,6|0,3:0|0:0,0:0:0:0:
55,109,61845,2,0,L|57:48,1,60,8|2,1:0|0:0,0:0:0:0:
107,30,62181,5,10,3:2:0:0:
214,38,62518,2,0,P|243:33|271:22,2,60,8|2|2,1:0|3:2|0:0,0:0:0:0:
185,83,63024,1,2,3:2:0:0:
217,126,63192,2,0,B|246:140|275:126|275:126|304:140|334:126,1,120,8|10,1:0|3:2,0:0:0:0:
428,76,63866,1,8,1:0:0:0:
465,114,64035,2,0,B|479:142|479:142|465:170|465:170|479:198|465:226,1,120,2|0,3:2|3:2,0:0:0:0:
442,273,64540,1,8,1:0:0:0:
341,311,64877,6,0,L|346:251,1,60,2|2,3:2|3:2,0:0:0:0:
205,170,65552,2,0,L|214:245,1,60,2|2,3:2|3:2,0:0:0:0:
136,372,66226,1,2,3:2:0:0:
88,346,66394,2,0,P|62:352|14:342,2,60,2|8|0,3:2|0:3|0:0,0:0:0:0:
99,293,66900,2,0,P|97:234|65:165,1,120,2|2,0:0|3:2,0:0:0:0:
121,81,67574,2,0,P|170:114|199:166,1,120,10|8,3:2|1:0,0:0:0:0:
210,221,68080,1,0,3:2:0:0:
308,266,68417,1,0,3:0:0:0:
357,244,68585,2,0,P|370:213|374:173,1,60,8|0,1:0|0:0,0:0:0:0:
372,132,68922,6,0,L|308:141,1,60,2|2,3:2|3:2,0:0:0:0:
166,210,69597,2,0,L|118:173,1,60,2|2,3:2|3:2,0:0:0:0:
87,13,70271,2,0,L|146:20,1,60,2|2,3:2|3:2,0:0:0:0:
307,2,70945,2,0,L|290:59,1,60,2|2,3:2|3:2,0:0:0:0:
236,212,71619,5,8,3:2:0:0:
264,257,71788,2,0,P|319:287|383:278,1,120,2|2,0:0|0:0,0:0:0:0:
426,268,72293,1,8,3:2:0:0:
413,320,72462,2,0,P|373:364|316:379,1,120,2|2,0:0|0:0,0:0:0:0:
262,378,72967,1,8,3:2:0:0:
166,327,73304,1,8,3:2:0:0:
166,327,74484,6,0,L|138:391,1,60,0|0,3:0|3:0,0:0:0:0:
87,384,74821,2,0,L|62:329,1,60,0|0,3:0|3:0,0:0:0:0:
111,231,75327,1,8,0:3:0:0:
218,241,75664,6,0,L|356:222,1,120,8|8,3:2|1:0,0:0:0:0:
404,140,76338,2,0,L|285:123,1,120,0|8,0:0|1:0,0:0:0:0:
185,80,77012,2,0,P|183:44|194:-6,2,60,8|0|8,3:2|0:0|1:0,0:0:0:0:
181,134,77518,1,8,3:0:0:0:
121,136,77686,2,0,P|68:151|26:220,1,120,0|8,0:0|1:0,0:0:0:0:
39,311,78361,5,10,3:2:0:0:
136,265,78698,1,8,1:0:0:0:
139,373,79035,1,2,0:0:0:0:
232,319,79372,1,8,1:0:0:0:
201,215,79709,2,0,P|179:192|137:182,2,60,10|0|8,3:2|0:0|1:0,0:0:0:0:
253,226,80215,1,8,3:0:0:0:
304,242,80383,2,0,P|327:273|336:310,1,60,0|0,0:0|3:0,0:0:0:0:
350,343,80720,1,8,1:0:0:0:
456,319,81057,6,0,L|487:247,1,60,10|8,1:0|3:2,0:0:0:0:
468,210,81394,2,0,L|458:132,1,60,10|8,1:0|3:2,0:0:0:0:
411,129,81731,2,0,L|339:96,1,60,10|8,1:0|3:2,0:0:0:0:
328,57,82068,2,0,L|282:-6,1,60,10|8,1:0|3:2,0:0:0:0:
240,21,82406,2,0,P|195:51|189:116,1,120,12|8,1:0|1:0,0:0:0:0:
207,219,83080,2,0,P|202:277|155:311,1,120,8|8,1:0|1:0,0:0:0:0:
102,217,83754,5,8,3:0:0:0:
156,123,84091,1,8,3:0:0:0:
48,125,84428,1,2,3:0:0:0:
108,35,84765,1,2,3:0:0:0:
215,39,85102,2,0,L|289:68,1,60,12|4,1:3|1:3,0:0:0:0:
312,95,85439,2,0,L|343:167,1,60,12|4,1:3|1:3,0:0:0:0:
321,202,85776,2,0,L|242:210,1,60,10|10,0:1|0:1,0:0:0:0:
213,231,86113,2,0,L|163:293,1,60,10|10,0:1|0:1,0:0:0:0:
295,313,88473,5,14,0:1:0:0:
256,192,88557,12,10,92518,0:3:0:0:
