osu file format v14

[General]
AudioFilename: audio.ogg
AudioLeadIn: 0
PreviewTime: 171
Countdown: 0
SampleSet: Normal
StackLeniency: 0.7
Mode: 1
LetterboxInBreaks: 0
WidescreenStoryboard: 0

[Editor]
DistanceSpacing: 0.9
BeatDivisor: 4
GridSize: 32
TimelineZoom: 1.6

[Metadata]
Title:&Z
TitleUnicode:&Z
Artist:Sati Akura
ArtistUnicode:Sati Akura
Creator:Nao Tomori
Version:Oni
Source:ALDNOAH.ZERO
Tags:アルドノア・ゼロ 澤野 弘之 2nd season op opening full version Sawano Hiroyuki nzk mizuki russian anime rock pop taiko
BeatmapID:2987138
BeatmapSetID:1452881

[Difficulty]
HPDrainRate:5
CircleSize:5
OverallDifficulty:5
ApproachRate:5
SliderMultiplier:1.4
SliderTickRate:1

[Events]
//Background and Video events
0,0,"46116165_p0.jpg",0,130
//Break Periods
//Storyboard Layer 0 (Background)
//Storyboard Layer 1 (Fail)
//Storyboard Layer 2 (Pass)
//Storyboard Layer 3 (Foreground)
//Storyboard Layer 4 (Overlay)
//Storyboard Sound Samples

[TimingPoints]
3020,379.746835443038,4,1,0,80,1,0
3020,-100,4,1,0,80,0,0
14887,-100,4,1,0,70,0,0
15076,-100,4,1,0,60,0,0
15361,-116.279069767442,4,1,0,50,0,0
26659,-114.285714285714,4,1,0,50,0,0
27038,-112.359550561798,4,1,0,50,0,0
27228,-109.289617486339,4,1,0,60,0,0
38811,-111.111111111111,4,1,0,60,0,0
39001,-113.636363636364,4,1,0,60,0,0
39285,-120.481927710843,4,1,0,60,0,0
40804,-125,4,1,0,50,0,0
51437,-125,4,1,0,50,0,0
51817,-125,4,1,0,60,0,0
57133,-120.481927710843,4,1,0,60,0,0
57513,-116.279069767442,4,1,0,60,0,0
61975,-100,4,1,0,80,0,0
62165,-116.279069767442,4,1,0,60,0,0
62830,-100,4,1,0,80,0,0
63779,-100,4,1,0,80,0,1
87893,-100,4,1,0,80,0,0
88368,-116.279069767442,4,1,0,50,0,0
89507,-111.111111111111,4,1,0,70,0,0
89602,-108.695652173913,4,1,0,70,0,0
89697,-108.695652173913,4,1,0,60,0,0
101184,-116.279069767442,4,1,0,60,0,0
101659,-133.333333333333,4,1,0,45,0,0
113811,-111.111111111111,4,1,0,60,0,0
125915,-112.359550561798,4,1,0,60,0,0
126010,-113.636363636364,4,1,0,60,0,0
135456,-117.647058823529,4,1,0,60,0,0
136216,-133.333333333333,4,1,0,50,0,0
136501,-142.857142857143,4,1,0,50,0,0
138209,-100,4,1,0,80,0,1
162323,-100,4,1,0,80,0,0
162798,-116.279069767442,4,1,0,50,0,0
163937,-100,4,1,0,70,0,0
188241,-120.481927710843,4,1,0,55,0,0
200203,-100,4,1,0,80,0,0
200488,-100,4,1,0,80,0,1
224602,-100,4,1,0,80,0,0
225076,-116.279069767442,4,1,0,50,0,0
226216,-100,4,1,0,70,0,0
250520,-105.263157894737,4,1,0,60,0,0
256595,-111.111111111111,4,1,0,60,0,0
263051,-117.647058823529,4,1,0,50,0,0
268747,-125,4,1,0,50,0,0
273304,-133.333333333333,4,1,0,45,0,0
273874,-136.986301369863,4,1,0,45,0,0
274349,-140.845070422535,4,1,0,45,0,0
274633,-142.857142857143,4,1,0,40,0,0

[HitObjects]
180,112,3020,5,12,0:0:0:0:
267,148,3209,1,8,0:0:0:0:
247,196,3399,1,0,0:0:0:0:
247,196,3589,1,0,0:0:0:0:
247,196,3684,1,0,0:0:0:0:
247,196,3779,1,8,0:0:0:0:
247,196,3969,1,0,0:0:0:0:
247,196,4159,1,0,0:0:0:0:
247,196,4349,1,8,0:0:0:0:
217,177,4728,1,0,0:0:0:0:
217,177,4918,1,8,0:0:0:0:
217,177,5108,1,0,0:0:0:0:
217,177,5298,1,8,0:0:0:0:
217,177,5488,1,8,0:0:0:0:
217,177,5678,1,0,0:0:0:0:
217,177,5773,1,0,0:0:0:0:
217,177,5868,1,0,0:0:0:0:
217,177,5963,1,0,0:0:0:0:
217,177,6057,1,8,0:0:0:0:
217,177,6247,1,8,0:0:0:0:
269,178,6627,1,0,0:0:0:0:
260,175,6817,1,8,0:0:0:0:
260,175,7007,1,0,0:0:0:0:
237,156,7197,1,8,0:0:0:0:
260,175,7387,1,8,0:0:0:0:
260,175,7576,1,0,0:0:0:0:
260,175,7766,1,0,0:0:0:0:
260,175,7956,1,8,0:0:0:0:
260,175,8146,1,0,0:0:0:0:
260,175,8241,1,0,0:0:0:0:
260,175,8336,1,8,0:0:0:0:
260,175,8526,1,0,0:0:0:0:
260,175,8906,1,0,0:0:0:0:
260,175,9095,1,12,0:0:0:0:
260,175,9285,1,8,0:0:0:0:
228,164,9475,1,0,0:0:0:0:
228,164,9665,1,8,0:0:0:0:
228,164,9760,1,0,0:0:0:0:
228,164,9855,1,8,0:0:0:0:
228,164,10045,1,0,0:0:0:0:
228,164,10235,1,0,0:0:0:0:
228,164,10425,1,8,0:0:0:0:
228,164,10614,1,0,0:0:0:0:
228,164,10994,1,8,0:0:0:0:
337,173,11184,1,0,0:0:0:0:
281,152,11374,1,8,0:0:0:0:
275,156,11564,1,8,0:0:0:0:
275,156,11754,1,0,0:0:0:0:
275,156,11849,1,0,0:0:0:0:
275,156,11944,1,0,0:0:0:0:
275,156,12038,1,0,0:0:0:0:
275,156,12133,1,8,0:0:0:0:
275,156,12323,1,8,0:0:0:0:
275,156,12703,1,0,0:0:0:0:
275,156,12893,1,8,0:0:0:0:
275,156,13083,1,0,0:0:0:0:
275,156,13273,1,0,0:0:0:0:
275,156,13463,1,8,0:0:0:0:
264,176,13842,1,0,0:0:0:0:
264,176,13937,1,0,0:0:0:0:
264,176,14032,1,8,0:0:0:0:
264,176,14222,1,0,0:0:0:0:
264,176,14412,1,8,0:0:0:0:
264,176,14507,1,8,0:0:0:0:
264,176,14602,1,0,0:0:0:0:
264,176,14697,1,0,0:0:0:0:
264,176,14792,1,8,0:0:0:0:
264,176,14982,1,0,0:0:0:0:
264,176,15171,1,4,0:0:0:0:
264,175,15551,1,0,0:0:0:0:
264,175,15931,1,8,0:0:0:0:
264,175,16121,1,0,0:0:0:0:
264,175,16311,1,0,0:0:0:0:
264,175,16690,1,0,0:0:0:0:
264,175,17070,1,0,0:0:0:0:
264,175,17450,1,8,0:0:0:0:
264,174,17830,1,0,0:0:0:0:
264,173,18209,1,0,0:0:0:0:
250,166,18589,1,0,0:0:0:0:
250,166,18779,1,0,0:0:0:0:
250,166,18969,1,8,0:0:0:0:
250,166,19159,1,0,0:0:0:0:
250,166,19349,1,0,0:0:0:0:
251,167,19728,1,0,0:0:0:0:
251,167,20108,1,0,0:0:0:0:
251,167,20488,1,8,0:0:0:0:
251,167,20678,1,8,0:0:0:0:
251,167,20868,1,0,0:0:0:0:
251,167,21247,1,0,0:0:0:0:
251,167,21627,1,0,0:0:0:0:
251,167,22007,1,8,0:0:0:0:
201,99,22197,1,0,0:0:0:0:
245,168,22387,1,0,0:0:0:0:
245,168,22576,1,8,0:0:0:0:
245,168,22766,1,0,0:0:0:0:
245,168,23146,1,0,0:0:0:0:
245,168,23526,1,8,0:0:0:0:
245,168,23716,1,0,0:0:0:0:
245,168,23906,1,0,0:0:0:0:
245,168,24285,1,8,0:0:0:0:
245,168,24665,1,0,0:0:0:0:
245,168,25045,1,8,0:0:0:0:
245,168,25235,1,0,0:0:0:0:
245,168,25425,1,0,0:0:0:0:
314,187,25804,1,0,0:0:0:0:
314,187,26184,1,0,0:0:0:0:
314,187,26564,1,8,0:0:0:0:
235,158,26754,1,0,0:0:0:0:
114,99,26849,1,0,0:0:0:0:
235,158,26944,1,0,0:0:0:0:
121,115,27133,1,8,0:0:0:0:
218,150,27323,1,4,0:0:0:0:
291,177,27703,1,0,0:0:0:0:
291,177,27893,1,0,0:0:0:0:
291,177,28083,1,8,0:0:0:0:
291,177,28273,1,0,0:0:0:0:
286,180,28463,1,0,0:0:0:0:
286,180,28842,1,8,0:0:0:0:
286,180,29032,1,0,0:0:0:0:
286,180,29412,1,0,0:0:0:0:
286,180,29602,1,8,0:0:0:0:
286,180,29792,1,8,0:0:0:0:
286,180,29982,1,0,0:0:0:0:
286,180,30361,1,0,0:0:0:0:
277,181,30741,1,0,0:0:0:0:
273,186,31121,1,8,0:0:0:0:
221,192,31311,1,0,0:0:0:0:
221,192,31501,1,0,0:0:0:0:
221,192,31880,1,8,0:0:0:0:
221,192,32260,1,0,0:0:0:0:
221,192,32640,1,8,0:0:0:0:
221,192,32830,1,8,0:0:0:0:
221,192,33020,1,0,0:0:0:0:
221,192,33209,1,8,0:0:0:0:
221,192,33399,1,0,0:0:0:0:
216,193,33779,1,0,0:0:0:0:
216,193,34159,1,8,0:0:0:0:
214,192,34538,1,0,0:0:0:0:
214,192,34918,1,8,0:0:0:0:
214,192,35298,1,0,0:0:0:0:
214,192,35488,1,0,0:0:0:0:
214,192,35678,1,8,0:0:0:0:
214,192,35868,1,8,0:0:0:0:
214,192,36057,1,0,0:0:0:0:
214,191,36437,1,0,0:0:0:0:
214,191,36817,1,0,0:0:0:0:
214,191,37007,1,0,0:0:0:0:
214,191,37197,1,8,0:0:0:0:
214,190,37576,1,8,0:0:0:0:
214,190,37956,1,0,0:0:0:0:
214,190,38336,1,0,0:0:0:0:
214,188,38716,1,8,0:0:0:0:
214,188,38906,1,0,0:0:0:0:
214,188,39095,1,0,0:0:0:0:
214,189,39475,1,12,0:0:0:0:
205,176,41374,1,0,0:0:0:0:
205,177,41754,1,0,0:0:0:0:
205,179,42133,1,8,0:0:0:0:
205,179,42893,1,8,0:0:0:0:
205,179,43273,1,8,0:0:0:0:
205,179,43652,1,0,0:0:0:0:
205,179,45171,1,0,0:0:0:0:
206,179,45931,1,0,0:0:0:0:
206,179,46690,1,8,0:0:0:0:
206,178,47450,1,8,0:0:0:0:
206,178,48209,1,0,0:0:0:0:
241,150,48589,1,0,0:0:0:0:
241,150,49159,1,0,0:0:0:0:
241,150,49728,1,0,0:0:0:0:
241,150,50488,1,0,0:0:0:0:
297,145,51247,1,0,0:0:0:0:
296,145,51627,1,8,0:0:0:0:
206,177,52007,1,0,0:0:0:0:
206,177,52197,1,0,0:0:0:0:
206,177,52387,1,8,0:0:0:0:
206,177,52576,1,0,0:0:0:0:
206,177,52766,1,8,0:0:0:0:
167,86,52956,1,8,0:0:0:0:
206,177,53146,1,0,0:0:0:0:
176,149,53526,1,0,0:0:0:0:
176,149,53906,1,8,0:0:0:0:
304,154,54285,1,0,0:0:0:0:
304,154,54665,1,0,0:0:0:0:
304,154,55045,1,8,0:0:0:0:
304,154,55235,1,0,0:0:0:0:
304,154,55425,1,8,0:0:0:0:
304,155,55804,1,0,0:0:0:0:
304,155,55994,1,0,0:0:0:0:
304,155,56184,1,0,0:0:0:0:
304,155,56564,1,8,0:0:0:0:
304,155,56944,1,8,0:0:0:0:
304,155,57323,1,0,0:0:0:0:
304,155,57703,1,8,0:0:0:0:
304,155,58273,1,0,0:0:0:0:
304,155,58463,1,8,0:0:0:0:
304,154,59032,1,8,0:0:0:0:
304,154,59222,1,0,0:0:0:0:
233,172,59792,1,0,0:0:0:0:
233,172,59982,1,8,0:0:0:0:
230,172,60361,1,8,0:0:0:0:
228,172,60741,1,0,0:0:0:0:
228,172,61121,1,0,0:0:0:0:
228,172,61501,1,8,0:0:0:0:
228,172,61880,1,0,0:0:0:0:
228,172,62070,1,8,0:0:0:0:
386,130,62972,1,8,0:0:0:0:
386,130,63020,1,8,0:0:0:0:
285,149,63589,1,0,0:0:0:0:
285,149,63779,1,12,0:0:0:0:
263,125,63969,1,0,0:0:0:0:
263,125,64159,1,0,0:0:0:0:
260,133,64349,1,8,0:0:0:0:
258,137,64538,1,0,0:0:0:0:
225,170,64728,1,0,0:0:0:0:
225,170,64918,1,8,0:0:0:0:
137,68,65013,1,8,0:0:0:0:
225,170,65108,1,0,0:0:0:0:
225,170,65203,1,0,0:0:0:0:
225,170,65298,1,8,0:0:0:0:
306,141,65488,1,0,0:0:0:0:
306,141,65678,1,0,0:0:0:0:
306,141,65868,1,8,0:0:0:0:
265,154,66247,1,0,0:0:0:0:
382,143,66437,1,8,0:0:0:0:
382,143,66532,1,0,0:0:0:0:
382,143,66627,1,8,0:0:0:0:
382,143,66722,1,0,0:0:0:0:
382,143,66817,1,8,0:0:0:0:
219,129,67007,1,0,0:0:0:0:
219,129,67197,1,0,0:0:0:0:
219,129,67387,1,8,0:0:0:0:
219,129,67576,1,0,0:0:0:0:
219,129,67766,1,0,0:0:0:0:
219,129,67956,1,8,0:0:0:0:
219,129,68146,1,0,0:0:0:0:
219,129,68241,1,0,0:0:0:0:
219,129,68336,1,0,0:0:0:0:
219,129,68526,1,8,0:0:0:0:
302,116,68716,1,8,0:0:0:0:
219,129,68906,1,0,0:0:0:0:
183,113,69001,1,0,0:0:0:0:
219,129,69095,1,8,0:0:0:0:
183,113,69190,1,8,0:0:0:0:
219,129,69285,1,0,0:0:0:0:
219,129,69475,1,8,0:0:0:0:
219,129,69665,1,8,0:0:0:0:
219,129,69855,1,4,0:0:0:0:
211,167,70235,1,0,0:0:0:0:
211,167,70425,1,8,0:0:0:0:
190,177,70614,1,0,0:0:0:0:
190,177,70709,1,0,0:0:0:0:
190,177,70804,1,0,0:0:0:0:
187,171,70899,1,0,0:0:0:0:
180,172,70994,1,8,0:0:0:0:
179,163,71184,1,0,0:0:0:0:
179,163,71374,1,8,0:0:0:0:
179,163,71564,1,0,0:0:0:0:
179,163,71754,1,0,0:0:0:0:
179,163,71944,1,8,0:0:0:0:
179,163,72133,1,0,0:0:0:0:
179,163,72323,1,0,0:0:0:0:
264,174,72418,1,0,0:0:0:0:
179,163,72513,1,8,0:0:0:0:
179,163,72703,1,8,0:0:0:0:
263,174,72893,1,0,0:0:0:0:
252,176,73273,1,0,0:0:0:0:
252,176,73463,1,8,0:0:0:0:
262,91,73652,1,0,0:0:0:0:
251,176,73842,1,0,0:0:0:0:
251,176,74032,1,8,0:0:0:0:
251,176,74222,1,8,0:0:0:0:
251,176,74317,1,8,0:0:0:0:
251,176,74412,1,0,0:0:0:0:
251,176,74602,1,8,0:0:0:0:
246,174,74792,1,0,0:0:0:0:
246,174,74982,1,0,0:0:0:0:
246,174,75171,1,8,0:0:0:0:
246,174,75266,1,8,0:0:0:0:
246,174,75361,1,0,0:0:0:0:
246,174,75456,1,0,0:0:0:0:
246,174,75551,1,8,0:0:0:0:
246,174,75646,1,8,0:0:0:0:
246,174,75741,1,8,0:0:0:0:
246,174,75836,1,8,0:0:0:0:
246,174,75931,1,4,0:0:0:0:
231,129,76311,5,8,0:0:0:0:
217,144,76501,1,0,0:0:0:0:
290,158,76880,1,0,0:0:0:0:
290,158,77070,1,8,0:0:0:0:
290,158,77260,1,8,0:0:0:0:
144,155,77355,1,8,0:0:0:0:
290,158,77450,1,0,0:0:0:0:
133,185,77640,1,0,0:0:0:0:
193,128,77830,1,8,0:0:0:0:
193,128,78020,1,0,0:0:0:0:
193,128,78209,1,8,0:0:0:0:
193,128,78399,1,8,0:0:0:0:
193,128,78589,1,0,0:0:0:0:
193,128,78779,1,8,0:0:0:0:
266,129,78969,1,0,0:0:0:0:
247,129,79349,1,8,0:0:0:0:
241,131,79538,1,0,0:0:0:0:
241,131,79918,1,0,0:0:0:0:
241,131,80108,1,8,0:0:0:0:
241,131,80298,1,0,0:0:0:0:
211,138,80678,1,0,0:0:0:0:
156,161,80773,1,0,0:0:0:0:
211,138,80868,1,8,0:0:0:0:
211,138,81057,1,8,0:0:0:0:
211,138,81247,1,0,0:0:0:0:
211,138,81437,1,0,0:0:0:0:
154,132,81532,1,0,0:0:0:0:
211,138,81627,1,8,0:0:0:0:
115,132,81722,1,8,0:0:0:0:
211,138,81817,1,0,0:0:0:0:
195,116,82007,1,12,0:0:0:0:
251,137,82387,1,8,0:0:0:0:
195,158,82576,1,0,0:0:0:0:
243,164,82766,1,0,0:0:0:0:
230,186,83146,1,0,0:0:0:0:
230,186,83336,1,8,0:0:0:0:
197,139,83526,1,0,0:0:0:0:
197,139,83716,1,0,0:0:0:0:
197,139,83906,1,8,0:0:0:0:
197,139,84095,1,8,0:0:0:0:
197,139,84285,1,0,0:0:0:0:
197,138,84665,1,0,0:0:0:0:
197,138,84855,1,8,0:0:0:0:
197,138,85045,1,0,0:0:0:0:
260,129,85140,1,0,0:0:0:0:
197,138,85235,1,0,0:0:0:0:
229,172,85330,1,0,0:0:0:0:
197,138,85425,1,8,0:0:0:0:
172,116,85614,1,0,0:0:0:0:
181,128,85994,1,0,0:0:0:0:
181,128,86184,1,8,0:0:0:0:
179,122,86564,1,0,0:0:0:0:
179,122,86754,1,0,0:0:0:0:
274,152,86849,1,0,0:0:0:0:
179,122,86944,1,8,0:0:0:0:
162,140,87133,1,8,0:0:0:0:
208,88,87228,1,8,0:0:0:0:
162,140,87323,1,0,0:0:0:0:
162,140,87513,1,0,0:0:0:0:
162,140,87703,1,8,0:0:0:0:
162,140,87893,1,8,0:0:0:0:
185,142,88463,1,8,0:0:0:0:
185,142,88842,1,8,0:0:0:0:
185,142,89222,1,8,0:0:0:0:
185,142,89602,1,4,0:0:0:0:
190,176,89982,1,0,0:0:0:0:
190,176,90361,1,8,0:0:0:0:
190,176,90551,1,0,0:0:0:0:
190,176,90741,1,0,0:0:0:0:
209,145,90931,1,8,0:0:0:0:
190,161,91121,1,0,0:0:0:0:
190,169,91501,1,0,0:0:0:0:
190,169,91690,1,0,0:0:0:0:
190,169,91880,1,8,0:0:0:0:
190,169,92070,1,8,0:0:0:0:
190,169,92260,1,0,0:0:0:0:
193,176,92640,1,0,0:0:0:0:
188,179,93020,1,0,0:0:0:0:
188,179,93209,1,0,0:0:0:0:
188,179,93399,1,8,0:0:0:0:
188,179,93589,1,0,0:0:0:0:
188,179,93779,1,0,0:0:0:0:
188,179,93969,1,8,0:0:0:0:
188,179,94159,1,0,0:0:0:0:
212,149,94538,1,8,0:0:0:0:
212,148,94918,1,8,0:0:0:0:
212,148,95108,1,0,0:0:0:0:
212,148,95298,1,0,0:0:0:0:
197,183,95678,1,0,0:0:0:0:
161,216,96057,1,0,0:0:0:0:
161,216,96437,1,8,0:0:0:0:
161,216,96627,1,0,0:0:0:0:
161,216,96817,1,0,0:0:0:0:
231,180,97007,5,8,0:0:0:0:
225,207,97197,1,0,0:0:0:0:
218,208,97576,1,0,0:0:0:0:
218,208,97766,1,0,0:0:0:0:
218,201,97956,1,8,0:0:0:0:
218,201,98146,1,8,0:0:0:0:
218,201,98336,1,0,0:0:0:0:
218,201,98526,1,8,0:0:0:0:
218,201,98716,1,0,0:0:0:0:
210,205,99095,1,0,0:0:0:0:
210,205,99475,1,8,0:0:0:0:
210,205,99665,1,0,0:0:0:0:
210,205,99855,1,0,0:0:0:0:
210,205,100045,1,8,0:0:0:0:
210,205,100235,1,0,0:0:0:0:
213,187,100614,1,0,0:0:0:0:
214,191,100804,1,8,0:0:0:0:
227,193,100994,1,8,0:0:0:0:
227,193,101374,1,0,0:0:0:0:
218,191,101754,1,0,0:0:0:0:
320,178,102323,1,0,0:0:0:0:
320,177,102893,1,0,0:0:0:0:
257,182,103463,1,0,0:0:0:0:
251,183,104032,1,0,0:0:0:0:
245,221,104792,1,8,0:0:0:0:
245,220,105361,1,8,0:0:0:0:
245,220,105931,1,8,0:0:0:0:
245,220,106501,1,8,0:0:0:0:
245,220,107260,1,8,0:0:0:0:
249,179,107830,1,0,0:0:0:0:
249,177,108399,1,0,0:0:0:0:
249,177,108969,1,0,0:0:0:0:
249,177,109538,1,0,0:0:0:0:
222,135,110108,1,0,0:0:0:0:
249,177,110298,1,8,0:0:0:0:
223,135,110868,1,8,0:0:0:0:
223,135,111437,1,8,0:0:0:0:
223,135,112007,1,8,0:0:0:0:
223,134,112766,1,0,0:0:0:0:
223,134,113906,1,0,0:0:0:0:
223,134,114190,1,8,0:0:0:0:
223,134,114285,1,0,0:0:0:0:
223,134,114475,1,0,0:0:0:0:
223,134,114665,1,0,0:0:0:0:
223,134,114950,1,0,0:0:0:0:
223,134,115045,1,8,0:0:0:0:
223,134,115235,1,0,0:0:0:0:
223,134,115425,1,0,0:0:0:0:
223,134,115614,1,8,0:0:0:0:
223,134,115804,1,0,0:0:0:0:
223,134,115994,1,0,0:0:0:0:
223,134,116184,1,8,0:0:0:0:
223,134,116564,1,0,0:0:0:0:
223,134,116754,1,0,0:0:0:0:
223,134,116944,1,8,0:0:0:0:
199,149,117133,1,0,0:0:0:0:
199,149,117323,1,0,0:0:0:0:
199,149,117513,1,8,0:0:0:0:
199,149,117703,1,0,0:0:0:0:
199,149,117893,1,0,0:0:0:0:
199,149,117988,1,0,0:0:0:0:
199,149,118083,1,8,0:0:0:0:
199,149,118273,1,0,0:0:0:0:
199,149,118368,1,8,0:0:0:0:
199,149,118463,1,0,0:0:0:0:
199,149,118652,1,0,0:0:0:0:
199,149,118842,1,8,0:0:0:0:
196,151,119222,1,0,0:0:0:0:
208,117,119602,1,8,0:0:0:0:
196,151,119792,1,0,0:0:0:0:
196,149,119887,1,0,0:0:0:0:
196,151,119982,1,8,0:0:0:0:
196,149,120266,1,8,0:0:0:0:
196,149,120361,1,0,0:0:0:0:
196,149,120551,1,0,0:0:0:0:
196,149,120741,1,0,0:0:0:0:
256,153,121026,1,0,0:0:0:0:
196,149,121121,1,8,0:0:0:0:
269,138,121311,1,0,0:0:0:0:
269,138,121501,1,0,0:0:0:0:
269,138,121690,1,8,0:0:0:0:
269,138,121880,1,0,0:0:0:0:
269,138,122070,1,8,0:0:0:0:
252,143,122260,1,0,0:0:0:0:
229,96,122545,1,8,0:0:0:0:
179,172,122640,1,0,0:0:0:0:
179,172,122830,1,0,0:0:0:0:
179,172,123020,1,8,0:0:0:0:
179,172,123209,1,0,0:0:0:0:
179,172,123399,1,0,0:0:0:0:
179,172,123589,1,8,0:0:0:0:
179,172,123779,1,0,0:0:0:0:
179,172,124159,1,8,0:0:0:0:
179,172,124349,1,0,0:0:0:0:
179,172,124444,1,0,0:0:0:0:
179,172,124538,1,0,0:0:0:0:
179,172,124728,1,0,0:0:0:0:
179,172,124918,1,0,0:0:0:0:
179,173,125298,1,8,0:0:0:0:
231,124,125488,1,0,0:0:0:0:
179,173,125678,1,8,0:0:0:0:
179,173,125868,1,8,0:0:0:0:
179,173,125963,1,0,0:0:0:0:
179,173,126057,1,0,0:0:0:0:
179,174,126437,1,0,0:0:0:0:
290,152,126817,1,0,0:0:0:0:
225,158,127007,1,8,0:0:0:0:
289,169,127197,1,0,0:0:0:0:
286,193,127387,1,0,0:0:0:0:
286,193,127576,1,8,0:0:0:0:
272,196,127956,1,0,0:0:0:0:
272,181,128336,1,8,0:0:0:0:
259,202,128716,1,0,0:0:0:0:
259,202,129095,1,8,0:0:0:0:
259,202,129475,1,0,0:0:0:0:
259,202,129665,1,0,0:0:0:0:
259,202,129855,1,8,0:0:0:0:
180,94,130045,1,0,0:0:0:0:
259,202,130235,1,8,0:0:0:0:
259,202,130425,1,8,0:0:0:0:
259,202,130614,1,0,0:0:0:0:
259,202,130994,1,8,0:0:0:0:
257,203,131374,1,0,0:0:0:0:
257,202,131754,1,0,0:0:0:0:
257,202,132133,1,8,0:0:0:0:
248,169,132703,1,8,0:0:0:0:
248,169,132893,1,8,0:0:0:0:
245,168,133463,1,8,0:0:0:0:
245,168,133652,1,0,0:0:0:0:
245,168,134222,1,0,0:0:0:0:
245,168,134412,1,8,0:0:0:0:
224,163,134982,1,8,0:0:0:0:
224,163,135171,1,0,0:0:0:0:
272,154,135551,1,0,0:0:0:0:
272,154,136311,1,0,0:0:0:0:
264,154,138209,1,12,0:0:0:0:
325,160,138399,1,0,0:0:0:0:
325,160,138589,1,8,0:0:0:0:
234,190,138779,1,0,0:0:0:0:
234,190,138969,1,0,0:0:0:0:
234,190,139064,1,0,0:0:0:0:
234,190,139159,1,8,0:0:0:0:
234,190,139254,1,8,0:0:0:0:
234,190,139349,1,0,0:0:0:0:
203,106,139538,1,8,0:0:0:0:
188,129,139918,1,0,0:0:0:0:
188,129,140108,1,8,0:0:0:0:
188,129,140298,1,0,0:0:0:0:
188,129,140488,1,0,0:0:0:0:
188,129,140678,1,8,0:0:0:0:
256,111,140773,1,8,0:0:0:0:
188,129,140868,1,0,0:0:0:0:
199,103,140963,1,0,0:0:0:0:
188,129,141057,1,8,0:0:0:0:
203,158,141247,1,0,0:0:0:0:
203,158,141437,1,0,0:0:0:0:
203,158,141627,1,8,0:0:0:0:
271,176,141817,1,0,0:0:0:0:
271,176,141912,1,8,0:0:0:0:
271,176,142007,1,0,0:0:0:0:
271,176,142197,1,0,0:0:0:0:
271,176,142387,1,8,0:0:0:0:
260,183,142576,1,0,0:0:0:0:
240,183,142766,1,0,0:0:0:0:
240,183,143146,1,8,0:0:0:0:
240,183,143336,1,8,0:0:0:0:
240,183,143431,1,8,0:0:0:0:
240,183,143526,1,0,0:0:0:0:
240,183,143716,1,0,0:0:0:0:
240,183,143906,1,8,0:0:0:0:
240,183,144095,1,0,0:0:0:0:
240,183,144285,1,12,0:0:0:0:
206,184,144665,1,8,0:0:0:0:
198,192,144855,1,0,0:0:0:0:
198,192,145045,1,0,0:0:0:0:
198,192,145235,1,8,0:0:0:0:
185,197,145330,1,8,0:0:0:0:
198,192,145425,1,0,0:0:0:0:
198,192,145614,1,8,0:0:0:0:
185,197,145804,1,0,0:0:0:0:
185,197,145994,1,0,0:0:0:0:
254,147,146184,1,8,0:0:0:0:
239,154,146374,1,8,0:0:0:0:
227,98,146564,1,0,0:0:0:0:
213,110,146944,1,0,0:0:0:0:
285,132,147133,1,8,0:0:0:0:
244,153,147323,1,8,0:0:0:0:
214,128,147513,1,0,0:0:0:0:
244,153,147703,1,8,0:0:0:0:
249,92,147798,1,8,0:0:0:0:
249,92,147893,1,8,0:0:0:0:
249,92,147988,1,8,0:0:0:0:
249,92,148083,1,0,0:0:0:0:
242,93,148273,1,0,0:0:0:0:
224,100,148463,1,12,0:0:0:0:
222,101,148842,1,0,0:0:0:0:
222,101,149032,1,0,0:0:0:0:
222,101,149127,1,0,0:0:0:0:
222,101,149222,1,8,0:0:0:0:
222,101,149412,1,0,0:0:0:0:
216,102,149602,1,8,0:0:0:0:
216,102,149697,1,8,0:0:0:0:
216,102,149792,1,0,0:0:0:0:
216,102,149982,1,8,0:0:0:0:
216,102,150076,1,8,0:0:0:0:
216,102,150171,1,8,0:0:0:0:
196,110,150266,1,8,0:0:0:0:
278,112,150361,1,0,0:0:0:0:
263,195,150551,1,0,0:0:0:0:
263,195,150741,1,8,0:0:0:0:
263,195,150931,1,0,0:0:0:0:
263,195,151311,1,0,0:0:0:0:
189,195,151406,1,0,0:0:0:0:
263,195,151501,1,8,0:0:0:0:
263,195,151690,1,8,0:0:0:0:
220,192,151880,1,0,0:0:0:0:
220,192,152070,1,0,0:0:0:0:
220,192,152260,1,8,0:0:0:0:
220,192,152450,1,0,0:0:0:0:
220,192,152545,1,0,0:0:0:0:
220,192,152640,1,0,0:0:0:0:
272,170,152830,1,8,0:0:0:0:
208,102,152925,1,8,0:0:0:0:
272,170,153020,1,0,0:0:0:0:
210,115,153114,1,0,0:0:0:0:
272,170,153209,1,8,0:0:0:0:
233,153,153399,1,8,0:0:0:0:
233,154,153779,1,8,0:0:0:0:
233,154,153969,1,0,0:0:0:0:
125,131,154159,1,0,0:0:0:0:
233,160,154349,1,8,0:0:0:0:
225,173,154538,1,8,0:0:0:0:
220,176,154728,1,0,0:0:0:0:
220,176,155108,1,0,0:0:0:0:
220,176,155203,1,0,0:0:0:0:
220,176,155298,1,8,0:0:0:0:
220,176,155488,1,8,0:0:0:0:
220,176,155678,1,0,0:0:0:0:
185,91,155773,1,0,0:0:0:0:
220,176,155868,1,0,0:0:0:0:
204,126,155963,1,0,0:0:0:0:
220,176,156057,1,8,0:0:0:0:
203,137,156247,1,0,0:0:0:0:
193,153,156437,1,12,0:0:0:0:
176,143,156817,1,8,0:0:0:0:
176,143,157007,1,0,0:0:0:0:
176,143,157197,1,0,0:0:0:0:
216,172,157576,1,8,0:0:0:0:
216,172,157766,1,8,0:0:0:0:
216,172,157956,1,0,0:0:0:0:
216,172,158146,1,0,0:0:0:0:
216,172,158336,1,8,0:0:0:0:
216,172,158431,1,8,0:0:0:0:
216,172,158526,1,0,0:0:0:0:
216,172,158621,1,0,0:0:0:0:
216,172,158716,1,0,0:0:0:0:
265,145,158906,1,0,0:0:0:0:
265,145,159095,1,8,0:0:0:0:
265,145,159285,1,8,0:0:0:0:
222,154,159475,1,0,0:0:0:0:
219,156,159855,1,8,0:0:0:0:
211,161,160045,1,0,0:0:0:0:
198,177,160425,1,0,0:0:0:0:
198,177,160614,1,8,0:0:0:0:
188,184,160994,1,0,0:0:0:0:
188,184,161089,1,0,0:0:0:0:
188,184,161184,1,0,0:0:0:0:
188,184,161279,1,0,0:0:0:0:
188,184,161374,1,8,0:0:0:0:
188,184,161564,1,0,0:0:0:0:
188,184,161754,1,8,0:0:0:0:
188,184,161849,1,8,0:0:0:0:
188,184,161944,1,0,0:0:0:0:
188,184,162133,1,8,0:0:0:0:
188,184,162323,1,8,0:0:0:0:
158,190,162893,1,8,0:0:0:0:
158,190,163273,1,8,0:0:0:0:
158,190,163652,1,8,0:0:0:0:
158,190,164032,1,12,0:0:0:0:
300,124,164222,1,8,0:0:0:0:
188,174,164602,1,0,0:0:0:0:
222,143,164792,1,8,0:0:0:0:
217,158,164982,1,0,0:0:0:0:
217,158,165171,1,8,0:0:0:0:
217,158,165361,1,8,0:0:0:0:
217,158,165551,1,0,0:0:0:0:
216,162,165931,1,8,0:0:0:0:
216,162,166121,1,0,0:0:0:0:
216,162,166216,1,0,0:0:0:0:
216,162,166311,1,8,0:0:0:0:
216,162,166501,1,8,0:0:0:0:
216,162,166690,1,0,0:0:0:0:
216,162,166880,1,0,0:0:0:0:
216,162,167070,1,8,0:0:0:0:
216,162,167260,1,8,0:0:0:0:
215,163,167640,1,0,0:0:0:0:
215,163,167735,1,0,0:0:0:0:
215,163,167830,1,8,0:0:0:0:
215,163,168020,1,8,0:0:0:0:
215,163,168209,1,0,0:0:0:0:
215,163,168399,1,8,0:0:0:0:
118,165,168779,1,0,0:0:0:0:
118,165,168969,1,8,0:0:0:0:
118,165,169064,1,8,0:0:0:0:
118,165,169159,1,0,0:0:0:0:
118,165,169254,1,0,0:0:0:0:
118,165,169349,1,8,0:0:0:0:
118,165,169538,1,0,0:0:0:0:
118,164,169918,1,0,0:0:0:0:
118,164,170108,1,12,0:0:0:0:
118,164,170298,1,8,0:0:0:0:
207,133,170678,1,0,0:0:0:0:
207,133,170868,1,8,0:0:0:0:
207,133,171057,1,8,0:0:0:0:
207,133,171247,1,0,0:0:0:0:
207,133,171437,1,8,0:0:0:0:
207,132,171817,1,0,0:0:0:0:
207,132,172007,1,8,0:0:0:0:
207,132,172197,1,0,0:0:0:0:
207,132,172387,1,8,0:0:0:0:
207,132,172576,1,8,0:0:0:0:
160,158,172766,1,0,0:0:0:0:
160,158,172861,1,0,0:0:0:0:
160,158,172956,1,0,0:0:0:0:
160,158,173051,1,0,0:0:0:0:
160,158,173146,1,8,0:0:0:0:
160,158,173336,1,8,0:0:0:0:
160,158,173526,1,0,0:0:0:0:
160,158,173716,1,8,0:0:0:0:
160,158,173906,1,8,0:0:0:0:
160,158,174095,1,0,0:0:0:0:
160,158,174190,1,0,0:0:0:0:
160,158,174285,1,0,0:0:0:0:
160,158,174475,1,8,0:0:0:0:
160,158,174665,1,0,0:0:0:0:
160,158,174855,1,0,0:0:0:0:
160,158,175045,1,8,0:0:0:0:
160,158,175235,1,0,0:0:0:0:
277,128,175330,1,0,0:0:0:0:
277,128,175425,1,8,0:0:0:0:
170,140,175614,1,8,0:0:0:0:
170,140,175804,1,0,0:0:0:0:
170,140,175994,1,0,0:0:0:0:
277,149,176184,1,12,0:0:0:0:
277,149,176374,1,8,0:0:0:0:
225,181,176754,1,0,0:0:0:0:
247,156,176944,1,8,0:0:0:0:
249,154,177323,1,0,0:0:0:0:
249,154,177513,1,8,0:0:0:0:
210,203,177703,1,0,0:0:0:0:
210,203,177798,1,0,0:0:0:0:
210,203,177893,1,0,0:0:0:0:
210,203,177988,1,0,0:0:0:0:
210,203,178083,1,8,0:0:0:0:
210,203,178273,1,0,0:0:0:0:
210,203,178463,1,8,0:0:0:0:
210,203,178652,1,0,0:0:0:0:
207,200,179032,1,0,0:0:0:0:
198,137,179222,1,8,0:0:0:0:
198,137,179412,1,8,0:0:0:0:
286,146,179602,1,0,0:0:0:0:
286,146,179792,1,0,0:0:0:0:
286,146,179887,1,0,0:0:0:0:
286,146,179982,1,8,0:0:0:0:
280,142,180171,1,0,0:0:0:0:
273,138,180551,1,8,0:0:0:0:
273,138,180741,1,0,0:0:0:0:
273,138,180931,1,8,0:0:0:0:
273,138,181026,1,8,0:0:0:0:
273,138,181121,1,8,0:0:0:0:
273,138,181311,1,0,0:0:0:0:
273,138,181501,1,8,0:0:0:0:
273,138,181690,1,0,0:0:0:0:
273,138,181785,1,0,0:0:0:0:
273,138,181880,1,0,0:0:0:0:
273,138,182070,1,0,0:0:0:0:
273,138,182260,1,12,0:0:0:0:
273,138,182450,1,8,0:0:0:0:
191,103,182830,1,0,0:0:0:0:
204,131,183020,1,8,0:0:0:0:
204,131,183209,1,0,0:0:0:0:
204,131,183399,1,0,0:0:0:0:
204,131,183589,1,8,0:0:0:0:
321,126,183684,1,8,0:0:0:0:
321,126,183779,1,0,0:0:0:0:
264,154,183969,1,0,0:0:0:0:
264,154,184159,1,8,0:0:0:0:
290,154,184538,1,8,0:0:0:0:
290,154,184728,1,8,0:0:0:0:
290,154,184918,1,0,0:0:0:0:
234,126,185013,1,0,0:0:0:0:
234,126,185108,1,0,0:0:0:0:
234,126,185203,1,0,0:0:0:0:
234,126,185298,1,8,0:0:0:0:
234,126,185488,1,8,0:0:0:0:
200,137,185678,1,0,0:0:0:0:
200,137,185868,1,0,0:0:0:0:
200,137,186057,1,8,0:0:0:0:
200,137,186247,1,0,0:0:0:0:
200,137,186437,1,8,0:0:0:0:
200,137,186627,1,8,0:0:0:0:
200,137,186817,1,0,0:0:0:0:
282,44,187197,1,8,0:0:0:0:
257,155,187387,1,0,0:0:0:0:
200,135,187576,1,0,0:0:0:0:
200,135,187766,1,8,0:0:0:0:
254,153,188336,1,0,0:0:0:0:
228,175,190614,1,0,0:0:0:0:
228,175,191374,1,0,0:0:0:0:
225,198,193652,1,0,0:0:0:0:
225,198,194412,1,0,0:0:0:0:
225,198,194982,1,8,0:0:0:0:
225,198,195551,1,8,0:0:0:0:
225,198,195741,1,8,0:0:0:0:
225,198,196311,1,8,0:0:0:0:
225,198,196690,1,0,0:0:0:0:
225,198,197450,1,0,0:0:0:0:
225,198,198020,1,8,0:0:0:0:
225,197,198589,1,8,0:0:0:0:
225,197,198779,1,8,0:0:0:0:
225,197,200298,1,0,0:0:0:0:
195,139,200488,1,12,0:0:0:0:
195,139,200678,1,0,0:0:0:0:
189,132,200868,1,0,0:0:0:0:
172,110,201057,1,8,0:0:0:0:
256,104,201152,1,8,0:0:0:0:
256,104,201247,1,0,0:0:0:0:
256,104,201342,1,0,0:0:0:0:
256,104,201437,1,0,0:0:0:0:
256,104,201627,1,8,0:0:0:0:
148,155,201817,1,0,0:0:0:0:
196,108,201912,1,0,0:0:0:0:
196,108,202007,1,8,0:0:0:0:
172,138,202197,1,0,0:0:0:0:
172,138,202387,1,0,0:0:0:0:
172,138,202576,1,8,0:0:0:0:
172,138,202766,1,0,0:0:0:0:
172,138,202956,1,0,0:0:0:0:
172,138,203146,1,8,0:0:0:0:
284,112,203241,1,0,0:0:0:0:
172,138,203336,1,8,0:0:0:0:
272,103,203431,1,0,0:0:0:0:
172,138,203526,1,8,0:0:0:0:
206,121,203716,1,0,0:0:0:0:
206,121,203906,1,0,0:0:0:0:
206,121,204095,1,8,0:0:0:0:
201,120,204475,1,0,0:0:0:0:
201,120,204665,1,8,0:0:0:0:
201,120,204855,1,8,0:0:0:0:
155,75,204950,1,8,0:0:0:0:
201,120,205045,1,0,0:0:0:0:
201,120,205235,1,8,0:0:0:0:
192,115,205425,1,0,0:0:0:0:
192,115,205614,1,0,0:0:0:0:
192,115,205804,1,8,0:0:0:0:
192,115,205899,1,8,0:0:0:0:
192,115,205994,1,0,0:0:0:0:
192,115,206089,1,0,0:0:0:0:
192,115,206184,1,8,0:0:0:0:
192,115,206374,1,8,0:0:0:0:
192,115,206564,1,4,0:0:0:0:
236,118,206944,1,0,0:0:0:0:
236,118,207038,1,0,0:0:0:0:
236,118,207133,1,8,0:0:0:0:
236,118,207228,1,0,0:0:0:0:
236,118,207323,1,8,0:0:0:0:
236,118,207513,1,0,0:0:0:0:
236,118,207703,1,8,0:0:0:0:
236,118,207893,1,8,0:0:0:0:
189,101,208083,1,0,0:0:0:0:
242,89,208463,1,0,0:0:0:0:
219,127,208652,1,8,0:0:0:0:
262,123,208842,1,0,0:0:0:0:
262,123,209032,1,0,0:0:0:0:
262,123,209127,1,0,0:0:0:0:
262,123,209222,1,8,0:0:0:0:
262,123,209412,1,8,0:0:0:0:
240,116,209602,1,0,0:0:0:0:
240,116,209982,1,0,0:0:0:0:
240,116,210171,1,8,0:0:0:0:
199,84,210361,1,0,0:0:0:0:
199,84,210456,1,0,0:0:0:0:
199,84,210551,1,0,0:0:0:0:
199,84,210646,1,0,0:0:0:0:
199,84,210741,1,8,0:0:0:0:
199,84,210931,1,0,0:0:0:0:
199,84,211121,1,8,0:0:0:0:
199,84,211216,1,8,0:0:0:0:
199,84,211311,1,8,0:0:0:0:
199,84,211406,1,8,0:0:0:0:
199,84,211501,1,0,0:0:0:0:
199,84,211690,1,0,0:0:0:0:
199,84,211880,1,8,0:0:0:0:
199,84,211975,1,8,0:0:0:0:
199,84,212070,1,0,0:0:0:0:
199,84,212165,1,0,0:0:0:0:
199,84,212260,1,8,0:0:0:0:
293,80,212355,1,8,0:0:0:0:
293,80,212450,1,8,0:0:0:0:
293,80,212545,1,8,0:0:0:0:
288,77,212640,1,4,0:0:0:0:
238,191,213020,1,8,0:0:0:0:
226,225,213209,1,0,0:0:0:0:
222,226,213589,1,0,0:0:0:0:
222,226,213684,1,0,0:0:0:0:
222,226,213779,1,0,0:0:0:0:
222,226,213969,1,8,0:0:0:0:
222,226,214159,1,0,0:0:0:0:
222,226,214349,1,0,0:0:0:0:
222,226,214538,1,8,0:0:0:0:
222,226,214728,1,0,0:0:0:0:
200,202,214823,1,0,0:0:0:0:
222,226,214918,1,8,0:0:0:0:
222,226,215108,1,8,0:0:0:0:
222,226,215298,1,0,0:0:0:0:
222,226,215488,1,8,0:0:0:0:
222,226,215678,1,0,0:0:0:0:
218,216,216057,1,8,0:0:0:0:
218,216,216247,1,8,0:0:0:0:
218,216,216437,1,0,0:0:0:0:
252,160,216627,1,0,0:0:0:0:
248,156,216817,1,8,0:0:0:0:
172,149,217007,1,0,0:0:0:0:
164,164,217387,1,0,0:0:0:0:
164,164,217576,1,8,0:0:0:0:
164,164,217766,1,8,0:0:0:0:
164,164,217956,1,0,0:0:0:0:
164,164,218051,1,0,0:0:0:0:
164,164,218146,1,0,0:0:0:0:
164,164,218241,1,0,0:0:0:0:
164,164,218336,1,8,0:0:0:0:
164,164,218526,1,0,0:0:0:0:
164,164,218716,1,4,0:0:0:0:
166,159,219095,1,8,0:0:0:0:
323,179,219285,1,0,0:0:0:0:
323,179,219475,1,0,0:0:0:0:
267,147,219665,1,8,0:0:0:0:
267,147,219855,1,0,0:0:0:0:
267,147,219950,1,0,0:0:0:0:
267,147,220045,1,8,0:0:0:0:
267,147,220140,1,8,0:0:0:0:
267,147,220235,1,0,0:0:0:0:
271,149,220425,1,0,0:0:0:0:
271,149,220614,1,8,0:0:0:0:
271,149,220804,1,0,0:0:0:0:
271,149,220994,1,8,0:0:0:0:
271,147,221374,1,0,0:0:0:0:
271,147,221564,1,8,0:0:0:0:
271,147,221754,1,0,0:0:0:0:
271,147,222133,1,8,0:0:0:0:
271,147,222323,1,0,0:0:0:0:
272,144,222703,1,0,0:0:0:0:
272,144,222893,1,8,0:0:0:0:
272,144,223083,1,8,0:0:0:0:
267,156,223178,1,8,0:0:0:0:
267,156,223273,1,0,0:0:0:0:
267,156,223463,1,0,0:0:0:0:
267,156,223652,1,8,0:0:0:0:
267,156,223842,1,0,0:0:0:0:
267,156,224032,1,8,0:0:0:0:
267,156,224127,1,8,0:0:0:0:
267,156,224222,1,0,0:0:0:0:
267,156,224412,1,8,0:0:0:0:
267,156,224602,1,8,0:0:0:0:
337,139,225171,1,8,0:0:0:0:
336,138,225551,1,8,0:0:0:0:
330,140,225931,1,8,0:0:0:0:
256,159,226311,1,12,0:0:0:0:
260,148,226501,1,8,0:0:0:0:
239,187,226880,1,0,0:0:0:0:
239,187,227070,1,8,0:0:0:0:
164,131,227260,1,0,0:0:0:0:
164,131,227355,1,0,0:0:0:0:
166,143,227450,1,0,0:0:0:0:
166,143,227640,1,8,0:0:0:0:
158,131,227830,1,0,0:0:0:0:
163,152,228209,1,8,0:0:0:0:
163,152,228399,1,0,0:0:0:0:
163,152,228494,1,0,0:0:0:0:
163,152,228589,1,8,0:0:0:0:
216,146,228779,1,8,0:0:0:0:
216,146,228969,1,0,0:0:0:0:
216,146,229159,1,0,0:0:0:0:
216,146,229349,1,8,0:0:0:0:
216,146,229538,1,8,0:0:0:0:
216,145,229918,1,0,0:0:0:0:
216,145,230108,1,8,0:0:0:0:
216,145,230298,1,8,0:0:0:0:
216,145,230488,1,0,0:0:0:0:
216,145,230678,1,8,0:0:0:0:
218,143,231057,1,0,0:0:0:0:
218,143,231247,1,8,0:0:0:0:
218,143,231342,1,8,0:0:0:0:
218,143,231437,1,0,0:0:0:0:
218,143,231532,1,0,0:0:0:0:
218,143,231627,1,8,0:0:0:0:
218,143,231817,1,0,0:0:0:0:
218,143,232197,1,0,0:0:0:0:
218,143,232387,1,12,0:0:0:0:
218,143,232576,1,8,0:0:0:0:
218,143,232956,1,0,0:0:0:0:
218,143,233051,1,0,0:0:0:0:
218,143,233146,1,8,0:0:0:0:
209,151,233336,1,0,0:0:0:0:
209,151,233526,1,8,0:0:0:0:
209,151,233716,1,8,0:0:0:0:
251,97,233811,1,8,0:0:0:0:
209,151,233906,1,0,0:0:0:0:
209,151,234095,1,0,0:0:0:0:
209,151,234285,1,8,0:0:0:0:
209,151,234475,1,0,0:0:0:0:
178,105,234570,1,0,0:0:0:0:
209,151,234665,1,8,0:0:0:0:
209,151,234855,1,0,0:0:0:0:
227,147,235235,1,0,0:0:0:0:
218,140,235425,1,8,0:0:0:0:
218,140,235614,1,8,0:0:0:0:
218,140,235804,1,0,0:0:0:0:
218,140,235899,1,0,0:0:0:0:
218,140,235994,1,0,0:0:0:0:
218,140,236089,1,0,0:0:0:0:
218,140,236184,1,8,0:0:0:0:
166,120,236374,1,0,0:0:0:0:
166,120,236564,1,0,0:0:0:0:
166,120,236754,1,8,0:0:0:0:
167,120,237133,1,0,0:0:0:0:
167,125,237323,1,8,0:0:0:0:
167,125,237513,1,0,0:0:0:0:
167,125,237608,1,8,0:0:0:0:
167,125,237703,1,0,0:0:0:0:
167,125,237893,1,0,0:0:0:0:
167,125,238083,1,8,0:0:0:0:
167,125,238273,1,0,0:0:0:0:
167,125,238463,1,12,0:0:0:0:
167,125,238652,1,8,0:0:0:0:
164,128,239032,1,0,0:0:0:0:
164,128,239222,1,8,0:0:0:0:
181,51,239317,1,8,0:0:0:0:
178,138,239412,1,8,0:0:0:0:
178,138,239507,1,8,0:0:0:0:
178,138,239602,1,0,0:0:0:0:
178,138,239792,1,8,0:0:0:0:
164,108,239982,1,0,0:0:0:0:
164,108,240076,1,0,0:0:0:0:
164,108,240171,1,0,0:0:0:0:
164,108,240266,1,0,0:0:0:0:
164,108,240361,1,8,0:0:0:0:
167,133,240551,1,0,0:0:0:0:
167,133,240741,1,8,0:0:0:0:
167,133,240931,1,0,0:0:0:0:
167,132,241311,1,0,0:0:0:0:
226,138,241406,1,0,0:0:0:0:
226,138,241501,1,8,0:0:0:0:
226,138,241690,1,8,0:0:0:0:
177,103,241880,1,0,0:0:0:0:
177,103,242070,1,8,0:0:0:0:
177,103,242260,1,8,0:0:0:0:
186,130,242450,1,0,0:0:0:0:
184,130,242830,1,8,0:0:0:0:
184,130,242925,1,8,0:0:0:0:
184,130,243020,1,0,0:0:0:0:
184,130,243209,1,0,0:0:0:0:
184,130,243304,1,0,0:0:0:0:
184,130,243399,1,8,0:0:0:0:
184,130,243589,1,0,0:0:0:0:
184,130,243779,1,8,0:0:0:0:
184,130,243969,1,8,0:0:0:0:
184,130,244159,1,0,0:0:0:0:
184,130,244349,1,0,0:0:0:0:
184,130,244538,1,12,0:0:0:0:
184,130,244728,1,8,0:0:0:0:
233,174,245108,1,0,0:0:0:0:
233,174,245298,1,8,0:0:0:0:
233,174,245488,1,0,0:0:0:0:
233,174,245583,1,0,0:0:0:0:
233,174,245678,1,0,0:0:0:0:
233,174,245868,1,8,0:0:0:0:
233,174,246247,1,0,0:0:0:0:
233,174,246437,1,8,0:0:0:0:
233,174,246627,1,0,0:0:0:0:
233,174,246722,1,0,0:0:0:0:
233,174,246817,1,8,0:0:0:0:
233,174,247007,1,0,0:0:0:0:
285,114,247102,1,0,0:0:0:0:
233,174,247197,1,0,0:0:0:0:
270,166,247387,1,0,0:0:0:0:
270,166,247576,1,8,0:0:0:0:
264,158,247766,1,8,0:0:0:0:
245,142,248146,1,0,0:0:0:0:
223,130,248336,1,8,0:0:0:0:
223,130,248716,1,0,0:0:0:0:
223,130,248906,1,8,0:0:0:0:
223,130,249285,1,0,0:0:0:0:
263,145,249665,1,0,0:0:0:0:
201,137,249855,1,8,0:0:0:0:
201,137,250045,1,8,0:0:0:0:
201,137,250235,1,0,0:0:0:0:
172,121,250614,1,4,0:0:0:0:
231,151,250994,1,0,0:0:0:0:
231,151,251184,1,0,0:0:0:0:
231,151,251374,1,8,0:0:0:0:
231,151,251754,1,0,0:0:0:0:
231,151,252133,1,8,0:0:0:0:
231,151,252513,1,8,0:0:0:0:
231,151,252703,1,0,0:0:0:0:
231,151,253083,1,8,0:0:0:0:
231,151,253463,1,0,0:0:0:0:
286,134,253652,1,0,0:0:0:0:
401,158,254032,1,0,0:0:0:0:
401,158,254222,1,8,0:0:0:0:
296,121,254602,1,8,0:0:0:0:
296,121,254792,1,0,0:0:0:0:
238,124,255171,1,0,0:0:0:0:
308,140,255551,1,8,0:0:0:0:
269,127,255931,1,0,0:0:0:0:
269,127,256121,1,8,0:0:0:0:
269,127,256311,1,0,0:0:0:0:
203,86,256690,1,0,0:0:0:0:
282,174,257070,1,0,0:0:0:0:
282,174,257260,1,0,0:0:0:0:
282,174,257450,1,8,0:0:0:0:
276,172,257830,1,0,0:0:0:0:
276,172,258589,1,0,0:0:0:0:
276,172,258779,1,0,0:0:0:0:
276,172,258969,1,8,0:0:0:0:
276,172,259159,1,8,0:0:0:0:
273,174,259728,1,0,0:0:0:0:
273,174,260108,1,0,0:0:0:0:
273,174,260488,1,0,0:0:0:0:
273,174,260678,1,8,0:0:0:0:
273,174,261057,1,8,0:0:0:0:
273,174,261437,1,0,0:0:0:0:
272,174,261817,1,8,0:0:0:0:
279,174,262197,1,0,0:0:0:0:
279,174,262387,1,8,0:0:0:0:
279,174,262576,1,8,0:0:0:0:
279,174,262766,1,4,0:0:0:0:
283,246,263146,1,0,0:0:0:0:
294,194,263526,1,8,0:0:0:0:
293,195,264285,1,0,0:0:0:0:
293,195,264665,1,8,0:0:0:0:
293,195,264855,1,0,0:0:0:0:
293,195,265235,1,0,0:0:0:0:
293,195,265614,1,0,0:0:0:0:
328,202,266184,1,8,0:0:0:0:
328,202,266564,1,0,0:0:0:0:
328,202,266754,1,8,0:0:0:0:
328,202,267133,1,0,0:0:0:0:
38,21,267513,1,0,0:0:0:0:
263,215,267893,1,0,0:0:0:0:
261,214,268273,1,8,0:0:0:0:
257,213,268652,1,8,0:0:0:0:
254,211,269412,1,0,0:0:0:0:
219,178,270741,1,8,0:0:0:0:
219,178,270931,1,0,0:0:0:0:
219,177,271311,1,8,0:0:0:0:
219,178,271690,1,8,0:0:0:0:
273,150,272450,1,0,0:0:0:0:
210,196,273020,1,8,0:0:0:0:
210,196,273399,1,0,0:0:0:0:
226,152,273969,1,0,0:0:0:0:
302,185,274538,1,0,0:0:0:0:
340,168,274728,1,8,0:0:0:0:
