osu file format v14

[General]
AudioFilename: audio.mp3
AudioLeadIn: 0
PreviewTime: 26064
Countdown: 0
SampleSet: Soft
StackLeniency: 0.2
Mode: 0
LetterboxInBreaks: 0
WidescreenStoryboard: 0

[Editor]
Bookmarks: 50858
DistanceSpacing: 1.5
BeatDivisor: 8
GridSize: 4
TimelineZoom: 1.493855

[Metadata]
Title:Thrones (Crystal Skies Remix)
TitleUnicode:Thrones (Crystal Skies Remix)
Artist:Satellite Empire
ArtistUnicode:Satellite Empire
Creator:FoxyGrandpa
Version:Valkyrie
Source:
Tags:Melodic Dubstep New Dawn Collective VINXIS Mishima Yurara CraEZy KKipalt Lewski
BeatmapID:1528303
BeatmapSetID:712799

[Difficulty]
HPDrainRate:6
CircleSize:4.3
OverallDifficulty:8.5
ApproachRate:9.3
SliderMultiplier:2.6
SliderTickRate:1

[Events]
//Background and Video events
0,0,"29688826_p0.jpg",0,0
//Break Periods
2,51058,58775
//Storyboard Layer 0 (Background)
//Storyboard Layer 1 (Fail)
//Storyboard Layer 2 (Pass)
//Storyboard Layer 3 (Foreground)
//Storyboard Sound Samples

[TimingPoints]
5682,705.882352941176,4,2,1,40,1,0
16887,-100,4,2,5,5,0,0
16976,-100,4,2,1,50,0,0
28270,-100,4,2,1,60,0,0
59329,-200,4,2,1,50,0,0
62152,-83.3333333333333,4,2,1,65,0,0
70623,-100,4,2,1,45,0,0
70711,-100,4,2,5,5,0,0
70799,-80,4,2,1,50,0,0
70887,-80,4,2,5,5,0,0
70976,-66.6666666666667,4,2,1,55,0,0
71064,-66.6666666666667,4,2,5,5,0,0
71152,-57.1428571428571,4,2,1,60,0,0
71240,-57.1428571428571,4,2,5,5,0,0
71329,-50,4,2,1,65,0,0
71417,-50,4,2,5,5,0,0
71505,-44.4444444444445,4,2,1,70,0,0
71593,-44.4444444444445,4,2,5,5,0,0
71681,-40,4,2,1,75,0,0
71770,-40,4,2,5,5,0,0
71858,-36.3636363636364,4,2,1,80,0,0
71946,-36.3636363636364,4,2,5,5,0,0
72034,-33.3333333333333,4,2,1,90,0,0
72123,-33.3333333333333,4,2,5,5,0,0
73446,-400,4,2,1,70,0,0
74064,-400,4,2,5,5,0,0
74152,-25,4,2,1,75,0,1
76270,-400,4,2,1,60,0,0
76799,-400,4,2,5,5,0,0
76976,-25,4,2,1,75,0,1
79093,-400,4,2,1,60,0,0
79711,-400,4,2,5,5,0,0
79799,-25,4,2,1,75,0,1
81917,-400,4,2,1,60,0,0
82446,-400,4,2,5,5,0,0
82623,-25,4,2,1,75,0,1
84740,-400,4,2,1,60,0,0
85358,-400,4,2,5,5,0,0
85446,-25,4,2,1,75,0,1
87564,-400,4,2,1,60,0,0
88093,-400,4,2,5,5,0,0
88270,-25,4,2,1,75,0,1
90387,-400,4,2,1,60,0,0
91005,-400,4,2,5,5,0,0
91093,-25,4,2,1,75,0,1
93211,-400,4,2,1,60,0,0
93740,-400,4,2,5,5,0,0
93917,-25,4,2,1,75,0,1
96034,-200,4,2,1,50,0,0
96387,-200,4,2,1,65,0,0
96740,-20,4,2,1,80,0,1
97270,-25,4,2,1,80,0,1
97799,-33.3333333333333,4,2,1,80,0,1
98152,-50,4,2,1,80,0,1
98329,-33.3333333333333,4,2,1,80,0,1
98505,-25,4,2,1,80,0,1
98681,-20,4,2,1,80,0,1
98858,-200,4,2,1,60,0,0
99387,-200,4,2,5,5,0,0
99564,-50,4,2,1,80,0,1
100093,-33.3333333333333,4,2,1,80,0,1
100623,-25,4,2,1,80,0,1
100976,-20,4,2,1,80,0,1
101152,-25,4,2,1,80,0,1
101329,-33.3333333333333,4,2,1,80,0,1
101505,-50,4,2,1,80,0,1
101681,-200,4,2,1,60,0,0
102299,-200,4,2,5,5,0,0
102387,-20,4,2,1,80,0,1
102917,-25,4,2,1,80,0,1
103446,-33.3333333333333,4,2,1,80,0,1
103799,-100,4,2,1,80,0,1
103976,-100,4,2,1,70,0,0
104152,-66.6666666666667,4,2,1,70,0,0
104329,-50,4,2,1,70,0,0
104505,-200,4,2,1,60,0,0
105034,-200,4,2,5,5,0,0
105211,-50,4,2,1,80,0,1
105740,-33.3333333333333,4,2,1,80,0,1
106270,-25,4,2,1,80,0,1
106623,-20,4,2,1,80,0,1
106799,-25,4,2,1,80,0,1
106976,-33.3333333333333,4,2,1,80,0,1
107152,-50,4,2,1,80,0,1
107329,-200,4,2,1,60,0,0
108034,-20,4,2,1,80,0,1
108564,-25,4,2,1,80,0,1
109093,-33.3333333333333,4,2,1,80,0,1
109446,-50,4,2,1,80,0,1
109711,-50,4,2,5,5,0,1
109799,-100,4,2,1,80,0,1
110064,-100,4,2,5,5,0,1
110152,-200,4,2,1,60,0,0
110681,-200,4,2,5,5,0,0
110858,-50,4,2,1,80,0,1
111387,-33.3333333333333,4,2,1,80,0,1
111917,-25,4,2,1,80,0,1
112270,-20,4,2,1,80,0,1
112446,-25,4,2,1,80,0,1
112623,-33.3333333333333,4,2,1,80,0,1
112799,-50,4,2,1,80,0,1
112976,-200,4,2,1,60,0,0
113593,-200,4,2,5,5,0,0
113681,-20,4,2,1,80,0,1
114211,-25,4,2,1,80,0,1
114740,-33.3333333333333,4,2,1,80,0,1
115093,-50,4,2,1,80,0,1
115270,-66.6666666666667,4,2,1,80,0,1
115446,-50,4,2,1,80,0,1
115623,-100,4,2,1,80,0,1
115799,-200,4,2,1,60,0,0
116329,-200,4,2,5,5,0,0
116505,-50,4,2,1,80,0,1
117034,-33.3333333333333,4,2,1,80,0,1
117564,-25,4,2,1,80,0,1
117917,-100,4,2,1,60,0,0

[Colours]
Combo1 : 128,128,192
Combo2 : 111,255,255
Combo3 : 192,192,192
Combo4 : 193,255,255

[HitObjects]
256,192,3564,12,0,5682,3:0:0:0:
165,259,6387,6,0,P|162:221|172:187,2,65,2|2|2,0:0|0:0|0:0,0:0:0:0:
50,314,7093,2,0,B|120:305|140:363|140:363|187:323|247:364,2,227.5,2|2|2,0:0|0:0|0:0,0:0:0:0:
168,195,9211,6,0,P|171:233|161:267,2,65,2|2|2,0:0|0:0|0:0,0:0:0:0:
271,147,9917,2,0,B|208:148|188:91|188:91|134:57|71:100,1,227.5,2|2,0:0|0:0,0:0:0:0:
317,85,11064,1,2,0:0:0:0:
317,85,12475,5,2,0:0:0:0:
317,85,12652,1,2,0:0:0:0:
317,85,12829,2,0,P|308:148|330:209,1,130,2|2,0:0|0:0,0:0:0:0:
331,210,13358,2,0,P|232:202|146:252,1,195,2|2,0:0|0:0,0:0:0:0:
150,247,14240,5,0,0:0:0:0:
150,247,14858,1,2,0:0:0:0:
51,288,15211,6,0,B|14:304|-17:267|-17:267|24:234|24:234|84:268|157:244,1,260,2|2,0:0|0:0,0:0:0:0:
280,269,16270,2,0,P|355:221|268:203,1,227.5,2|0,0:0|0:0,0:0:0:0:
267,203,16976,6,0,P|361:161|265:123,1,260,2|0,0:0|0:0,0:0:0:0:
266,121,18123,6,0,P|267:91|302:56,1,65,2|2,0:0|0:0,0:0:0:0:
381,25,18475,2,0,B|424:45|437:97|437:97|405:149|406:206,2,195,2|2|2,0:0|0:0|0:0,0:0:0:0:
266,120,19887,5,2,0:0:0:0:
266,120,20858,6,0,P|265:90|230:55,1,65,2|2,0:0|0:0,0:0:0:0:
131,25,21211,2,0,B|88:45|75:97|75:97|107:149|106:206,2,195,2|2|2,0:0|0:0|0:0,0:0:0:0:
294,154,22623,6,0,B|266:97|313:32|313:32|430:150|315:282|315:282|195:216|207:72|207:72|148:193|256:259|222:352|222:352|198:309|158:292,1,1040,2|0,0:0|0:0,0:0:0:0:
256,192,26152,12,0,28005,0:0:0:0:
189,130,28270,6,0,P|176:162|178:202,2,65,2|0|0,3:0|0:0|0:0,0:0:0:0:
227,293,28799,1,2,0:0:0:0:
227,293,28976,2,0,P|239:263|240:231,1,65,10|0,0:3|0:0,0:0:0:0:
175,192,29329,1,2,0:0:0:0:
311,308,29505,1,0,0:0:0:0:
253,148,29681,6,0,L|266:78,1,65,0|0,3:0|0:0,0:0:0:0:
363,232,30034,2,0,L|376:162,1,65,2|0,0:0|0:0,0:0:0:0:
365,38,30387,5,10,0:3:0:0:
451,217,30564,1,2,0:0:0:0:
484,58,30740,1,2,0:0:0:0:
411,105,30917,1,2,0:0:0:0:
451,217,31093,6,0,P|445:248|428:276,2,65,0|0|0,3:0|0:0|0:0,0:0:0:0:
381,368,31623,1,2,0:0:0:0:
287,365,31799,2,0,P|291:333|309:305,1,65,10|0,0:3|0:3,0:3:0:0:
363,232,32152,1,2,0:0:0:0:
195,364,32329,1,0,0:0:0:0:
147,190,32505,6,0,L|75:220,1,65,2|0,3:2|0:0,0:0:0:0:
167,64,32858,2,0,L|95:94,1,65,2|0,0:0|0:0,0:0:0:0:
16,126,33211,5,8,0:3:0:0:
147,190,33387,1,2,0:0:0:0:
16,254,33564,1,2,0:0:0:0:
103,292,33740,1,2,0:0:0:0:
280,273,33917,6,0,P|316:245|348:242,2,65,0|0|0,3:0|0:0|0:0,0:0:0:0:
349,326,34446,1,2,0:0:0:0:
319,156,34623,2,0,L|304:92,1,65,10|0,3:0|0:0,0:0:0:0:
238,177,34976,1,2,0:0:0:0:
400,135,35152,1,0,3:0:0:0:
283,16,35329,6,0,P|233:39|220:57,1,65,2|0,3:0|0:0,0:0:0:0:
93,96,35681,2,0,P|143:119|156:137,1,65,2|0,0:0|0:0,0:0:0:0:
192,275,36034,5,8,0:3:0:0:
148,125,36211,1,2,0:0:0:0:
182,292,36387,1,2,0:0:0:0:
238,177,36564,1,2,0:0:0:0:
87,214,36740,6,0,L|25:231,2,65,0|0|0,3:0|0:0|0:0,0:0:0:0:
182,292,37270,1,2,0:0:0:0:
242,112,37446,2,0,P|243:144|237:176,1,65,10|0,3:0|0:0,0:0:0:0:
148,125,37799,1,2,0:0:0:0:
182,292,37976,1,8,0:3:0:0:
320,186,38152,5,2,0:0:0:0:
87,214,38329,2,0,L|25:231,1,65,2|0,0:0|0:0,0:0:0:0:
192,275,38681,1,2,0:0:0:0:
148,125,38858,1,0,3:0:0:0:
182,292,39034,1,2,0:0:0:0:
31,153,39211,2,0,P|48:126|75:109,1,65,2|0,0:0|0:0,0:0:0:0:
318,121,39564,6,0,L|320:186,1,65,0|0,3:0|0:0,0:0:0:0:
235,134,39917,1,0,0:0:0:0:
399,108,40093,1,0,3:0:0:0:
338,263,40270,2,0,P|308:274|276:275,1,65,10|0,3:0|0:0,0:0:0:0:
342,56,40623,1,0,0:0:0:0:
410,199,40799,1,8,0:3:0:0:
193,218,40976,6,0,P|171:195|157:166,1,65,2|0,3:0|0:0,0:0:0:0:
83,325,41329,2,0,P|114:317|146:319,1,65
66,100,41681,5,8,3:0:0:0:
235,134,41858,1,0,0:0:0:0:
114,71,42034,1,0,0:0:0:0:
205,85,42211,1,0,3:0:0:0:
205,85,42299,1,0,3:0:0:0:
205,85,42387,5,0,3:0:0:0:
193,218,42564,1,0,3:0:0:0:
298,148,42740,1,2,3:0:0:0:
107,210,42917,1,2,3:0:0:0:
298,60,43093,5,10,3:0:0:0:
298,236,43270,2,0,L|297:311,1,65
381,114,43623,1,8,0:3:0:0:
137,130,43799,6,0,P|119:100|114:58,1,65,2|0,3:0|0:0,0:0:0:0:
404,54,44152,2,0,P|398:86|381:114,1,65
195,233,44505,5,8,3:0:0:0:
382,201,44681,1,0,0:0:0:0:
218,245,44858,1,0,0:0:0:0:
367,219,45034,1,0,3:0:0:0:
365,220,45123,1,0,3:0:0:0:
365,220,45211,5,0,3:0:0:0:
244,160,45387,1,2,3:0:0:0:
380,266,45564,1,2,3:0:0:0:
336,138,45740,1,2,3:0:0:0:
308,339,45917,5,10,3:0:0:0:
472,247,46093,2,0,P|502:197|503:176,1,65
336,138,46446,1,8,0:3:0:0:
380,266,46623,6,0,L|406:339,1,65,2|0,3:0|0:0,0:0:0:0:
244,160,46976,2,0,L|265:98,1,65
266,279,47329,5,8,3:0:0:0:
115,291,47505,1,0,0:0:0:0:
259,314,47681,1,0,0:0:0:0:
169,168,47857,1,0,3:0:0:0:
169,168,47946,1,0,3:0:0:0:
169,168,48034,5,0,3:0:0:0:
183,258,48210,1,2,3:0:0:0:
244,160,48387,1,2,3:0:0:0:
103,222,48564,1,2,3:0:0:0:
298,261,48740,5,10,3:0:0:0:
118,68,48917,2,0,P|88:78|66:101,1,65
183,258,49270,1,8,0:3:0:0:
316,108,49446,5,8,0:3:0:0:
12,337,49799,1,2,0:3:0:0:
382,259,50152,1,0,3:3:0:0:
118,68,50858,5,6,3:0:0:0:
248,321,59329,5,0,3:0:0:0:
223,312,60034,1,0,3:0:0:0:
223,286,60740,1,0,3:0:0:0:
248,278,61446,1,0,3:0:0:0:
263,299,62152,6,0,B|285:237|285:237|261:122,1,155.999995239258,6|0,3:0|0:0,0:0:0:0:
184,162,62681,1,10,3:0:0:0:
355,209,62858,2,0,B|340:133,1,77.999997619629
184,162,63211,2,0,B|201:239,1,77.999997619629,10|0,3:0|0:0,0:0:0:0:
355,209,63564,1,0,0:0:0:0:
274,71,63740,1,8,3:0:0:0:
200,238,63917,1,0,3:0:0:0:
200,238,64270,6,0,L|113:266,1,77.999997619629,8|0,0:3|0:0,0:0:0:0:
263,299,64623,1,0,3:0:0:0:
179,351,64799,1,2,3:0:0:0:
287,147,64976,6,0,P|284:93|261:54,1,77.999997619629,2|0,3:0|0:0,0:0:0:0:
371,83,65329,1,0,0:0:0:0:
206,120,65505,1,8,3:0:0:0:
344,223,65681,2,0,P|380:182|391:138,1,77.999997619629
330,317,66034,6,0,P|384:314|458:231,1,155.999995239258,10|8,3:0|0:3,0:0:0:0:
190,319,66564,1,0,0:0:0:0:
344,223,66740,1,0,0:0:0:0:
266,384,66917,1,0,0:0:0:0:
199,237,67093,2,0,P|189:191|193:156,1,77.999997619629,2|0,3:0|0:0,0:0:0:0:
287,147,67446,1,0,0:0:0:0:
114,254,67623,1,10,3:0:0:0:
107,50,67799,6,0,P|148:22|184:22,2,77.999997619629,8|0|0,0:3|0:0|0:0,0:0:0:0:
192,161,68329,1,10,3:0:0:0:
228,72,68505,1,0,0:0:0:0:
245,245,68681,1,0,0:0:0:0:
97,175,68858,1,2,3:0:0:0:
287,147,69034,1,0,0:0:0:0:
130,330,69211,6,0,L|114:254,1,77.999997619629
308,308,69564,2,0,L|292:384,1,77.999997619629,0|0,3:0|0:0,0:0:0:0:
211,255,69917,5,10,3:0:0:0:
285,217,70093,1,0,0:0:0:0:
150,157,70270,1,0,0:0:0:0:
340,121,70446,1,0,0:0:0:0:
181,12,70623,6,0,L|212:22,1,32.5,8|0,3:2|0:3,0:3:0:0:
324,48,70799,2,0,L|286:61,1,40.625,8|0,3:2|0:3,0:3:0:0:
165,85,70976,6,0,L|212:100,1,48.750001859665,8|0,3:2|0:2,0:2:0:0:
340,121,71152,2,0,L|286:139,1,56.8750005424023,8|0,3:2|0:2,0:2:0:0:
150,157,71329,6,0,L|212:178,1,65,8|0,3:2|0:2,0:2:0:0:
355,194,71505,2,0,L|286:217,1,73.1250027894975,8|0,3:2|0:2,0:2:0:0:
134,230,71681,6,0,L|212:256,1,81.25,8|0,3:2|0:2,0:2:0:0:
370,267,71858,2,0,L|286:295,1,89.3750008523464,8|0,3:2|0:2,0:2:0:0:
119,303,72034,6,0,L|212:334,1,97.50000371933,8|0,3:0|0:2,0:2:0:0:
256,192,72211,12,0,73358,0:0:0:0:
216,188,73446,6,0,L|263:155,1,56.875,0|0,3:0|0:0,0:0:0:0:
302,38,74152,6,0,B|330:93|263:156|263:156|309:116|454:96|491:198|491:198|435:243|379:212,1,520,8|0,0:0|0:0,0:0:0:0:
132,163,74681,2,0,B|128:74|-2:17|-87:181|2:306|107:327|107:327|73:299|85:250,1,520,0|0,3:0|0:0,0:0:0:0:
202,132,75211,2,0,P|126:32|-1:32,1,260
84,255,75564,2,0,B|86:291|86:291|126:233|179:232,1,130,8|0,0:0|0:0,0:0:0:0:
325,346,75740,6,0,P|264:368|201:358,1,130,2|0,0:0|0:0,0:0:0:0:
379,212,75917,2,0,P|428:252|451:312,1,130,2|0,0:0|0:0,0:0:0:0:
236,234,76093,2,0,P|246:170|287:120,1,130,2|0,0:0|0:0,0:0:0:0:
425,37,76270,6,0,L|473:35,1,48.75,0|0,3:0|0:0,0:0:0:0:
473,35,76976,6,0,B|316:164|395:358|395:358|479:304|461:216,1,520,8|0,0:0|0:0,0:0:0:0:
473,35,77505,2,0,B|335:24|278:154|278:154|264:103|224:70|224:70|190:169|93:158,1,520,0|0,3:0|0:0,0:0:0:0:
2,1,78034,2,0,B|9:52|57:83|57:83|13:102|-11:172|35:215,1,260
80,337,78387,2,0,B|78:376|78:376|130:300,1,130,8|0,0:0|0:0,0:0:0:0:
387,167,78564,6,0,P|334:184|302:263,1,130,2|0,0:0|0:0,0:0:0:0:
345,352,78740,2,0,P|356:297|304:230,1,130,2|0,0:0|0:0,0:0:0:0:
205,223,78917,2,0,P|246:260|330:248,1,130,2|0,0:0|0:0,0:0:0:0:
469,201,79093,6,0,P|476:157|473:143,1,56.875,0|0,3:0|0:0,0:0:0:0:
447,40,79799,6,0,B|367:15|301:60|301:60|275:35|248:26|248:26|211:39|197:63|197:63|136:12|37:46|37:46|77:40|112:70,1,520,8|0,0:0|0:0,0:0:0:0:
73,352,80329,2,0,B|146:283|112:174|50:157|-25:205|30:347|200:330|275:257|330:202|266:94|169:111|161:183|197:201,1,520,0|0,3:0|0:0,0:0:0:0:
223,327,80858,2,0,P|315:231|289:99,1,260
292,7,81211,2,0,B|326:30|356:23|356:23|364:56|399:68,1,130,8|0,0:0|0:0,0:0:0:0:
300,114,81387,6,0,L|300:244,1,130,2|0,0:0|0:0,0:0:0:0:
350,332,81564,2,0,P|395:283|398:220,1,130,2|0,0:0|0:0,0:0:0:0:
200,224,81740,2,0,P|208:287|252:334,1,130,2|0,0:0|0:0,0:0:0:0:
300,244,81917,6,0,L|300:195,1,48.75,0|0,3:0|0:0,0:0:0:0:
291,59,82623,6,0,B|176:109|85:4|85:4|47:68|-26:98|-26:98|42:152|113:124,1,520,8|0,0:0|0:0,0:0:0:0:
300,195,83152,2,0,B|319:133|290:59|290:59|320:132|387:165|387:165|424:313|330:375,1,520,0|0,3:0|0:0,0:0:0:0:
451,125,83681,2,0,P|476:251|441:375,1,260
302,270,84034,2,0,P|239:270|197:218,1,130,8|0,0:0|0:0,0:0:0:0:
71,199,84211,6,0,L|198:222,1,130,2|0,0:0|0:0,0:0:0:0:
233,138,84387,2,0,L|106:115,1,130,2|0,0:0|0:0,0:0:0:0:
36,283,84564,2,0,L|163:306,1,130,2|0,0:0|0:0,0:0:0:0:
267,54,84740,6,0,L|206:43,1,56.875,0|0,3:0|0:0,0:0:0:0:
88,58,85446,6,0,B|175:132|164:306|164:306|195:137|322:118,1,520,8|0,0:0|0:0,0:0:0:0:
88,58,85976,2,0,B|51:202|164:306|164:306|297:239|309:121,1,520,0|0,3:0|0:0,0:0:0:0:
440,198,86505,2,0,B|408:202|393:260|393:260|347:191|436:175|404:86,1,260
466,326,86858,2,0,B|429:330|393:348|393:348|373:332|336:327,1,130,8|0,0:0|0:0,0:0:0:0:
162,306,87034,6,0,P|98:306|43:273,1,130,2|0,0:0|0:0,0:0:0:0:
308,120,87210,2,0,P|276:176|219:207,1,130,2|0,0:0|0:0,0:0:0:0:
93,37,87387,2,0,P|76:98|93:160,1,130,2|0,0:0|0:0,0:0:0:0:
231,18,87564,6,0,P|226:42|214:62,1,48.75,0|0,3:0|0:0,0:0:0:0:
329,360,88270,6,0,B|456:292|500:64|358:20|241:60|251:206|358:204,1,520,8|0,0:0|0:0,0:0:0:0:
117,62,88799,2,0,B|93:-15|1:76|74:161|153:127|214:63|214:63|173:153|220:259|304:267,1,520,0|0,3:0|0:0,0:0:0:0:
0,253,89329,2,0,B|57:284|133:278|133:278|151:346|230:374,1,260
360,266,89681,2,0,B|344:287|390:306|414:241|335:199,1,130,8|0,0:0|0:0,0:0:0:0:
180,95,89858,6,0,P|184:159|221:211,1,130,2|0,0:0|0:0,0:0:0:0:
392,122,90034,2,0,P|330:111|278:148,1,130,2|0,0:0|0:0,0:0:0:0:
211,367,90211,2,0,P|258:323|287:265,1,130,2|0,0:0|0:0,0:0:0:0:
435,199,90387,6,0,P|456:168|460:149,1,56.875,0|0,3:0|0:0,0:0:0:0:
395,10,91093,6,0,B|364:63|312:62|312:62|288:103|290:145|290:145|252:101|197:80|197:80|210:125|191:183|191:183|117:176|89:244,1,520,8|0,0:0|0:0,0:0:0:0:
264,300,91623,2,0,B|253:269|201:272|201:272|229:246|332:231|345:334|345:334|343:308|354:268|391:223|470:227|503:276|507:320,1,520,0|0,3:0|0:0,0:0:0:0:
425,332,92152,2,0,P|447:188|308:67,1,260
97,227,92505,2,0,B|77:241|77:241|225:239,1,130,8|0,0:0|0:0,0:0:0:0:
386,100,92681,6,0,L|230:103,1,130,2|0,0:0|0:0,0:0:0:0:
51,154,92858,2,0,L|207:157,1,130,2|0,0:0|0:0,0:0:0:0:
404,199,93034,2,0,L|248:202,1,130,2|0,0:0|0:0,0:0:0:0:
129,334,93211,6,0,B|184:333,1,48.75,0|0,3:0|0:0,0:0:0:0:
470,295,93917,6,0,B|384:253|334:295|334:295|296:245|239:240|239:240|243:217|243:217|166:215|118:157|118:157|50:205|-39:152,1,520,8|0,0:0|0:0,0:0:0:0:
178,334,94446,2,0,P|161:136|449:64,1,520,0|0,3:0|0:0,0:0:0:0:
285,311,94976,2,0,P|229:203|313:114,1,260
311,113,95329,2,0,B|284:88|253:87|253:87|229:111|187:100,1,130,8|0,0:0|0:0,0:0:0:0:
78,214,95505,6,0,P|150:237|219:219,1,130,2|0,0:0|0:0,0:0:0:0:
405,117,95681,2,0,P|377:175|326:213,1,130,2|0,0:0|0:0,0:0:0:0:
0,117,95858,2,0,P|26:175|78:214,1,130,2|0,0:0|0:0,0:0:0:0:
423,54,96034,6,0,P|417:85|405:116,1,65,0|2,3:0|0:0,0:0:0:0:
404,116,96564,1,2,0:0:0:0:
203,202,96740,6,0,B|153:124|53:184|53:184|89:331|262:254|262:254|384:193|475:295,1,650,8|0,0:0|0:0,0:0:0:0:
358,347,97270,2,0,B|298:231|422:152|388:93|388:93|313:152|246:50|334:6|334:6|335:58,1,520,0|0,3:0|0:0,0:0:0:0:
459,279,97799,2,0,B|410:304|377:266|377:266|378:280|378:280|344:241|298:262,1,195.00000743866,0|0,3:0|0:0,0:0:0:0:
78,65,98152,6,0,L|86:0,1,65,10|0,0:0|0:0,0:0:0:0:
172,47,98329,2,0,L|186:144,1,97.50000371933,2|0,0:0|0:0,0:0:0:0:
51,269,98505,2,0,L|67:140,1,130,2|0,0:0|0:0,0:0:0:0:
194,217,98681,2,0,L|217:378,1,162.5,2|0,0:0|0:0,0:0:0:0:
38,365,98858,6,0,L|52:256,1,97.5,0|0,3:0|0:0,0:0:0:0:
213,37,99564,6,0,B|278:125|203:208|203:208|176:186|185:144,1,260,8|0,0:0|0:0,0:0:0:0:
196,280,100093,2,0,B|249:288|289:219|289:219|349:247|393:343|342:421|258:389|282:330,1,390.00001487732,0|0,3:0|0:0,0:0:0:0:
305,122,100623,2,0,P|408:220|441:381,1,260
420,98,100976,6,0,P|353:54|274:36,1,162.5,10|0,0:0|0:0,0:0:0:0:
191,181,101152,2,0,P|258:136|337:118,1,130,2|0,0:0|0:0,0:0:0:0:
394,240,101329,2,0,P|352:216|305:202,1,97.50000371933,2|0,0:0|0:0,0:0:0:0:
211,299,101505,2,0,P|240:286|272:277,1,65,2|0,0:0|0:0,0:0:0:0:
418,384,101681,6,0,P|368:356|315:339,1,113.75,2|0,3:0|0:0,0:0:0:0:
18,220,102387,6,0,B|16:275|43:326|89:356|89:356|135:386|193:390|242:366|242:366|213:381|177:376|153:353|153:353|129:331|122:295|122:264|141:250|155:239|171:237|171:237|187:236|203:244|211:258|211:258|219:272|218:290|208:303,1,650,8|0,0:0|0:0,0:0:0:0:
132,69,102917,2,0,B|55:46|6:119|6:119|132:203|263:93|263:93|214:131|231:180,1,520,0|0,3:0|0:0,0:0:0:0:
481,201,103446,2,0,P|392:166|303:201,1,195.00000743866,0|0,3:0|0:0,0:0:0:0:
210,298,103799,6,0,L|209:263,1,32.5,8|0,0:0|0:0,0:0:0:0:
303,201,103976,6,0,L|306:233,1,32.5,2|0,0:0|0:0,0:0:0:0:
139,237,104152,2,0,L|134:184,1,48.750001859665,2|0,0:0|0:0,0:0:0:0:
371,265,104329,2,0,L|377:331,1,65,2|0,0:0|0:0,0:0:0:0:
229,173,104505,6,0,L|218:61,1,97.5,0|0,3:0|0:0,0:0:0:0:
369,163,105211,6,0,B|356:230|403:305|487:293|487:293|452:252,1,260,8|0,0:0|0:0,0:0:0:0:
219,75,105740,2,0,B|275:35|202:-49|114:68|245:162|245:162|229:197|229:197|268:242|238:285,1,390.00001487732,0|0,3:0|0:0,0:0:0:0:
40,243,106270,2,0,B|-1:184|72:132|72:132|142:184|106:243,1,260
0,85,106623,6,0,P|74:57|150:84,1,162.5,10|0,0:0|0:0,0:0:0:0:
369,163,106799,2,0,P|305:172|246:147,1,130,2|0,0:0|0:0,0:0:0:0:
493,53,106976,2,0,P|503:100|494:147,1,97.50000371933,2|0,0:0|0:0,0:0:0:0:
323,94,107152,2,0,P|314:62|315:30,1,65,2|0,0:0|0:0,0:0:0:0:
142,19,107329,6,0,P|150:50|149:82,1,65,2|2,3:0|0:0,0:0:0:0:
148,82,107858,1,2,0:0:0:0:
178,325,108034,6,0,B|109:275|-1:310|-1:310|99:231|204:300|204:300|250:253|313:264|313:264|366:315|424:299,1,650,8|0,0:0|0:0,0:0:0:0:
512,125,108564,2,0,B|465:92|471:39|471:39|425:178|533:152|534:272|525:294|525:294|523:258|486:195|428:200,1,520,0|0,3:0|0:0,0:0:0:0:
241,158,109093,2,0,P|304:156|235:129,1,195.00000743866,0|0,3:0|0:0,0:0:0:0:
44,23,109446,6,0,P|109:79|63:161,1,195,8|0,0:0|0:0,0:0:0:0:
62,161,109799,6,0,P|106:143|151:159,1,97.5
241,158,110152,6,0,P|197:175|151:159,1,97.5,0|0,3:0|0:0,0:0:0:0:
510,122,110858,6,0,B|430:59|346:110|346:110|403:91|424:112,1,260,8|0,0:0|0:0,0:0:0:0:
99,249,111387,2,0,B|163:241|191:298|191:298|256:256|292:325|345:262|345:262|307:207|249:235,1,390.00001487732,0|0,3:0|0:0,0:0:0:0:
53,96,111917,2,0,P|7:215|23:343,1,260
233,49,112270,6,0,P|162:86|119:153,1,162.5,10|0,0:0|0:0,0:0:0:0:
289,375,112446,2,0,P|232:347|190:297,1,130,2|0,0:0|0:0,0:0:0:0:
359,110,112623,2,0,P|311:115|267:136,1,97.50000371933,2|0,0:0|0:0,0:0:0:0:
394,327,112799,2,0,P|364:317|336:300,1,65,2|0,0:0|0:0,0:0:0:0:
507,208,112976,6,0,P|453:203|388:209,1,113.75,0|0,3:0|0:0,0:0:0:0:
59,145,113681,6,0,B|122:182|85:332|85:332|128:185|285:183|227:56|227:56|128:51|147:145,1,650,8|0,0:0|0:0,0:0:0:0:
319,382,114211,2,0,B|373:388|481:361|534:206|355:108|261:191|258:273|315:311|315:311|306:278|324:258,1,520,0|0,3:0|0:0,0:0:0:0:
444,143,114740,2,0,P|350:120|258:156,1,195.00000743866,0|0,3:0|0:0,0:0:0:0:
250,348,115093,6,0,P|228:325|218:294,1,65,8|0,0:0|0:0,0:0:0:0:
260,153,115270,2,0,P|238:164|222:182,1,48.750001859665,2|0,0:0|0:0,0:0:0:0:
85,363,115446,6,0,P|113:378|146:379,1,65,2|0,0:0|0:0,0:0:0:0:
136,199,115623,2,0,P|120:197|104:199,1,32.5,2|0,0:0|0:0,0:0:0:0:
124,286,115799,6,0,P|169:301|217:294,1,97.5,0|0,3:0|0:0,0:0:0:0:
376,270,116505,6,0,B|438:210|434:140|380:86|380:86|352:104|362:133,1,260,8|0,0:0|0:0,0:0:0:0:
241,242,117034,2,0,B|280:339|392:355|392:355|482:301|497:187,1,390.00001487732,0|0,3:0|0:0,0:0:0:0:
390,16,117564,2,0,P|267:47|210:159,1,260
512,129,117917,5,8,0:0:0:0:
154,26,118623,5,2,3:0:0:0:
