osu file format v14

[General]
AudioFilename: audio.mp3
AudioLeadIn: 0
PreviewTime: 64034
Countdown: 1
SampleSet: Soft
StackLeniency: 0.7
Mode: 0
LetterboxInBreaks: 0
WidescreenStoryboard: 0

[Editor]
DistanceSpacing: 1
BeatDivisor: 4
GridSize: 4
TimelineZoom: 1.1

[Metadata]
Title:Cry Room
TitleUnicode:Cry Room
Artist:Satanwave
ArtistUnicode:Satanwave
Creator:tuturox91
Version:Normal
Source:
Tags:Satanwave, Cry, Room, Cry Room,
BeatmapID:1153363
BeatmapSetID:544237

[Difficulty]
HPDrainRate:5
CircleSize:5
OverallDifficulty:5
ApproachRate:5
SliderMultiplier:1.4
SliderTickRate:2

[Events]
//Background and Video events
0,0,"glass_drop_rain_moisture_9427_1920x1080.jpg",0,0
//Break Periods
2,52233,58834
//Storyboard Layer 0 (Background)
//Storyboard Layer 1 (Fail)
//Storyboard Layer 2 (Pass)
//Storyboard Layer 3 (Foreground)
//Storyboard Sound Samples

[TimingPoints]
32034,500,4,2,0,72,1,0

[HitObjects]
256,192,28034,12,0,31534,0:0:0:0:
136,80,32038,6,0,P|132:248|152:244,1,280
196,240,33276,1,0,0:0:0:0:
252,200,33525,1,0,0:0:0:0:
348,96,34034,2,0,P|484:156|364:192,1,350
300,252,35534,1,4,0:0:0:0:
184,332,36034,6,0,B|56:224|68:236,1,140
116,108,37034,2,0,P|260:112|240:208,2,280
256,84,39534,1,4,0:0:0:0:
384,140,40034,2,0,B|376:236|376:232,1,70
356,276,40534,2,0,L|272:296,1,70
220,308,41034,1,0,0:0:0:0:
128,204,41534,5,0,0:0:0:0:
168,68,42034,1,0,0:0:0:0:
128,204,42534,1,0,0:0:0:0:
44,92,43034,2,4,P|208:112|200:188,1,280
272,200,44284,1,0,0:0:0:0:
204,184,44534,1,0,0:0:0:0:
144,192,45534,5,0,0:0:0:0:
216,192,45784,1,0,0:0:0:0:
144,192,46034,1,0,0:0:0:0:
284,192,46534,2,0,L|320:208,4,35
412,248,47534,1,4,0:0:0:0:
352,288,47784,2,4,L|264:304,1,70
148,272,48534,5,0,0:0:0:0:
80,148,49034,1,0,0:0:0:0:
192,64,49534,2,0,L|288:172,3,140
192,272,51534,2,4,L|104:300,2,70
256,192,60034,12,0,63534,0:0:0:0:
224,292,64034,6,0,L|168:272,4,35
360,268,65034,1,0,0:0:0:0:
360,200,65284,1,0,0:0:0:0:
296,172,65534,2,0,P|132:188|144:236,1,280
252,320,67034,2,0,L|300:328,4,35
384,276,68034,5,0,0:0:0:0:
312,172,68534,2,0,L|252:172,4,35
452,192,69534,1,0,0:0:0:0:
320,240,70034,2,0,L|260:248,4,35
456,216,71034,1,0,0:0:0:0:
424,280,71284,1,0,0:0:0:0:
364,316,71534,1,4,0:0:0:0:
224,324,72034,6,0,P|76:248|240:248,1,420
364,212,74034,1,0,0:0:0:0:
420,84,74534,1,0,0:0:0:0:
280,80,75034,1,0,0:0:0:0:
140,76,75534,2,0,L|92:108,4,35
280,64,76534,5,0,0:0:0:0:
420,80,77034,1,0,0:0:0:0:
440,220,77534,1,0,0:0:0:0:
324,296,78034,2,0,P|320:96|48:168,1,560
