osu file format v14

[General]
AudioFilename: audio.ogg
AudioLeadIn: 0
PreviewTime: 203714
Countdown: 0
SampleSet: Soft
StackLeniency: 0.7
Mode: 3
LetterboxInBreaks: 0
SpecialStyle: 0
WidescreenStoryboard: 0

[Editor]
DistanceSpacing: 0.9
BeatDivisor: 4
GridSize: 32
TimelineZoom: 3.899998

[Metadata]
Title:Killer neuron
TitleUnicode:Killer neuron
Artist:Sataka Ryohei feat. Aitsuki Nakuru
ArtistUnicode:佐高陵平 feat. 藍月なくる
Creator:Scotty
Version:Submerge
Source:
Tags:Hifumi,inc. Electronic Japanese ryouhei D4DJ Groovy Mix よういち youichi Indigrotto 石塚陽大 Yota Ishizuka
BeatmapID:4271459
BeatmapSetID:2046321

[Difficulty]
HPDrainRate:8.3
CircleSize:4
OverallDifficulty:7.7
ApproachRate:5
SliderMultiplier:1.4
SliderTickRate:1

[Events]
//Background and Video events
0,0,"a.jpg",0,0
//Break Periods
//Storyboard Layer 0 (Background)
//Storyboard Layer 1 (Fail)
//Storyboard Layer 2 (Pass)
//Storyboard Layer 3 (Foreground)
//Storyboard Layer 4 (Overlay)
//Storyboard Sound Samples

[TimingPoints]
1293,315.789473684211,4,2,1,30,1,0
53082,-100,4,2,1,70,0,1
73293,-100,4,2,1,30,0,0
146556,-100,4,2,1,70,0,1
164240,-100,4,2,1,30,0,0
184450,-111.111111111111,4,2,1,30,0,0
193293,-100,4,2,1,30,0,0
204661,-100,4,2,1,70,0,1
224871,-100,4,2,1,30,0,0

[HitObjects]
320,192,2556,5,0,0:0:0:0:
448,192,2556,1,0,0:0:0:0:
64,192,2714,1,0,0:0:0:0:
192,192,2871,1,0,0:0:0:0:
64,192,3029,1,0,0:0:0:0:
448,192,3187,1,0,0:0:0:0:
64,192,3187,128,0,3345:0:0:0:0:
320,192,3345,1,0,0:0:0:0:
192,192,3503,1,0,0:0:0:0:
320,192,3661,1,0,0:0:0:0:
64,192,3819,1,0,0:0:0:0:
192,192,3845,1,0,0:0:0:0:
448,192,3977,1,0,0:0:0:0:
320,192,4135,1,0,0:0:0:0:
448,192,4293,1,0,0:0:0:0:
448,192,4450,1,0,0:0:0:0:
64,192,4450,128,0,4608:0:0:0:0:
320,192,4477,1,0,0:0:0:0:
192,192,4608,1,0,0:0:0:0:
320,192,4687,1,0,0:0:0:0:
64,192,4766,1,0,0:0:0:0:
448,192,4845,1,0,0:0:0:0:
192,192,4924,1,0,0:0:0:0:
64,192,4950,1,0,0:0:0:0:
320,192,5003,1,0,0:0:0:0:
448,192,5082,1,0,0:0:0:0:
64,192,5240,1,0,0:0:0:0:
192,192,5398,1,0,0:0:0:0:
64,192,5556,1,0,0:0:0:0:
448,192,5714,1,0,0:0:0:0:
64,192,5714,128,0,5871:0:0:0:0:
320,192,5871,1,0,0:0:0:0:
192,192,6029,1,0,0:0:0:0:
320,192,6187,1,0,0:0:0:0:
64,192,6345,1,0,0:0:0:0:
192,192,6371,1,0,0:0:0:0:
448,192,6503,1,0,0:0:0:0:
320,192,6661,1,0,0:0:0:0:
448,192,6819,1,0,0:0:0:0:
448,192,6977,1,0,0:0:0:0:
64,192,6977,128,0,7135:0:0:0:0:
320,192,7003,1,0,0:0:0:0:
192,192,7135,1,0,0:0:0:0:
64,192,7293,1,0,0:0:0:0:
448,192,7319,1,0,0:0:0:0:
192,192,7450,1,0,0:0:0:0:
320,192,7477,1,0,0:0:0:0:
320,192,7608,1,0,0:0:0:0:
448,192,7608,1,0,0:0:0:0:
64,192,7766,1,0,0:0:0:0:
192,192,7924,1,0,0:0:0:0:
64,192,8082,1,0,0:0:0:0:
64,192,8240,1,0,0:0:0:0:
448,192,8240,128,0,8398:0:0:0:0:
320,192,8398,1,0,0:0:0:0:
192,192,8556,1,0,0:0:0:0:
320,192,8714,1,0,0:0:0:0:
64,192,8871,1,0,0:0:0:0:
192,192,8898,1,0,0:0:0:0:
448,192,9029,1,0,0:0:0:0:
320,192,9187,1,0,0:0:0:0:
448,192,9345,1,0,0:0:0:0:
64,192,9503,1,0,0:0:0:0:
448,192,9503,128,0,9661:0:0:0:0:
320,192,9529,1,0,0:0:0:0:
192,192,9661,1,0,0:0:0:0:
320,192,9740,1,0,0:0:0:0:
64,192,9819,1,0,0:0:0:0:
448,192,9898,1,0,0:0:0:0:
192,192,9977,1,0,0:0:0:0:
64,192,10003,1,0,0:0:0:0:
320,192,10056,1,0,0:0:0:0:
448,192,10135,1,0,0:0:0:0:
64,192,10293,1,0,0:0:0:0:
192,192,10450,1,0,0:0:0:0:
64,192,10608,1,0,0:0:0:0:
64,192,10766,1,0,0:0:0:0:
448,192,10766,128,0,10924:0:0:0:0:
320,192,10924,1,0,0:0:0:0:
192,192,11082,1,0,0:0:0:0:
320,192,11240,1,0,0:0:0:0:
64,192,11398,1,0,0:0:0:0:
448,192,11556,1,0,0:0:0:0:
320,192,11714,1,0,0:0:0:0:
448,192,11871,1,0,0:0:0:0:
192,192,11950,1,0,0:0:0:0:
320,192,11990,1,0,0:0:0:0:
448,192,12029,1,0,0:0:0:0:
64,192,12029,1,0,0:0:0:0:
448,192,12187,1,0,0:0:0:0:
64,192,12187,1,0,0:0:0:0:
64,192,12345,1,0,0:0:0:0:
448,192,12345,1,0,0:0:0:0:
448,192,12503,1,0,0:0:0:0:
64,192,12503,1,0,0:0:0:0:
320,192,12661,1,0,0:0:0:0:
64,192,12661,1,0,0:0:0:0:
448,192,12661,128,0,12898:0:0:0:0:
64,192,12819,1,0,0:0:0:0:
192,192,12977,1,0,0:0:0:0:
64,192,13135,1,0,0:0:0:0:
64,192,13293,1,0,0:0:0:0:
448,192,13293,128,0,13450:0:0:0:0:
320,192,13450,1,0,0:0:0:0:
192,192,13608,128,0,13845:0:0:0:0:
320,192,13766,1,0,0:0:0:0:
64,192,13924,128,0,14161:0:0:0:0:
192,192,13924,1,0,0:0:0:0:
320,192,14082,1,0,0:0:0:0:
448,192,14240,128,0,14319:0:0:0:0:
320,192,14398,128,0,14477:0:0:0:0:
64,192,14556,1,0,0:0:0:0:
448,192,14556,128,0,14714:0:0:0:0:
320,192,14635,1,0,0:0:0:0:
192,192,14714,128,0,14793:0:0:0:0:
64,192,14793,1,0,0:0:0:0:
192,192,14871,128,0,15108:0:0:0:0:
448,192,14950,1,0,0:0:0:0:
320,192,15029,1,0,0:0:0:0:
448,192,15187,1,0,0:0:0:0:
320,192,15187,1,0,0:0:0:0:
64,192,15345,1,0,0:0:0:0:
192,192,15503,1,0,0:0:0:0:
64,192,15661,1,0,0:0:0:0:
64,192,15819,1,0,0:0:0:0:
448,192,15819,128,0,15977:0:0:0:0:
320,192,15977,1,0,0:0:0:0:
192,192,16135,128,0,16371:0:0:0:0:
320,192,16293,1,0,0:0:0:0:
448,192,16450,1,0,0:0:0:0:
320,192,16450,128,0,16687:0:0:0:0:
448,192,16608,1,0,0:0:0:0:
320,192,16766,128,0,16845:0:0:0:0:
448,192,16924,128,0,17003:0:0:0:0:
448,192,17082,128,0,17240:0:0:0:0:
64,192,17082,1,0,0:0:0:0:
192,192,17240,128,0,17319:0:0:0:0:
64,192,17398,128,0,17635:0:0:0:0:
192,192,17556,1,0,0:0:0:0:
192,192,17714,1,0,0:0:0:0:
64,192,17714,1,0,0:0:0:0:
320,192,17714,1,0,0:0:0:0:
448,192,17714,1,0,0:0:0:0:
64,192,17871,1,0,0:0:0:0:
192,192,18029,1,0,0:0:0:0:
64,192,18187,1,0,0:0:0:0:
448,192,18345,1,0,0:0:0:0:
64,192,18345,128,0,18503:0:0:0:0:
320,192,18503,1,0,0:0:0:0:
192,192,18661,128,0,18740:0:0:0:0:
320,192,18819,128,0,19056:0:0:0:0:
192,192,18977,1,0,0:0:0:0:
64,192,18977,1,0,0:0:0:0:
448,192,19135,1,0,0:0:0:0:
320,192,19293,1,0,0:0:0:0:
448,192,19450,1,0,0:0:0:0:
448,192,19608,1,0,0:0:0:0:
64,192,19608,128,0,19766:0:0:0:0:
320,192,19687,1,0,0:0:0:0:
192,192,19766,1,0,0:0:0:0:
448,192,19845,1,0,0:0:0:0:
64,192,19924,128,0,20161:0:0:0:0:
320,192,20003,1,0,0:0:0:0:
192,192,20082,1,0,0:0:0:0:
448,192,20240,1,0,0:0:0:0:
320,192,20240,128,0,20477:0:0:0:0:
64,192,20398,1,0,0:0:0:0:
192,192,20556,1,0,0:0:0:0:
64,192,20714,1,0,0:0:0:0:
448,192,20871,128,0,21108:0:0:0:0:
64,192,20871,128,0,21029:0:0:0:0:
320,192,21029,1,0,0:0:0:0:
192,192,21187,1,0,0:0:0:0:
320,192,21345,1,0,0:0:0:0:
64,192,21503,1,0,0:0:0:0:
320,192,21503,128,0,21740:0:0:0:0:
448,192,21661,1,0,0:0:0:0:
320,192,21819,1,0,0:0:0:0:
448,192,21977,128,0,22687:0:0:0:0:
320,192,22056,128,0,22371:0:0:0:0:
192,192,22135,1,0,0:0:0:0:
64,192,22135,1,0,0:0:0:0:
192,192,22293,1,0,0:0:0:0:
64,192,22293,1,0,0:0:0:0:
320,192,22450,128,0,22608:0:0:0:0:
192,192,22766,1,0,0:0:0:0:
64,192,22766,1,0,0:0:0:0:
320,192,22766,1,0,0:0:0:0:
448,192,22766,128,0,23003:0:0:0:0:
64,192,22924,1,0,0:0:0:0:
192,192,23082,1,0,0:0:0:0:
64,192,23240,1,0,0:0:0:0:
448,192,23398,1,0,0:0:0:0:
192,192,23398,1,0,0:0:0:0:
64,192,23398,128,0,23556:0:0:0:0:
320,192,23556,1,0,0:0:0:0:
192,192,23714,128,0,23950:0:0:0:0:
320,192,23871,1,0,0:0:0:0:
192,192,24029,1,0,0:0:0:0:
64,192,24029,128,0,24266:0:0:0:0:
448,192,24187,1,0,0:0:0:0:
320,192,24345,128,0,24424:0:0:0:0:
448,192,24503,128,0,24582:0:0:0:0:
448,192,24661,1,0,0:0:0:0:
320,192,24661,1,0,0:0:0:0:
64,192,24661,128,0,24819:0:0:0:0:
192,192,24819,128,0,24898:0:0:0:0:
64,192,24977,128,0,25214:0:0:0:0:
192,192,25135,1,0,0:0:0:0:
320,192,25293,1,0,0:0:0:0:
448,192,25293,1,0,0:0:0:0:
64,192,25450,1,0,0:0:0:0:
192,192,25608,1,0,0:0:0:0:
64,192,25766,1,0,0:0:0:0:
192,192,25924,1,0,0:0:0:0:
448,192,25924,1,0,0:0:0:0:
64,192,25924,128,0,26082:0:0:0:0:
320,192,26082,1,0,0:0:0:0:
192,192,26240,128,0,26477:0:0:0:0:
320,192,26398,1,0,0:0:0:0:
192,192,26556,1,0,0:0:0:0:
64,192,26556,128,0,26793:0:0:0:0:
448,192,26714,1,0,0:0:0:0:
320,192,26871,128,0,26950:0:0:0:0:
448,192,27029,128,0,27108:0:0:0:0:
448,192,27187,1,0,0:0:0:0:
320,192,27187,1,0,0:0:0:0:
64,192,27187,128,0,27345:0:0:0:0:
192,192,27345,128,0,27424:0:0:0:0:
64,192,27503,128,0,27740:0:0:0:0:
192,192,27661,1,0,0:0:0:0:
320,192,27819,1,0,0:0:0:0:
448,192,27819,1,0,0:0:0:0:
192,192,27819,1,0,0:0:0:0:
64,192,27819,1,0,0:0:0:0:
64,192,27977,1,0,0:0:0:0:
192,192,28135,1,0,0:0:0:0:
64,192,28293,1,0,0:0:0:0:
64,192,28450,1,0,0:0:0:0:
192,192,28450,1,0,0:0:0:0:
448,192,28450,128,0,28608:0:0:0:0:
320,192,28608,1,0,0:0:0:0:
192,192,28766,128,0,28845:0:0:0:0:
320,192,28924,128,0,29161:0:0:0:0:
64,192,29082,1,0,0:0:0:0:
192,192,29082,1,0,0:0:0:0:
448,192,29240,1,0,0:0:0:0:
320,192,29398,1,0,0:0:0:0:
448,192,29556,1,0,0:0:0:0:
64,192,29714,1,0,0:0:0:0:
320,192,29714,1,0,0:0:0:0:
448,192,29714,128,0,29871:0:0:0:0:
192,192,29871,1,0,0:0:0:0:
64,192,30029,1,0,0:0:0:0:
192,192,30187,1,0,0:0:0:0:
320,192,30345,1,0,0:0:0:0:
448,192,30345,1,0,0:0:0:0:
64,192,30503,1,0,0:0:0:0:
192,192,30661,128,0,30898:0:0:0:0:
64,192,30819,5,0,0:0:0:0:
192,192,30977,1,0,0:0:0:0:
448,192,30977,128,0,31214:0:0:0:0:
64,192,30977,128,0,31135:0:0:0:0:
320,192,31135,1,0,0:0:0:0:
192,192,31293,128,0,31529:0:0:0:0:
320,192,31450,1,0,0:0:0:0:
192,192,31608,1,0,0:0:0:0:
64,192,31608,128,0,32793:0:0:0:0:
448,192,31766,1,0,0:0:0:0:
192,192,31924,128,0,32161:0:0:0:0:
320,192,32161,128,0,32477:0:0:0:0:
192,192,32240,128,0,32793:0:0:0:0:
448,192,32240,1,0,0:0:0:0:
320,192,32556,128,0,32793:0:0:0:0:
64,192,32871,128,0,33740:0:0:0:0:
448,192,32871,128,0,34450:0:0:0:0:
192,192,32871,128,0,33424:0:0:0:0:
320,192,32871,128,0,33108:0:0:0:0:
320,192,33187,128,0,33266:0:0:0:0:
192,192,33503,128,0,33582:0:0:0:0:
64,192,33819,128,0,34450:0:0:0:0:
192,192,33977,128,0,34293:0:0:0:0:
320,192,34450,128,0,34766:0:0:0:0:
448,192,34766,128,0,35082:0:0:0:0:
192,192,35082,128,0,35635:0:0:0:0:
320,192,35240,128,0,35950:0:0:0:0:
448,192,35398,128,0,36266:0:0:0:0:
64,192,35398,128,0,36977:0:0:0:0:
192,192,35714,128,0,35793:0:0:0:0:
320,192,36029,128,0,36108:0:0:0:0:
448,192,36345,128,0,36977:0:0:0:0:
320,192,36503,128,0,36819:0:0:0:0:
320,192,36977,128,0,37293:0:0:0:0:
192,192,37293,128,0,37608:0:0:0:0:
448,192,37608,128,0,37924:0:0:0:0:
320,192,37766,128,0,38161:0:0:0:0:
192,192,37924,1,0,0:0:0:0:
64,192,37924,128,0,38871:0:0:0:0:
320,192,38240,128,0,38398:0:0:0:0:
448,192,38398,128,0,38714:0:0:0:0:
192,192,38871,128,0,38950:0:0:0:0:
192,192,39029,128,0,39503:0:0:0:0:
320,192,39503,128,0,39661:0:0:0:0:
448,192,39661,128,0,39977:0:0:0:0:
64,192,39977,128,0,40056:0:0:0:0:
64,192,40135,128,0,41082:0:0:0:0:
448,192,40450,128,0,40529:0:0:0:0:
192,192,40766,128,0,40845:0:0:0:0:
320,192,41082,128,0,41161:0:0:0:0:
448,192,41398,128,0,41477:0:0:0:0:
64,192,42029,128,0,42582:0:0:0:0:
192,192,42345,128,0,42740:0:0:0:0:
64,192,42661,128,0,42898:0:0:0:0:
192,192,42819,128,0,42898:0:0:0:0:
192,192,42977,128,0,44003:0:0:0:0:
448,192,42977,1,0,0:0:0:0:
64,192,42977,128,0,44556:0:0:0:0:
448,192,43450,1,0,0:0:0:0:
448,192,43608,1,0,0:0:0:0:
448,192,43924,1,0,0:0:0:0:
192,192,44082,128,0,44477:0:0:0:0:
320,192,44240,128,0,44398:0:0:0:0:
448,192,44398,1,0,0:0:0:0:
320,192,44477,1,0,0:0:0:0:
448,192,44556,128,0,45108:0:0:0:0:
192,192,44556,1,0,0:0:0:0:
320,192,44871,128,0,45266:0:0:0:0:
192,192,44871,1,0,0:0:0:0:
192,192,45187,1,0,0:0:0:0:
448,192,45187,128,0,45424:0:0:0:0:
320,192,45345,128,0,45424:0:0:0:0:
192,192,45424,1,0,0:0:0:0:
448,192,45503,128,0,47082:0:0:0:0:
64,192,45503,1,0,0:0:0:0:
320,192,45503,128,0,46529:0:0:0:0:
64,192,45977,1,0,0:0:0:0:
64,192,46135,1,0,0:0:0:0:
64,192,46450,1,0,0:0:0:0:
320,192,46608,128,0,47003:0:0:0:0:
192,192,46766,128,0,46924:0:0:0:0:
64,192,46924,1,0,0:0:0:0:
192,192,47003,1,0,0:0:0:0:
320,192,47082,1,0,0:0:0:0:
64,192,47082,128,0,47950:0:0:0:0:
320,192,47398,1,0,0:0:0:0:
192,192,47398,128,0,47793:0:0:0:0:
448,192,47714,1,0,0:0:0:0:
320,192,47793,1,0,0:0:0:0:
192,192,47871,128,0,47950:0:0:0:0:
320,192,47950,1,0,0:0:0:0:
192,192,48029,128,0,49214:0:0:0:0:
448,192,48029,1,0,0:0:0:0:
64,192,48029,128,0,50319:0:0:0:0:
448,192,48187,1,0,0:0:0:0:
320,192,48345,1,0,0:0:0:0:
448,192,48503,1,0,0:0:0:0:
448,192,48661,1,0,0:0:0:0:
320,192,48819,1,0,0:0:0:0:
448,192,48977,1,0,0:0:0:0:
448,192,49135,1,0,0:0:0:0:
192,192,49293,128,0,49371:0:0:0:0:
192,192,49450,128,0,49529:0:0:0:0:
320,192,49529,1,0,0:0:0:0:
192,192,49608,128,0,49687:0:0:0:0:
448,192,49608,1,0,0:0:0:0:
192,192,49766,128,0,49845:0:0:0:0:
192,192,49924,128,0,50003:0:0:0:0:
448,192,49924,1,0,0:0:0:0:
192,192,50082,128,0,50161:0:0:0:0:
448,192,50082,1,0,0:0:0:0:
192,192,50240,128,0,50319:0:0:0:0:
448,192,50240,1,0,0:0:0:0:
64,192,50398,128,0,50503:0:0:0:0:
320,192,50477,1,0,0:0:0:0:
64,192,50556,128,0,50661:0:0:0:0:
448,192,50556,1,0,0:0:0:0:
64,192,50714,128,0,50819:0:0:0:0:
448,192,50714,1,0,0:0:0:0:
64,192,50871,128,0,51687:0:0:0:0:
448,192,50871,1,0,0:0:0:0:
448,192,51029,128,0,51135:0:0:0:0:
192,192,51029,128,0,51266:0:0:0:0:
320,192,51056,128,0,51161:0:0:0:0:
448,192,51187,128,0,51293:0:0:0:0:
320,192,51214,128,0,51319:0:0:0:0:
448,192,51345,128,0,51450:0:0:0:0:
192,192,51345,128,0,51661:0:0:0:0:
320,192,51371,128,0,51477:0:0:0:0:
448,192,51503,128,0,51608:0:0:0:0:
320,192,51529,128,0,51635:0:0:0:0:
448,192,52766,1,0,0:0:0:0:
320,192,52806,1,0,0:0:0:0:
192,192,52845,1,0,0:0:0:0:
64,192,52885,1,0,0:0:0:0:
448,192,52924,1,0,0:0:0:0:
320,192,52964,1,0,0:0:0:0:
192,192,53003,1,0,0:0:0:0:
448,192,53082,1,0,0:0:0:0:
320,192,53082,1,0,0:0:0:0:
64,192,53082,1,0,0:0:0:0:
64,192,53240,1,0,0:0:0:0:
192,192,53279,1,0,0:0:0:0:
320,192,53319,1,0,0:0:0:0:
448,192,53358,1,0,0:0:0:0:
192,192,53398,1,0,0:0:0:0:
64,192,53437,1,0,0:0:0:0:
448,192,53477,1,0,0:0:0:0:
320,192,53516,1,0,0:0:0:0:
192,192,53556,1,0,0:0:0:0:
64,192,53714,1,0,0:0:0:0:
448,192,53714,1,0,0:0:0:0:
192,192,53766,1,0,0:0:0:0:
320,192,53819,1,0,0:0:0:0:
64,192,53871,1,0,0:0:0:0:
448,192,53924,1,0,0:0:0:0:
192,192,53977,1,0,0:0:0:0:
64,192,54029,1,0,0:0:0:0:
320,192,54082,1,0,0:0:0:0:
448,192,54135,1,0,0:0:0:0:
64,192,54187,1,0,0:0:0:0:
192,192,54240,1,0,0:0:0:0:
320,192,54293,1,0,0:0:0:0:
64,192,54345,1,0,0:0:0:0:
448,192,54345,1,0,0:0:0:0:
192,192,54450,1,0,0:0:0:0:
448,192,54503,1,0,0:0:0:0:
320,192,54556,1,0,0:0:0:0:
64,192,54608,1,0,0:0:0:0:
448,192,54661,1,0,0:0:0:0:
192,192,54714,1,0,0:0:0:0:
320,192,54766,1,0,0:0:0:0:
448,192,54819,1,0,0:0:0:0:
64,192,54871,1,0,0:0:0:0:
192,192,54924,1,0,0:0:0:0:
448,192,54977,1,0,0:0:0:0:
320,192,54977,1,0,0:0:0:0:
64,192,55029,1,0,0:0:0:0:
192,192,55082,1,0,0:0:0:0:
448,192,55135,128,0,55240:0:0:0:0:
320,192,55187,128,0,55240:0:0:0:0:
192,192,55293,1,0,0:0:0:0:
64,192,55345,1,0,0:0:0:0:
448,192,55398,1,0,0:0:0:0:
320,192,55450,128,0,55556:0:0:0:0:
192,192,55503,128,0,55556:0:0:0:0:
64,192,55608,1,0,0:0:0:0:
448,192,55608,1,0,0:0:0:0:
64,192,55766,1,0,0:0:0:0:
64,192,55924,1,0,0:0:0:0:
64,192,56082,1,0,0:0:0:0:
64,192,56240,1,0,0:0:0:0:
448,192,56240,1,0,0:0:0:0:
320,192,56293,1,0,0:0:0:0:
192,192,56345,1,0,0:0:0:0:
64,192,56398,1,0,0:0:0:0:
320,192,56450,1,0,0:0:0:0:
192,192,56503,1,0,0:0:0:0:
448,192,56556,1,0,0:0:0:0:
320,192,56608,1,0,0:0:0:0:
64,192,56661,1,0,0:0:0:0:
448,192,56714,1,0,0:0:0:0:
192,192,56766,1,0,0:0:0:0:
64,192,56819,1,0,0:0:0:0:
448,192,56871,1,0,0:0:0:0:
320,192,56871,1,0,0:0:0:0:
192,192,56977,1,0,0:0:0:0:
448,192,57029,1,0,0:0:0:0:
320,192,57082,1,0,0:0:0:0:
64,192,57135,1,0,0:0:0:0:
448,192,57187,1,0,0:0:0:0:
192,192,57240,1,0,0:0:0:0:
64,192,57293,1,0,0:0:0:0:
448,192,57345,1,0,0:0:0:0:
320,192,57398,1,0,0:0:0:0:
192,192,57450,1,0,0:0:0:0:
448,192,57503,1,0,0:0:0:0:
64,192,57503,1,0,0:0:0:0:
192,192,57661,1,0,0:0:0:0:
64,192,57661,1,0,0:0:0:0:
320,192,57977,128,0,58082:0:0:0:0:
320,192,58135,128,0,58240:0:0:0:0:
192,192,58135,128,0,58187:0:0:0:0:
192,192,58293,128,0,58450:0:0:0:0:
320,192,58319,128,0,58371:0:0:0:0:
448,192,58345,128,0,58477:0:0:0:0:
320,192,58608,128,0,58714:0:0:0:0:
320,192,58766,128,0,58871:0:0:0:0:
192,192,58766,128,0,58819:0:0:0:0:
448,192,58766,1,0,0:0:0:0:
192,192,58924,128,0,59082:0:0:0:0:
448,192,58977,128,0,59108:0:0:0:0:
320,192,59240,128,0,59319:0:0:0:0:
192,192,59266,128,0,59345:0:0:0:0:
64,192,59398,128,0,59477:0:0:0:0:
192,192,59398,1,0,0:0:0:0:
448,192,59424,128,0,59503:0:0:0:0:
64,192,59556,128,0,59635:0:0:0:0:
320,192,59582,128,0,59661:0:0:0:0:
64,192,59714,128,0,59793:0:0:0:0:
192,192,59740,128,0,59819:0:0:0:0:
448,192,59871,128,0,59950:0:0:0:0:
64,192,59898,128,0,59977:0:0:0:0:
448,192,60029,128,0,60108:0:0:0:0:
320,192,60029,1,0,0:0:0:0:
192,192,60056,128,0,60135:0:0:0:0:
448,192,60187,128,0,60293:0:0:0:0:
320,192,60240,128,0,60293:0:0:0:0:
64,192,60345,1,0,0:0:0:0:
192,192,60398,1,0,0:0:0:0:
320,192,60450,1,0,0:0:0:0:
448,192,60503,128,0,60608:0:0:0:0:
192,192,60556,128,0,60661:0:0:0:0:
448,192,60661,128,0,60819:0:0:0:0:
64,192,60661,128,0,60766:0:0:0:0:
192,192,60819,128,0,60924:0:0:0:0:
448,192,60871,128,0,60977:0:0:0:0:
192,192,60977,1,0,0:0:0:0:
448,192,61135,128,0,61240:0:0:0:0:
192,192,61187,128,0,61293:0:0:0:0:
64,192,61293,128,0,61398:0:0:0:0:
448,192,61293,128,0,61450:0:0:0:0:
320,192,61293,1,0,0:0:0:0:
192,192,61450,128,0,61556:0:0:0:0:
448,192,61503,128,0,61608:0:0:0:0:
192,192,61608,1,0,0:0:0:0:
320,192,61661,1,0,0:0:0:0:
448,192,61714,1,0,0:0:0:0:
64,192,61766,128,0,62345:0:0:0:0:
448,192,61924,128,0,62187:0:0:0:0:
320,192,61924,1,0,0:0:0:0:
448,192,62240,128,0,62661:0:0:0:0:
64,192,62398,128,0,62819:0:0:0:0:
320,192,62556,1,0,0:0:0:0:
192,192,62556,1,0,0:0:0:0:
448,192,62714,128,0,62819:0:0:0:0:
448,192,62871,1,0,0:0:0:0:
64,192,62871,128,0,62977:0:0:0:0:
64,192,63029,1,0,0:0:0:0:
448,192,63029,1,0,0:0:0:0:
448,192,63187,1,0,0:0:0:0:
320,192,63187,1,0,0:0:0:0:
64,192,63345,1,0,0:0:0:0:
192,192,63385,1,0,0:0:0:0:
320,192,63424,1,0,0:0:0:0:
448,192,63464,1,0,0:0:0:0:
192,192,63503,1,0,0:0:0:0:
64,192,63543,1,0,0:0:0:0:
448,192,63582,1,0,0:0:0:0:
320,192,63621,1,0,0:0:0:0:
192,192,63661,1,0,0:0:0:0:
64,192,63819,1,0,0:0:0:0:
448,192,63819,1,0,0:0:0:0:
192,192,63871,1,0,0:0:0:0:
320,192,63924,1,0,0:0:0:0:
64,192,63977,1,0,0:0:0:0:
448,192,64029,1,0,0:0:0:0:
192,192,64082,1,0,0:0:0:0:
64,192,64135,1,0,0:0:0:0:
320,192,64187,1,0,0:0:0:0:
448,192,64240,1,0,0:0:0:0:
64,192,64293,1,0,0:0:0:0:
192,192,64345,1,0,0:0:0:0:
320,192,64398,1,0,0:0:0:0:
64,192,64450,1,0,0:0:0:0:
448,192,64450,1,0,0:0:0:0:
192,192,64556,1,0,0:0:0:0:
448,192,64608,1,0,0:0:0:0:
320,192,64661,1,0,0:0:0:0:
64,192,64714,1,0,0:0:0:0:
448,192,64766,1,0,0:0:0:0:
192,192,64819,1,0,0:0:0:0:
320,192,64871,1,0,0:0:0:0:
448,192,64924,1,0,0:0:0:0:
64,192,64977,1,0,0:0:0:0:
192,192,65029,1,0,0:0:0:0:
448,192,65082,1,0,0:0:0:0:
320,192,65082,1,0,0:0:0:0:
64,192,65135,1,0,0:0:0:0:
192,192,65187,1,0,0:0:0:0:
448,192,65240,128,0,65345:0:0:0:0:
320,192,65293,128,0,65345:0:0:0:0:
192,192,65398,1,0,0:0:0:0:
64,192,65450,1,0,0:0:0:0:
448,192,65503,1,0,0:0:0:0:
320,192,65556,128,0,65661:0:0:0:0:
192,192,65608,128,0,65661:0:0:0:0:
64,192,65714,1,0,0:0:0:0:
448,192,65714,1,0,0:0:0:0:
64,192,65871,1,0,0:0:0:0:
64,192,66029,1,0,0:0:0:0:
64,192,66187,1,0,0:0:0:0:
64,192,66345,1,0,0:0:0:0:
320,192,66345,1,0,0:0:0:0:
448,192,66398,1,0,0:0:0:0:
192,192,66450,1,0,0:0:0:0:
64,192,66503,1,0,0:0:0:0:
320,192,66556,1,0,0:0:0:0:
192,192,66608,1,0,0:0:0:0:
448,192,66661,1,0,0:0:0:0:
320,192,66714,1,0,0:0:0:0:
64,192,66766,1,0,0:0:0:0:
448,192,66819,1,0,0:0:0:0:
192,192,66871,1,0,0:0:0:0:
64,192,66924,1,0,0:0:0:0:
448,192,66977,1,0,0:0:0:0:
320,192,66977,1,0,0:0:0:0:
192,192,67082,1,0,0:0:0:0:
448,192,67135,1,0,0:0:0:0:
320,192,67187,1,0,0:0:0:0:
64,192,67240,1,0,0:0:0:0:
448,192,67293,1,0,0:0:0:0:
192,192,67345,1,0,0:0:0:0:
64,192,67398,1,0,0:0:0:0:
448,192,67450,1,0,0:0:0:0:
320,192,67503,1,0,0:0:0:0:
192,192,67556,1,0,0:0:0:0:
448,192,67608,1,0,0:0:0:0:
64,192,67608,1,0,0:0:0:0:
192,192,67766,1,0,0:0:0:0:
64,192,67766,1,0,0:0:0:0:
320,192,68082,128,0,68187:0:0:0:0:
320,192,68240,128,0,68345:0:0:0:0:
192,192,68240,128,0,68293:0:0:0:0:
192,192,68398,128,0,68556:0:0:0:0:
320,192,68424,128,0,68477:0:0:0:0:
448,192,68450,128,0,68582:0:0:0:0:
320,192,68714,128,0,68819:0:0:0:0:
320,192,68871,128,0,68977:0:0:0:0:
192,192,68871,128,0,68924:0:0:0:0:
448,192,68871,1,0,0:0:0:0:
192,192,69029,128,0,69187:0:0:0:0:
448,192,69082,128,0,69214:0:0:0:0:
64,192,69187,1,0,0:0:0:0:
320,192,69345,128,0,69424:0:0:0:0:
192,192,69371,128,0,69450:0:0:0:0:
64,192,69503,128,0,69582:0:0:0:0:
192,192,69503,1,0,0:0:0:0:
448,192,69529,128,0,69608:0:0:0:0:
64,192,69661,128,0,69740:0:0:0:0:
320,192,69687,128,0,69766:0:0:0:0:
64,192,69819,128,0,69898:0:0:0:0:
192,192,69845,128,0,69924:0:0:0:0:
448,192,69977,128,0,70056:0:0:0:0:
64,192,70003,128,0,70082:0:0:0:0:
448,192,70135,128,0,70214:0:0:0:0:
320,192,70135,1,0,0:0:0:0:
192,192,70161,128,0,70240:0:0:0:0:
448,192,70293,128,0,70398:0:0:0:0:
320,192,70345,128,0,70398:0:0:0:0:
64,192,70450,1,0,0:0:0:0:
192,192,70503,1,0,0:0:0:0:
448,192,70556,1,0,0:0:0:0:
320,192,70608,128,0,70714:0:0:0:0:
192,192,70661,128,0,70714:0:0:0:0:
448,192,70766,128,0,70924:0:0:0:0:
64,192,70766,128,0,70871:0:0:0:0:
192,192,70924,128,0,71029:0:0:0:0:
448,192,70977,128,0,71082:0:0:0:0:
192,192,71082,1,0,0:0:0:0:
448,192,71240,128,0,71345:0:0:0:0:
192,192,71293,128,0,71398:0:0:0:0:
64,192,71398,128,0,71503:0:0:0:0:
448,192,71398,128,0,71556:0:0:0:0:
320,192,71398,1,0,0:0:0:0:
192,192,71556,128,0,71661:0:0:0:0:
448,192,71608,128,0,71714:0:0:0:0:
192,192,71714,1,0,0:0:0:0:
320,192,71766,1,0,0:0:0:0:
448,192,71819,1,0,0:0:0:0:
64,192,71871,128,0,72977:0:0:0:0:
192,192,72029,128,0,72293:0:0:0:0:
448,192,72029,1,0,0:0:0:0:
320,192,72345,128,0,72450:0:0:0:0:
320,192,72503,128,0,72766:0:0:0:0:
320,192,72819,128,0,73135:0:0:0:0:
448,192,72977,128,0,73187:0:0:0:0:
192,192,73135,1,0,0:0:0:0:
320,192,73187,1,0,0:0:0:0:
448,192,73240,1,0,0:0:0:0:
64,192,73293,1,0,0:0:0:0:
192,192,73293,1,0,0:0:0:0:
64,192,73450,1,0,0:0:0:0:
192,192,73608,1,0,0:0:0:0:
64,192,73766,1,0,0:0:0:0:
448,192,73924,1,0,0:0:0:0:
64,192,73924,128,0,74082:0:0:0:0:
320,192,74082,1,0,0:0:0:0:
192,192,74240,1,0,0:0:0:0:
320,192,74398,1,0,0:0:0:0:
64,192,74556,1,0,0:0:0:0:
192,192,74582,1,0,0:0:0:0:
448,192,74714,1,0,0:0:0:0:
320,192,74871,1,0,0:0:0:0:
448,192,75029,1,0,0:0:0:0:
448,192,75187,1,0,0:0:0:0:
64,192,75187,128,0,75345:0:0:0:0:
320,192,75214,1,0,0:0:0:0:
192,192,75345,1,0,0:0:0:0:
320,192,75424,1,0,0:0:0:0:
64,192,75503,1,0,0:0:0:0:
448,192,75582,1,0,0:0:0:0:
192,192,75661,1,0,0:0:0:0:
64,192,75687,1,0,0:0:0:0:
320,192,75740,1,0,0:0:0:0:
448,192,75819,1,0,0:0:0:0:
64,192,75977,1,0,0:0:0:0:
192,192,76135,1,0,0:0:0:0:
64,192,76293,1,0,0:0:0:0:
448,192,76450,1,0,0:0:0:0:
64,192,76450,128,0,76608:0:0:0:0:
320,192,76608,1,0,0:0:0:0:
192,192,76766,1,0,0:0:0:0:
320,192,76924,1,0,0:0:0:0:
64,192,77082,1,0,0:0:0:0:
192,192,77108,1,0,0:0:0:0:
448,192,77240,1,0,0:0:0:0:
320,192,77398,1,0,0:0:0:0:
448,192,77556,1,0,0:0:0:0:
448,192,77714,1,0,0:0:0:0:
64,192,77714,128,0,77871:0:0:0:0:
320,192,77740,1,0,0:0:0:0:
192,192,77871,1,0,0:0:0:0:
64,192,78029,1,0,0:0:0:0:
448,192,78056,1,0,0:0:0:0:
192,192,78187,1,0,0:0:0:0:
320,192,78214,1,0,0:0:0:0:
320,192,78345,1,0,0:0:0:0:
448,192,78345,1,0,0:0:0:0:
64,192,78503,1,0,0:0:0:0:
192,192,78661,1,0,0:0:0:0:
64,192,78819,1,0,0:0:0:0:
64,192,78977,1,0,0:0:0:0:
448,192,78977,128,0,79135:0:0:0:0:
320,192,79135,1,0,0:0:0:0:
192,192,79293,1,0,0:0:0:0:
320,192,79450,1,0,0:0:0:0:
64,192,79608,1,0,0:0:0:0:
192,192,79635,1,0,0:0:0:0:
448,192,79766,1,0,0:0:0:0:
320,192,79924,1,0,0:0:0:0:
448,192,80082,1,0,0:0:0:0:
64,192,80240,1,0,0:0:0:0:
448,192,80240,128,0,80398:0:0:0:0:
320,192,80266,1,0,0:0:0:0:
192,192,80398,1,0,0:0:0:0:
320,192,80477,1,0,0:0:0:0:
64,192,80556,1,0,0:0:0:0:
448,192,80635,1,0,0:0:0:0:
192,192,80714,1,0,0:0:0:0:
64,192,80740,1,0,0:0:0:0:
320,192,80793,1,0,0:0:0:0:
448,192,80871,1,0,0:0:0:0:
64,192,81029,1,0,0:0:0:0:
192,192,81187,1,0,0:0:0:0:
64,192,81345,1,0,0:0:0:0:
64,192,81503,1,0,0:0:0:0:
448,192,81503,128,0,81661:0:0:0:0:
320,192,81661,1,0,0:0:0:0:
192,192,81819,1,0,0:0:0:0:
320,192,81977,1,0,0:0:0:0:
64,192,82135,1,0,0:0:0:0:
448,192,82293,1,0,0:0:0:0:
320,192,82450,1,0,0:0:0:0:
448,192,82608,1,0,0:0:0:0:
320,192,82766,1,0,0:0:0:0:
448,192,82766,1,0,0:0:0:0:
448,192,83398,1,0,0:0:0:0:
320,192,83398,1,0,0:0:0:0:
64,192,83556,1,0,0:0:0:0:
192,192,83714,1,0,0:0:0:0:
64,192,83871,1,0,0:0:0:0:
448,192,84029,1,0,0:0:0:0:
64,192,84029,128,0,84082:0:0:0:0:
320,192,84187,1,0,0:0:0:0:
192,192,84345,1,0,0:0:0:0:
320,192,84503,1,0,0:0:0:0:
64,192,84661,1,0,0:0:0:0:
192,192,84687,1,0,0:0:0:0:
448,192,84819,1,0,0:0:0:0:
320,192,84977,1,0,0:0:0:0:
448,192,85135,1,0,0:0:0:0:
448,192,85293,1,0,0:0:0:0:
64,192,85293,128,0,85345:0:0:0:0:
192,192,85450,1,0,0:0:0:0:
64,192,85608,1,0,0:0:0:0:
192,192,85766,1,0,0:0:0:0:
320,192,85793,1,0,0:0:0:0:
64,192,86082,1,0,0:0:0:0:
192,192,86240,1,0,0:0:0:0:
64,192,86398,1,0,0:0:0:0:
448,192,86556,1,0,0:0:0:0:
64,192,86556,128,0,86608:0:0:0:0:
320,192,86714,1,0,0:0:0:0:
192,192,86871,1,0,0:0:0:0:
320,192,87029,1,0,0:0:0:0:
192,192,87187,1,0,0:0:0:0:
64,192,87214,1,0,0:0:0:0:
448,192,87345,1,0,0:0:0:0:
320,192,87503,1,0,0:0:0:0:
448,192,87661,1,0,0:0:0:0:
64,192,87819,128,0,87977:0:0:0:0:
448,192,87819,1,0,0:0:0:0:
192,192,87977,1,0,0:0:0:0:
64,192,88135,1,0,0:0:0:0:
192,192,88293,1,0,0:0:0:0:
320,192,88319,1,0,0:0:0:0:
64,192,88608,1,0,0:0:0:0:
192,192,88766,1,0,0:0:0:0:
64,192,88924,1,0,0:0:0:0:
448,192,89082,128,0,89135:0:0:0:0:
64,192,89082,1,0,0:0:0:0:
320,192,89240,1,0,0:0:0:0:
192,192,89398,1,0,0:0:0:0:
320,192,89556,1,0,0:0:0:0:
64,192,89714,1,0,0:0:0:0:
192,192,89740,1,0,0:0:0:0:
448,192,89871,1,0,0:0:0:0:
320,192,90029,1,0,0:0:0:0:
448,192,90187,1,0,0:0:0:0:
448,192,90345,128,0,90398:0:0:0:0:
64,192,90345,1,0,0:0:0:0:
192,192,90503,1,0,0:0:0:0:
64,192,90661,1,0,0:0:0:0:
192,192,90819,1,0,0:0:0:0:
320,192,90845,1,0,0:0:0:0:
64,192,91135,1,0,0:0:0:0:
192,192,91293,1,0,0:0:0:0:
64,192,91450,1,0,0:0:0:0:
64,192,91608,1,0,0:0:0:0:
448,192,91608,128,0,91661:0:0:0:0:
320,192,91766,1,0,0:0:0:0:
192,192,91924,128,0,92319:0:0:0:0:
320,192,92082,1,0,0:0:0:0:
192,192,92398,128,0,92871:0:0:0:0:
320,192,92556,1,0,0:0:0:0:
448,192,92714,1,0,0:0:0:0:
448,192,92871,128,0,92924:0:0:0:0:
64,192,92871,1,0,0:0:0:0:
320,192,93503,1,0,0:0:0:0:
192,192,93503,1,0,0:0:0:0:
448,192,93503,128,0,93740:0:0:0:0:
64,192,93661,1,0,0:0:0:0:
192,192,93819,1,0,0:0:0:0:
64,192,93977,1,0,0:0:0:0:
448,192,94135,1,0,0:0:0:0:
64,192,94135,128,0,94293:0:0:0:0:
192,192,94135,1,0,0:0:0:0:
320,192,94293,1,0,0:0:0:0:
192,192,94450,128,0,94687:0:0:0:0:
320,192,94608,1,0,0:0:0:0:
64,192,94766,128,0,95003:0:0:0:0:
192,192,94766,1,0,0:0:0:0:
320,192,94924,1,0,0:0:0:0:
448,192,95082,128,0,95161:0:0:0:0:
320,192,95240,128,0,95319:0:0:0:0:
448,192,95398,1,0,0:0:0:0:
64,192,95398,128,0,95556:0:0:0:0:
320,192,95398,1,0,0:0:0:0:
192,192,95556,128,0,95635:0:0:0:0:
192,192,95714,128,0,95950:0:0:0:0:
320,192,95871,1,0,0:0:0:0:
448,192,96029,1,0,0:0:0:0:
320,192,96029,1,0,0:0:0:0:
64,192,96187,1,0,0:0:0:0:
192,192,96345,1,0,0:0:0:0:
64,192,96503,1,0,0:0:0:0:
448,192,96661,1,0,0:0:0:0:
64,192,96661,128,0,96819:0:0:0:0:
192,192,96661,1,0,0:0:0:0:
320,192,96819,1,0,0:0:0:0:
192,192,96977,128,0,97214:0:0:0:0:
320,192,97135,1,0,0:0:0:0:
64,192,97293,1,0,0:0:0:0:
320,192,97293,128,0,97529:0:0:0:0:
448,192,97450,1,0,0:0:0:0:
320,192,97608,128,0,97687:0:0:0:0:
448,192,97766,128,0,97845:0:0:0:0:
64,192,97924,128,0,98082:0:0:0:0:
448,192,97924,1,0,0:0:0:0:
320,192,97924,1,0,0:0:0:0:
192,192,98082,128,0,98161:0:0:0:0:
64,192,98240,128,0,98477:0:0:0:0:
192,192,98398,1,0,0:0:0:0:
192,192,98556,1,0,0:0:0:0:
64,192,98556,1,0,0:0:0:0:
320,192,98556,1,0,0:0:0:0:
448,192,98556,1,0,0:0:0:0:
64,192,98714,1,0,0:0:0:0:
192,192,98871,1,0,0:0:0:0:
64,192,99029,1,0,0:0:0:0:
64,192,99187,1,0,0:0:0:0:
448,192,99187,128,0,99345:0:0:0:0:
192,192,99187,1,0,0:0:0:0:
320,192,99345,1,0,0:0:0:0:
192,192,99503,128,0,99582:0:0:0:0:
320,192,99661,128,0,99898:0:0:0:0:
192,192,99819,1,0,0:0:0:0:
64,192,99819,1,0,0:0:0:0:
448,192,99977,1,0,0:0:0:0:
320,192,100135,1,0,0:0:0:0:
448,192,100293,1,0,0:0:0:0:
64,192,100450,1,0,0:0:0:0:
448,192,100450,128,0,100608:0:0:0:0:
320,192,100450,1,0,0:0:0:0:
192,192,100608,1,0,0:0:0:0:
64,192,100766,128,0,101003:0:0:0:0:
192,192,100924,128,0,101240:0:0:0:0:
64,192,101082,128,0,101319:0:0:0:0:
320,192,101082,1,0,0:0:0:0:
448,192,101240,1,0,0:0:0:0:
320,192,101398,128,0,101635:0:0:0:0:
192,192,101556,128,0,101871:0:0:0:0:
320,192,101714,128,0,101950:0:0:0:0:
448,192,101714,128,0,101871:0:0:0:0:
64,192,101871,1,0,0:0:0:0:
448,192,102029,128,0,102266:0:0:0:0:
320,192,102187,128,0,102503:0:0:0:0:
448,192,102345,128,0,102582:0:0:0:0:
64,192,102345,1,0,0:0:0:0:
192,192,102503,1,0,0:0:0:0:
64,192,102661,128,0,102977:0:0:0:0:
192,192,102819,128,0,103056:0:0:0:0:
320,192,102977,128,0,103371:0:0:0:0:
448,192,102977,1,0,0:0:0:0:
192,192,103135,128,0,103529:0:0:0:0:
320,192,103450,128,0,103608:0:0:0:0:
192,192,103608,1,0,0:0:0:0:
64,192,103608,1,0,0:0:0:0:
448,192,103608,128,0,103924:0:0:0:0:
192,192,103924,128,0,104871:0:0:0:0:
448,192,104871,1,0,0:0:0:0:
64,192,104871,128,0,105029:0:0:0:0:
64,192,105503,128,0,106135:0:0:0:0:
448,192,105582,128,0,106056:0:0:0:0:
192,192,105661,1,0,0:0:0:0:
192,192,105819,1,0,0:0:0:0:
192,192,105977,1,0,0:0:0:0:
448,192,106135,1,0,0:0:0:0:
320,192,106135,128,0,107398:0:0:0:0:
192,192,106214,128,0,107398:0:0:0:0:
64,192,106766,128,0,107003:0:0:0:0:
448,192,106845,128,0,106924:0:0:0:0:
448,192,107398,1,0,0:0:0:0:
64,192,107398,128,0,107556:0:0:0:0:
448,192,108029,128,0,108582:0:0:0:0:
320,192,108108,128,0,108582:0:0:0:0:
192,192,108187,1,0,0:0:0:0:
192,192,108345,1,0,0:0:0:0:
192,192,108503,1,0,0:0:0:0:
320,192,108661,128,0,109924:0:0:0:0:
64,192,108661,1,0,0:0:0:0:
448,192,108661,1,0,0:0:0:0:
192,192,109293,128,0,109529:0:0:0:0:
448,192,109371,128,0,109450:0:0:0:0:
448,192,109924,1,0,0:0:0:0:
64,192,109924,128,0,110082:0:0:0:0:
192,192,110240,128,0,110398:0:0:0:0:
448,192,110398,128,0,110871:0:0:0:0:
192,192,110714,1,0,0:0:0:0:
64,192,110871,128,0,111029:0:0:0:0:
192,192,110871,1,0,0:0:0:0:
320,192,111029,128,0,112135:0:0:0:0:
192,192,111029,1,0,0:0:0:0:
448,192,111187,1,0,0:0:0:0:
64,192,111187,1,0,0:0:0:0:
64,192,112135,128,0,112214:0:0:0:0:
320,192,112371,128,0,112424:0:0:0:0:
64,192,112450,128,0,112608:0:0:0:0:
448,192,112450,1,0,0:0:0:0:
320,192,112582,128,0,112635:0:0:0:0:
320,192,112766,128,0,112819:0:0:0:0:
320,192,112950,128,0,113003:0:0:0:0:
192,192,113240,1,0,0:0:0:0:
320,192,113398,128,0,113635:0:0:0:0:
192,192,113398,1,0,0:0:0:0:
192,192,113556,1,0,0:0:0:0:
64,192,113714,1,0,0:0:0:0:
320,192,113714,1,0,0:0:0:0:
448,192,113714,128,0,114029:0:0:0:0:
64,192,114187,128,0,114503:0:0:0:0:
192,192,114266,128,0,114424:0:0:0:0:
320,192,114661,128,0,114977:0:0:0:0:
448,192,114740,128,0,114898:0:0:0:0:
64,192,114977,1,0,0:0:0:0:
448,192,114977,128,0,115135:0:0:0:0:
192,192,115766,1,0,0:0:0:0:
64,192,115924,128,0,116161:0:0:0:0:
192,192,115924,1,0,0:0:0:0:
192,192,116082,1,0,0:0:0:0:
64,192,116240,128,0,116556:0:0:0:0:
320,192,116240,1,0,0:0:0:0:
320,192,116714,128,0,117029:0:0:0:0:
192,192,116793,128,0,116950:0:0:0:0:
192,192,117187,128,0,117503:0:0:0:0:
320,192,117266,128,0,117424:0:0:0:0:
64,192,117503,1,0,0:0:0:0:
448,192,117503,128,0,117661:0:0:0:0:
64,192,118135,128,0,118293:0:0:0:0:
448,192,118293,128,0,118450:0:0:0:0:
192,192,118293,1,0,0:0:0:0:
192,192,118450,1,0,0:0:0:0:
320,192,118450,128,0,118687:0:0:0:0:
192,192,118608,1,0,0:0:0:0:
64,192,118766,1,0,0:0:0:0:
448,192,118766,1,0,0:0:0:0:
320,192,118766,128,0,120029:0:0:0:0:
64,192,119398,128,0,119450:0:0:0:0:
448,192,119556,128,0,119608:0:0:0:0:
192,192,119714,128,0,119766:0:0:0:0:
64,192,120029,128,0,121214:0:0:0:0:
448,192,120029,128,0,120187:0:0:0:0:
448,192,120661,128,0,121214:0:0:0:0:
192,192,120819,5,0,0:0:0:0:
192,192,120977,1,0,0:0:0:0:
192,192,121135,1,0,0:0:0:0:
320,192,121293,1,0,0:0:0:0:
448,192,121293,1,0,0:0:0:0:
192,192,121608,128,0,121924:0:0:0:0:
448,192,121924,128,0,122240:0:0:0:0:
64,192,122240,128,0,122556:0:0:0:0:
320,192,122556,128,0,122871:0:0:0:0:
192,192,122871,128,0,123187:0:0:0:0:
448,192,123187,128,0,123740:0:0:0:0:
64,192,123503,128,0,123740:0:0:0:0:
192,192,123661,128,0,123740:0:0:0:0:
64,192,123819,128,0,124687:0:0:0:0:
448,192,123819,128,0,124766:0:0:0:0:
192,192,123819,128,0,124371:0:0:0:0:
320,192,123819,128,0,124056:0:0:0:0:
320,192,124135,128,0,124214:0:0:0:0:
192,192,124450,128,0,124529:0:0:0:0:
64,192,124766,128,0,124845:0:0:0:0:
320,192,125398,128,0,125714:0:0:0:0:
448,192,125714,128,0,126029:0:0:0:0:
192,192,126029,128,0,126582:0:0:0:0:
320,192,126187,128,0,126898:0:0:0:0:
448,192,126345,128,0,127214:0:0:0:0:
64,192,126345,128,0,127293:0:0:0:0:
192,192,126661,128,0,126740:0:0:0:0:
320,192,126977,128,0,127056:0:0:0:0:
448,192,127293,128,0,127371:0:0:0:0:
320,192,127924,128,0,128240:0:0:0:0:
192,192,128240,128,0,128556:0:0:0:0:
448,192,128556,128,0,128871:0:0:0:0:
320,192,128714,128,0,129108:0:0:0:0:
192,192,128871,1,0,0:0:0:0:
64,192,128871,128,0,129819:0:0:0:0:
320,192,129187,128,0,129266:0:0:0:0:
320,192,129345,128,0,129819:0:0:0:0:
448,192,129819,128,0,129898:0:0:0:0:
192,192,129977,128,0,130293:0:0:0:0:
320,192,130450,128,0,130608:0:0:0:0:
448,192,130608,128,0,130924:0:0:0:0:
64,192,130924,128,0,131003:0:0:0:0:
64,192,131082,128,0,132029:0:0:0:0:
448,192,131398,128,0,131477:0:0:0:0:
192,192,131714,128,0,131793:0:0:0:0:
320,192,132029,128,0,132108:0:0:0:0:
448,192,132345,128,0,132424:0:0:0:0:
448,192,132977,128,0,133529:0:0:0:0:
320,192,133293,128,0,133687:0:0:0:0:
448,192,133608,128,0,133845:0:0:0:0:
320,192,133766,128,0,133845:0:0:0:0:
320,192,133924,128,0,134950:0:0:0:0:
64,192,133924,1,0,0:0:0:0:
448,192,133924,128,0,135503:0:0:0:0:
64,192,134398,1,0,0:0:0:0:
64,192,134556,1,0,0:0:0:0:
64,192,134871,1,0,0:0:0:0:
320,192,135029,128,0,135424:0:0:0:0:
64,192,135345,1,0,0:0:0:0:
192,192,135424,1,0,0:0:0:0:
64,192,135503,128,0,136056:0:0:0:0:
320,192,135503,1,0,0:0:0:0:
192,192,135819,128,0,136214:0:0:0:0:
320,192,135819,1,0,0:0:0:0:
320,192,136135,1,0,0:0:0:0:
64,192,136135,128,0,136371:0:0:0:0:
192,192,136293,128,0,136371:0:0:0:0:
320,192,136371,1,0,0:0:0:0:
64,192,136450,128,0,138029:0:0:0:0:
448,192,136450,1,0,0:0:0:0:
192,192,136450,128,0,137477:0:0:0:0:
448,192,136924,1,0,0:0:0:0:
448,192,137082,1,0,0:0:0:0:
448,192,137398,1,0,0:0:0:0:
192,192,137556,128,0,137950:0:0:0:0:
448,192,137871,1,0,0:0:0:0:
320,192,137950,1,0,0:0:0:0:
192,192,138029,1,0,0:0:0:0:
448,192,138029,128,0,138898:0:0:0:0:
192,192,138345,1,0,0:0:0:0:
320,192,138345,128,0,138740:0:0:0:0:
64,192,138661,1,0,0:0:0:0:
192,192,138740,1,0,0:0:0:0:
320,192,138819,128,0,138898:0:0:0:0:
192,192,138898,1,0,0:0:0:0:
320,192,138977,128,0,140161:0:0:0:0:
64,192,138977,1,0,0:0:0:0:
448,192,138977,128,0,141266:0:0:0:0:
64,192,139135,1,0,0:0:0:0:
192,192,139293,1,0,0:0:0:0:
64,192,139450,1,0,0:0:0:0:
64,192,139608,1,0,0:0:0:0:
192,192,139766,1,0,0:0:0:0:
64,192,139924,1,0,0:0:0:0:
64,192,140082,1,0,0:0:0:0:
320,192,140240,128,0,140319:0:0:0:0:
320,192,140398,128,0,140477:0:0:0:0:
192,192,140477,1,0,0:0:0:0:
320,192,140556,128,0,140635:0:0:0:0:
64,192,140556,1,0,0:0:0:0:
320,192,140714,128,0,140793:0:0:0:0:
320,192,140871,128,0,140950:0:0:0:0:
64,192,140871,1,0,0:0:0:0:
320,192,141029,128,0,141108:0:0:0:0:
64,192,141029,1,0,0:0:0:0:
320,192,141187,128,0,141266:0:0:0:0:
64,192,141187,1,0,0:0:0:0:
448,192,141345,128,0,141424:0:0:0:0:
320,192,141424,1,0,0:0:0:0:
448,192,141503,128,0,141582:0:0:0:0:
192,192,141503,1,0,0:0:0:0:
448,192,141661,128,0,141740:0:0:0:0:
192,192,141661,1,0,0:0:0:0:
448,192,141819,128,0,142608:0:0:0:0:
192,192,141819,1,0,0:0:0:0:
320,192,141977,128,0,142214:0:0:0:0:
64,192,141977,1,0,0:0:0:0:
64,192,142135,1,0,0:0:0:0:
320,192,142293,128,0,142582:0:0:0:0:
64,192,142293,1,0,0:0:0:0:
192,192,142450,128,0,142556:0:0:0:0:
64,192,142450,1,0,0:0:0:0:
64,192,142608,1,0,0:0:0:0:
448,192,142766,128,0,143345:0:0:0:0:
192,192,142793,1,0,0:0:0:0:
64,192,142819,1,0,0:0:0:0:
448,192,143398,128,0,143714:0:0:0:0:
64,192,143714,1,0,0:0:0:0:
192,192,143753,1,0,0:0:0:0:
320,192,143793,1,0,0:0:0:0:
448,192,143832,1,0,0:0:0:0:
64,192,143871,1,0,0:0:0:0:
192,192,143911,1,0,0:0:0:0:
320,192,143950,1,0,0:0:0:0:
64,192,144029,1,0,0:0:0:0:
192,192,144029,1,0,0:0:0:0:
448,192,144029,1,0,0:0:0:0:
64,192,144187,1,0,0:0:0:0:
192,192,144227,1,0,0:0:0:0:
320,192,144266,1,0,0:0:0:0:
448,192,144306,1,0,0:0:0:0:
192,192,144345,1,0,0:0:0:0:
64,192,144385,1,0,0:0:0:0:
448,192,144424,1,0,0:0:0:0:
320,192,144464,1,0,0:0:0:0:
192,192,144503,1,0,0:0:0:0:
448,192,144661,1,0,0:0:0:0:
320,192,144661,1,0,0:0:0:0:
64,192,144819,1,0,0:0:0:0:
192,192,144858,1,0,0:0:0:0:
320,192,144898,1,0,0:0:0:0:
448,192,144937,1,0,0:0:0:0:
192,192,144977,1,0,0:0:0:0:
64,192,145016,1,0,0:0:0:0:
448,192,145056,1,0,0:0:0:0:
320,192,145095,1,0,0:0:0:0:
192,192,145135,1,0,0:0:0:0:
448,192,145293,1,0,0:0:0:0:
64,192,145293,1,0,0:0:0:0:
64,192,145450,1,0,0:0:0:0:
192,192,145490,1,0,0:0:0:0:
320,192,145529,1,0,0:0:0:0:
448,192,145569,1,0,0:0:0:0:
192,192,145608,1,0,0:0:0:0:
64,192,145648,1,0,0:0:0:0:
448,192,145687,1,0,0:0:0:0:
320,192,145727,1,0,0:0:0:0:
192,192,145766,128,0,145924:0:0:0:0:
320,192,145924,1,0,0:0:0:0:
448,192,145924,1,0,0:0:0:0:
64,192,146082,128,0,146187:0:0:0:0:
192,192,146135,128,0,146187:0:0:0:0:
448,192,146240,128,0,146398:0:0:0:0:
64,192,146293,128,0,146398:0:0:0:0:
192,192,146398,128,0,146503:0:0:0:0:
320,192,146450,128,0,146503:0:0:0:0:
64,192,146556,1,0,0:0:0:0:
448,192,146556,1,0,0:0:0:0:
192,192,146608,1,0,0:0:0:0:
320,192,146661,1,0,0:0:0:0:
64,192,146714,1,0,0:0:0:0:
448,192,146766,1,0,0:0:0:0:
192,192,146819,1,0,0:0:0:0:
64,192,146871,1,0,0:0:0:0:
320,192,146924,1,0,0:0:0:0:
448,192,146977,1,0,0:0:0:0:
64,192,147029,1,0,0:0:0:0:
320,192,147082,1,0,0:0:0:0:
192,192,147135,1,0,0:0:0:0:
64,192,147187,1,0,0:0:0:0:
448,192,147187,1,0,0:0:0:0:
320,192,147240,1,0,0:0:0:0:
192,192,147293,1,0,0:0:0:0:
448,192,147345,1,0,0:0:0:0:
64,192,147398,1,0,0:0:0:0:
320,192,147450,1,0,0:0:0:0:
448,192,147503,1,0,0:0:0:0:
192,192,147556,1,0,0:0:0:0:
320,192,147608,1,0,0:0:0:0:
448,192,147661,1,0,0:0:0:0:
64,192,147714,1,0,0:0:0:0:
192,192,147766,1,0,0:0:0:0:
448,192,147819,1,0,0:0:0:0:
320,192,147819,1,0,0:0:0:0:
192,192,147924,1,0,0:0:0:0:
64,192,147977,1,0,0:0:0:0:
448,192,148029,1,0,0:0:0:0:
320,192,148082,1,0,0:0:0:0:
64,192,148135,1,0,0:0:0:0:
448,192,148187,1,0,0:0:0:0:
192,192,148240,1,0,0:0:0:0:
64,192,148293,1,0,0:0:0:0:
320,192,148345,1,0,0:0:0:0:
192,192,148398,1,0,0:0:0:0:
64,192,148450,1,0,0:0:0:0:
448,192,148450,1,0,0:0:0:0:
448,192,148608,1,0,0:0:0:0:
320,192,148608,1,0,0:0:0:0:
448,192,148924,128,0,149029:0:0:0:0:
448,192,149082,128,0,149187:0:0:0:0:
192,192,149082,128,0,149135:0:0:0:0:
448,192,149240,128,0,149398:0:0:0:0:
192,192,149266,128,0,149319:0:0:0:0:
64,192,149293,128,0,149424:0:0:0:0:
448,192,149556,128,0,149661:0:0:0:0:
192,192,149714,128,0,149766:0:0:0:0:
448,192,149714,128,0,149819:0:0:0:0:
64,192,149714,1,0,0:0:0:0:
448,192,149871,128,0,150029:0:0:0:0:
64,192,149924,128,0,150056:0:0:0:0:
320,192,150029,1,0,0:0:0:0:
320,192,150187,128,0,150266:0:0:0:0:
192,192,150214,128,0,150293:0:0:0:0:
64,192,150345,128,0,150424:0:0:0:0:
192,192,150345,1,0,0:0:0:0:
448,192,150371,128,0,150450:0:0:0:0:
64,192,150503,128,0,150582:0:0:0:0:
320,192,150529,128,0,150608:0:0:0:0:
64,192,150661,128,0,150740:0:0:0:0:
192,192,150687,128,0,150766:0:0:0:0:
448,192,150819,128,0,150898:0:0:0:0:
64,192,150845,128,0,150924:0:0:0:0:
448,192,150977,128,0,151056:0:0:0:0:
320,192,150977,1,0,0:0:0:0:
192,192,151003,128,0,151082:0:0:0:0:
448,192,151135,128,0,151240:0:0:0:0:
320,192,151187,128,0,151240:0:0:0:0:
64,192,151293,1,0,0:0:0:0:
192,192,151345,1,0,0:0:0:0:
448,192,151398,1,0,0:0:0:0:
320,192,151450,128,0,151556:0:0:0:0:
192,192,151503,128,0,151556:0:0:0:0:
320,192,151608,128,0,151714:0:0:0:0:
448,192,151608,128,0,151766:0:0:0:0:
192,192,151766,128,0,151871:0:0:0:0:
448,192,151819,128,0,151924:0:0:0:0:
192,192,151924,1,0,0:0:0:0:
320,192,152082,128,0,152187:0:0:0:0:
192,192,152135,128,0,152240:0:0:0:0:
64,192,152240,1,0,0:0:0:0:
448,192,152240,128,0,152398:0:0:0:0:
320,192,152240,128,0,152345:0:0:0:0:
192,192,152398,128,0,152503:0:0:0:0:
448,192,152450,128,0,152556:0:0:0:0:
192,192,152556,1,0,0:0:0:0:
64,192,152714,128,0,153503:0:0:0:0:
448,192,152871,128,0,153135:0:0:0:0:
320,192,152871,1,0,0:0:0:0:
448,192,153187,128,0,153293:0:0:0:0:
192,192,153345,128,0,153608:0:0:0:0:
448,192,153503,1,0,0:0:0:0:
320,192,153503,1,0,0:0:0:0:
64,192,153661,1,0,0:0:0:0:
448,192,153661,128,0,153766:0:0:0:0:
448,192,153819,1,0,0:0:0:0:
64,192,153819,128,0,153924:0:0:0:0:
448,192,153977,1,0,0:0:0:0:
64,192,153977,1,0,0:0:0:0:
320,192,154135,1,0,0:0:0:0:
448,192,154135,1,0,0:0:0:0:
64,192,154293,1,0,0:0:0:0:
192,192,154332,1,0,0:0:0:0:
320,192,154371,1,0,0:0:0:0:
448,192,154411,1,0,0:0:0:0:
192,192,154450,1,0,0:0:0:0:
64,192,154490,1,0,0:0:0:0:
448,192,154529,1,0,0:0:0:0:
320,192,154569,1,0,0:0:0:0:
192,192,154608,1,0,0:0:0:0:
448,192,154766,1,0,0:0:0:0:
64,192,154766,1,0,0:0:0:0:
192,192,154819,1,0,0:0:0:0:
320,192,154871,1,0,0:0:0:0:
64,192,154924,1,0,0:0:0:0:
448,192,154977,1,0,0:0:0:0:
192,192,155029,1,0,0:0:0:0:
64,192,155082,1,0,0:0:0:0:
320,192,155135,1,0,0:0:0:0:
448,192,155187,1,0,0:0:0:0:
64,192,155240,1,0,0:0:0:0:
192,192,155293,1,0,0:0:0:0:
320,192,155345,1,0,0:0:0:0:
448,192,155398,1,0,0:0:0:0:
64,192,155398,1,0,0:0:0:0:
192,192,155503,1,0,0:0:0:0:
448,192,155556,1,0,0:0:0:0:
320,192,155608,1,0,0:0:0:0:
64,192,155661,1,0,0:0:0:0:
448,192,155714,1,0,0:0:0:0:
192,192,155766,1,0,0:0:0:0:
320,192,155819,1,0,0:0:0:0:
448,192,155871,1,0,0:0:0:0:
64,192,155924,1,0,0:0:0:0:
192,192,155977,1,0,0:0:0:0:
320,192,156029,1,0,0:0:0:0:
448,192,156029,1,0,0:0:0:0:
64,192,156082,1,0,0:0:0:0:
192,192,156135,1,0,0:0:0:0:
448,192,156187,128,0,156293:0:0:0:0:
320,192,156240,128,0,156293:0:0:0:0:
192,192,156345,1,0,0:0:0:0:
64,192,156398,1,0,0:0:0:0:
448,192,156450,1,0,0:0:0:0:
320,192,156503,128,0,156608:0:0:0:0:
192,192,156556,128,0,156608:0:0:0:0:
448,192,156661,1,0,0:0:0:0:
64,192,156661,1,0,0:0:0:0:
64,192,156819,1,0,0:0:0:0:
64,192,156977,1,0,0:0:0:0:
64,192,157135,1,0,0:0:0:0:
448,192,157293,1,0,0:0:0:0:
64,192,157293,1,0,0:0:0:0:
320,192,157345,1,0,0:0:0:0:
192,192,157398,1,0,0:0:0:0:
64,192,157450,1,0,0:0:0:0:
320,192,157503,1,0,0:0:0:0:
192,192,157556,1,0,0:0:0:0:
448,192,157608,1,0,0:0:0:0:
320,192,157661,1,0,0:0:0:0:
64,192,157714,1,0,0:0:0:0:
448,192,157766,1,0,0:0:0:0:
192,192,157819,1,0,0:0:0:0:
64,192,157871,1,0,0:0:0:0:
320,192,157924,1,0,0:0:0:0:
448,192,157924,1,0,0:0:0:0:
192,192,158029,1,0,0:0:0:0:
448,192,158082,1,0,0:0:0:0:
320,192,158135,1,0,0:0:0:0:
64,192,158187,1,0,0:0:0:0:
448,192,158240,1,0,0:0:0:0:
192,192,158293,1,0,0:0:0:0:
64,192,158345,1,0,0:0:0:0:
448,192,158398,1,0,0:0:0:0:
320,192,158450,1,0,0:0:0:0:
192,192,158503,1,0,0:0:0:0:
64,192,158556,1,0,0:0:0:0:
448,192,158556,1,0,0:0:0:0:
64,192,158714,1,0,0:0:0:0:
192,192,158714,1,0,0:0:0:0:
448,192,159029,128,0,159135:0:0:0:0:
192,192,159187,128,0,159240:0:0:0:0:
448,192,159187,128,0,159293:0:0:0:0:
448,192,159345,128,0,159503:0:0:0:0:
192,192,159371,128,0,159424:0:0:0:0:
64,192,159398,128,0,159529:0:0:0:0:
448,192,159661,128,0,159766:0:0:0:0:
64,192,159819,1,0,0:0:0:0:
448,192,159819,128,0,159924:0:0:0:0:
192,192,159819,128,0,159871:0:0:0:0:
448,192,159977,128,0,160135:0:0:0:0:
64,192,160029,128,0,160161:0:0:0:0:
320,192,160135,1,0,0:0:0:0:
320,192,160293,128,0,160371:0:0:0:0:
192,192,160319,128,0,160398:0:0:0:0:
192,192,160450,1,0,0:0:0:0:
64,192,160450,128,0,160529:0:0:0:0:
448,192,160477,128,0,160556:0:0:0:0:
64,192,160608,128,0,160687:0:0:0:0:
320,192,160635,128,0,160714:0:0:0:0:
64,192,160766,128,0,160845:0:0:0:0:
192,192,160793,128,0,160871:0:0:0:0:
448,192,160924,128,0,161003:0:0:0:0:
64,192,160950,128,0,161029:0:0:0:0:
320,192,161082,1,0,0:0:0:0:
448,192,161082,128,0,161161:0:0:0:0:
192,192,161108,128,0,161187:0:0:0:0:
448,192,161240,128,0,161345:0:0:0:0:
320,192,161293,128,0,161345:0:0:0:0:
64,192,161398,1,0,0:0:0:0:
192,192,161450,1,0,0:0:0:0:
448,192,161503,1,0,0:0:0:0:
320,192,161556,128,0,161661:0:0:0:0:
192,192,161608,128,0,161661:0:0:0:0:
448,192,161714,128,0,161871:0:0:0:0:
320,192,161714,128,0,161819:0:0:0:0:
192,192,161871,128,0,161977:0:0:0:0:
448,192,161924,128,0,162029:0:0:0:0:
192,192,162029,1,0,0:0:0:0:
320,192,162187,128,0,162293:0:0:0:0:
192,192,162240,128,0,162345:0:0:0:0:
320,192,162345,128,0,162450:0:0:0:0:
448,192,162345,128,0,162503:0:0:0:0:
64,192,162345,1,0,0:0:0:0:
192,192,162503,128,0,162608:0:0:0:0:
448,192,162556,128,0,162661:0:0:0:0:
192,192,162661,1,0,0:0:0:0:
64,192,162714,1,0,0:0:0:0:
448,192,162766,1,0,0:0:0:0:
320,192,162819,128,0,163398:0:0:0:0:
64,192,162977,128,0,163240:0:0:0:0:
448,192,162977,1,0,0:0:0:0:
64,192,163293,128,0,163529:0:0:0:0:
320,192,163450,128,0,164029:0:0:0:0:
64,192,163608,1,0,0:0:0:0:
192,192,163608,1,0,0:0:0:0:
64,192,163766,128,0,163871:0:0:0:0:
192,192,163766,1,0,0:0:0:0:
64,192,163924,1,0,0:0:0:0:
192,192,163924,128,0,164029:0:0:0:0:
192,192,164082,1,0,0:0:0:0:
64,192,164082,1,0,0:0:0:0:
64,192,164240,1,0,0:0:0:0:
320,192,164240,1,0,0:0:0:0:
448,192,164240,1,0,0:0:0:0:
192,192,164398,1,0,0:0:0:0:
320,192,164398,1,0,0:0:0:0:
320,192,164556,1,0,0:0:0:0:
448,192,164556,1,0,0:0:0:0:
192,192,164871,1,0,0:0:0:0:
320,192,165029,1,0,0:0:0:0:
448,192,165029,1,0,0:0:0:0:
320,192,165503,1,0,0:0:0:0:
448,192,165503,1,0,0:0:0:0:
64,192,165898,1,0,0:0:0:0:
192,192,165937,1,0,0:0:0:0:
320,192,165977,1,0,0:0:0:0:
448,192,165977,1,0,0:0:0:0:
320,192,166293,128,0,166371:0:0:0:0:
64,192,166293,1,0,0:0:0:0:
192,192,166450,128,0,166529:0:0:0:0:
320,192,166608,128,0,166687:0:0:0:0:
448,192,166766,1,0,0:0:0:0:
192,192,166766,1,0,0:0:0:0:
64,192,166766,1,0,0:0:0:0:
320,192,166924,1,0,0:0:0:0:
192,192,166924,1,0,0:0:0:0:
192,192,167082,1,0,0:0:0:0:
64,192,167082,1,0,0:0:0:0:
320,192,167398,1,0,0:0:0:0:
192,192,167556,1,0,0:0:0:0:
64,192,167556,1,0,0:0:0:0:
192,192,167871,1,0,0:0:0:0:
64,192,167871,1,0,0:0:0:0:
320,192,167950,1,0,0:0:0:0:
448,192,167950,1,0,0:0:0:0:
192,192,168029,1,0,0:0:0:0:
64,192,168029,1,0,0:0:0:0:
448,192,168424,1,0,0:0:0:0:
320,192,168464,1,0,0:0:0:0:
192,192,168503,1,0,0:0:0:0:
64,192,168503,1,0,0:0:0:0:
320,192,168661,1,0,0:0:0:0:
192,192,168819,128,0,168924:0:0:0:0:
448,192,168819,1,0,0:0:0:0:
320,192,168977,128,0,169082:0:0:0:0:
192,192,169135,128,0,169240:0:0:0:0:
64,192,169293,1,0,0:0:0:0:
320,192,169293,1,0,0:0:0:0:
448,192,169293,1,0,0:0:0:0:
192,192,169450,1,0,0:0:0:0:
320,192,169450,1,0,0:0:0:0:
448,192,169608,1,0,0:0:0:0:
320,192,169608,1,0,0:0:0:0:
448,192,169924,1,0,0:0:0:0:
64,192,169924,1,0,0:0:0:0:
320,192,170082,1,0,0:0:0:0:
448,192,170082,1,0,0:0:0:0:
320,192,170556,1,0,0:0:0:0:
448,192,170556,1,0,0:0:0:0:
64,192,170950,1,0,0:0:0:0:
192,192,170990,1,0,0:0:0:0:
448,192,171029,1,0,0:0:0:0:
320,192,171029,1,0,0:0:0:0:
448,192,171187,1,0,0:0:0:0:
64,192,171187,1,0,0:0:0:0:
320,192,171345,128,0,171464:0:0:0:0:
64,192,171345,1,0,0:0:0:0:
192,192,171503,128,0,171621:0:0:0:0:
320,192,171661,128,0,171779:0:0:0:0:
192,192,171819,1,0,0:0:0:0:
448,192,171819,1,0,0:0:0:0:
64,192,171819,1,0,0:0:0:0:
192,192,171977,1,0,0:0:0:0:
320,192,171977,1,0,0:0:0:0:
192,192,172135,1,0,0:0:0:0:
64,192,172135,1,0,0:0:0:0:
64,192,172450,1,0,0:0:0:0:
448,192,172450,1,0,0:0:0:0:
192,192,172608,1,0,0:0:0:0:
64,192,172608,1,0,0:0:0:0:
64,192,172924,1,0,0:0:0:0:
192,192,172924,1,0,0:0:0:0:
320,192,173003,1,0,0:0:0:0:
448,192,173003,1,0,0:0:0:0:
192,192,173082,1,0,0:0:0:0:
64,192,173082,1,0,0:0:0:0:
448,192,173477,1,0,0:0:0:0:
320,192,173516,1,0,0:0:0:0:
192,192,173556,1,0,0:0:0:0:
64,192,173556,1,0,0:0:0:0:
448,192,173714,1,0,0:0:0:0:
64,192,173714,1,0,0:0:0:0:
448,192,173871,1,0,0:0:0:0:
192,192,173871,128,0,174003:0:0:0:0:
320,192,174029,128,0,174161:0:0:0:0:
448,192,174029,1,0,0:0:0:0:
192,192,174187,128,0,174319:0:0:0:0:
448,192,174187,1,0,0:0:0:0:
64,192,174345,1,0,0:0:0:0:
320,192,174345,1,0,0:0:0:0:
448,192,174345,1,0,0:0:0:0:
320,192,174503,1,0,0:0:0:0:
192,192,174503,1,0,0:0:0:0:
320,192,174661,1,0,0:0:0:0:
448,192,174661,1,0,0:0:0:0:
448,192,174977,1,0,0:0:0:0:
64,192,174977,1,0,0:0:0:0:
448,192,175135,1,0,0:0:0:0:
320,192,175135,1,0,0:0:0:0:
192,192,175450,1,0,0:0:0:0:
320,192,175608,1,0,0:0:0:0:
448,192,175608,1,0,0:0:0:0:
64,192,176003,1,0,0:0:0:0:
192,192,176043,1,0,0:0:0:0:
320,192,176082,1,0,0:0:0:0:
448,192,176082,128,0,176319:0:0:0:0:
64,192,176240,128,0,176477:0:0:0:0:
320,192,176398,128,0,176503:0:0:0:0:
192,192,176424,128,0,176477:0:0:0:0:
192,192,176556,128,0,176661:0:0:0:0:
448,192,176582,128,0,176635:0:0:0:0:
320,192,176714,128,0,176819:0:0:0:0:
64,192,176740,128,0,176793:0:0:0:0:
192,192,176871,1,0,0:0:0:0:
448,192,176871,1,0,0:0:0:0:
64,192,176871,1,0,0:0:0:0:
192,192,177029,1,0,0:0:0:0:
320,192,177029,1,0,0:0:0:0:
192,192,177187,1,0,0:0:0:0:
64,192,177187,1,0,0:0:0:0:
64,192,177503,1,0,0:0:0:0:
448,192,177503,1,0,0:0:0:0:
192,192,177661,1,0,0:0:0:0:
64,192,177661,1,0,0:0:0:0:
192,192,177977,1,0,0:0:0:0:
64,192,177977,1,0,0:0:0:0:
320,192,178056,1,0,0:0:0:0:
448,192,178056,1,0,0:0:0:0:
192,192,178135,1,0,0:0:0:0:
64,192,178135,1,0,0:0:0:0:
448,192,178529,1,0,0:0:0:0:
320,192,178569,1,0,0:0:0:0:
64,192,178608,128,0,178845:0:0:0:0:
192,192,178608,1,0,0:0:0:0:
448,192,178766,128,0,179003:0:0:0:0:
192,192,178924,128,0,179043:0:0:0:0:
320,192,178950,128,0,179029:0:0:0:0:
320,192,179082,128,0,179200:0:0:0:0:
64,192,179108,128,0,179187:0:0:0:0:
192,192,179240,128,0,179358:0:0:0:0:
448,192,179266,128,0,179345:0:0:0:0:
320,192,179398,1,0,0:0:0:0:
64,192,179398,1,0,0:0:0:0:
448,192,179398,1,0,0:0:0:0:
320,192,179556,1,0,0:0:0:0:
192,192,179556,1,0,0:0:0:0:
320,192,179714,1,0,0:0:0:0:
448,192,179714,1,0,0:0:0:0:
448,192,180029,1,0,0:0:0:0:
64,192,180029,1,0,0:0:0:0:
320,192,180187,1,0,0:0:0:0:
448,192,180187,1,0,0:0:0:0:
64,192,180345,1,0,0:0:0:0:
192,192,180503,1,0,0:0:0:0:
320,192,180661,1,0,0:0:0:0:
448,192,180661,1,0,0:0:0:0:
192,192,180819,1,0,0:0:0:0:
448,192,180977,1,0,0:0:0:0:
64,192,181056,1,0,0:0:0:0:
192,192,181095,1,0,0:0:0:0:
320,192,181135,1,0,0:0:0:0:
448,192,181135,128,0,181371:0:0:0:0:
64,192,181293,128,0,181529:0:0:0:0:
320,192,181450,128,0,181569:0:0:0:0:
192,192,181477,128,0,181556:0:0:0:0:
192,192,181608,128,0,181727:0:0:0:0:
448,192,181635,128,0,181714:0:0:0:0:
320,192,181766,128,0,181885:0:0:0:0:
64,192,181793,128,0,181871:0:0:0:0:
192,192,181924,1,0,0:0:0:0:
448,192,181924,1,0,0:0:0:0:
64,192,181924,1,0,0:0:0:0:
192,192,182082,1,0,0:0:0:0:
320,192,182082,1,0,0:0:0:0:
192,192,182240,1,0,0:0:0:0:
64,192,182240,1,0,0:0:0:0:
320,192,182398,1,0,0:0:0:0:
192,192,182477,1,0,0:0:0:0:
448,192,182556,1,0,0:0:0:0:
64,192,182556,1,0,0:0:0:0:
320,192,182635,1,0,0:0:0:0:
192,192,182714,1,0,0:0:0:0:
64,192,182714,1,0,0:0:0:0:
320,192,182793,1,0,0:0:0:0:
448,192,182871,1,0,0:0:0:0:
64,192,182950,1,0,0:0:0:0:
448,192,183029,1,0,0:0:0:0:
320,192,183108,1,0,0:0:0:0:
192,192,183187,1,0,0:0:0:0:
64,192,183187,1,0,0:0:0:0:
448,192,184450,1,0,0:0:0:0:
64,192,184450,1,0,0:0:0:0:
320,192,184450,1,0,0:0:0:0:
192,192,184766,1,0,0:0:0:0:
320,192,185082,1,0,0:0:0:0:
448,192,185398,1,0,0:0:0:0:
448,192,186977,1,0,0:0:0:0:
320,192,187293,1,0,0:0:0:0:
192,192,187608,1,0,0:0:0:0:
64,192,187924,1,0,0:0:0:0:
64,192,189503,1,0,0:0:0:0:
320,192,189819,1,0,0:0:0:0:
192,192,190135,1,0,0:0:0:0:
448,192,190450,1,0,0:0:0:0:
448,192,192029,1,0,0:0:0:0:
192,192,192345,1,0,0:0:0:0:
64,192,192661,1,0,0:0:0:0:
320,192,192977,1,0,0:0:0:0:
192,192,193924,128,0,194477:0:0:0:0:
320,192,194003,128,0,194477:0:0:0:0:
448,192,194082,128,0,194477:0:0:0:0:
448,192,194556,1,0,0:0:0:0:
64,192,194556,1,0,0:0:0:0:
448,192,195029,1,0,0:0:0:0:
448,192,195187,1,0,0:0:0:0:
448,192,195503,1,0,0:0:0:0:
320,192,195819,1,0,0:0:0:0:
64,192,196056,1,0,0:0:0:0:
192,192,196095,1,0,0:0:0:0:
448,192,196135,1,0,0:0:0:0:
448,192,196450,1,0,0:0:0:0:
448,192,196766,1,0,0:0:0:0:
448,192,197003,1,0,0:0:0:0:
320,192,197043,1,0,0:0:0:0:
64,192,197082,1,0,0:0:0:0:
64,192,197556,1,0,0:0:0:0:
64,192,197714,1,0,0:0:0:0:
64,192,198029,1,0,0:0:0:0:
192,192,198345,1,0,0:0:0:0:
448,192,198582,1,0,0:0:0:0:
320,192,198621,1,0,0:0:0:0:
64,192,198661,1,0,0:0:0:0:
64,192,198977,1,0,0:0:0:0:
64,192,199293,1,0,0:0:0:0:
448,192,199371,1,0,0:0:0:0:
320,192,199450,1,0,0:0:0:0:
64,192,199529,1,0,0:0:0:0:
192,192,199569,1,0,0:0:0:0:
448,192,199608,1,0,0:0:0:0:
320,192,199608,1,0,0:0:0:0:
448,192,199766,1,0,0:0:0:0:
320,192,199924,1,0,0:0:0:0:
448,192,200082,1,0,0:0:0:0:
448,192,200240,1,0,0:0:0:0:
320,192,200398,1,0,0:0:0:0:
448,192,200556,1,0,0:0:0:0:
448,192,200714,1,0,0:0:0:0:
192,192,200871,1,0,0:0:0:0:
448,192,201029,1,0,0:0:0:0:
320,192,201108,1,0,0:0:0:0:
192,192,201148,1,0,0:0:0:0:
64,192,201187,1,0,0:0:0:0:
192,192,201345,1,0,0:0:0:0:
64,192,201503,1,0,0:0:0:0:
64,192,201661,1,0,0:0:0:0:
64,192,201819,1,0,0:0:0:0:
192,192,201977,1,0,0:0:0:0:
64,192,202056,1,0,0:0:0:0:
320,192,202095,1,0,0:0:0:0:
448,192,202135,1,0,0:0:0:0:
448,192,202293,1,0,0:0:0:0:
448,192,202450,1,0,0:0:0:0:
448,192,202608,1,0,0:0:0:0:
64,192,202766,1,0,0:0:0:0:
64,192,202924,1,0,0:0:0:0:
448,192,202924,128,0,203240:0:0:0:0:
320,192,203003,128,0,203319:0:0:0:0:
64,192,203082,1,0,0:0:0:0:
64,192,203240,1,0,0:0:0:0:
320,192,203398,1,0,0:0:0:0:
448,192,203398,1,0,0:0:0:0:
448,192,203556,1,0,0:0:0:0:
64,192,203714,1,0,0:0:0:0:
192,192,203714,128,0,203950:0:0:0:0:
320,192,203871,1,0,0:0:0:0:
64,192,203950,1,0,0:0:0:0:
320,192,204029,128,0,204266:0:0:0:0:
448,192,204029,1,0,0:0:0:0:
64,192,204108,1,0,0:0:0:0:
192,192,204187,128,0,204266:0:0:0:0:
448,192,204345,128,0,204424:0:0:0:0:
192,192,204345,128,0,204582:0:0:0:0:
448,192,204503,128,0,204661:0:0:0:0:
320,192,204661,128,0,204714:0:0:0:0:
64,192,204661,128,0,205293:0:0:0:0:
320,192,204819,128,0,204871:0:0:0:0:
192,192,204977,128,0,205082:0:0:0:0:
448,192,204977,128,0,205029:0:0:0:0:
320,192,205003,128,0,205056:0:0:0:0:
320,192,205135,128,0,205187:0:0:0:0:
320,192,205293,128,0,205345:0:0:0:0:
320,192,205450,128,0,205503:0:0:0:0:
64,192,205450,128,0,205529:0:0:0:0:
448,192,205477,128,0,205529:0:0:0:0:
64,192,205608,1,0,0:0:0:0:
192,192,205608,1,0,0:0:0:0:
64,192,205766,128,0,205819:0:0:0:0:
192,192,205793,128,0,205898:0:0:0:0:
448,192,205845,128,0,205898:0:0:0:0:
320,192,205924,1,0,0:0:0:0:
192,192,206082,128,0,206135:0:0:0:0:
320,192,206108,128,0,206214:0:0:0:0:
448,192,206161,128,0,206214:0:0:0:0:
192,192,206240,1,0,0:0:0:0:
64,192,206240,128,0,206477:0:0:0:0:
320,192,206398,128,0,206556:0:0:0:0:
64,192,206556,128,0,206793:0:0:0:0:
448,192,206556,128,0,206608:0:0:0:0:
448,192,206714,128,0,206766:0:0:0:0:
320,192,206766,128,0,206871:0:0:0:0:
192,192,206819,128,0,207082:0:0:0:0:
448,192,206871,128,0,207135:0:0:0:0:
64,192,206871,128,0,207187:0:0:0:0:
320,192,207029,128,0,207108:0:0:0:0:
192,192,207187,128,0,207240:0:0:0:0:
448,192,207187,128,0,207819:0:0:0:0:
192,192,207345,128,0,207398:0:0:0:0:
320,192,207503,128,0,207608:0:0:0:0:
64,192,207503,128,0,207556:0:0:0:0:
192,192,207529,128,0,207582:0:0:0:0:
192,192,207661,128,0,207714:0:0:0:0:
192,192,207819,128,0,207871:0:0:0:0:
192,192,207977,128,0,208029:0:0:0:0:
448,192,207977,128,0,208056:0:0:0:0:
64,192,208003,128,0,208056:0:0:0:0:
320,192,208135,1,0,0:0:0:0:
448,192,208135,1,0,0:0:0:0:
448,192,208293,128,0,208345:0:0:0:0:
320,192,208319,128,0,208424:0:0:0:0:
64,192,208371,128,0,208424:0:0:0:0:
192,192,208450,1,0,0:0:0:0:
320,192,208608,128,0,208661:0:0:0:0:
192,192,208635,128,0,208740:0:0:0:0:
64,192,208687,128,0,208740:0:0:0:0:
448,192,208766,128,0,209003:0:0:0:0:
320,192,208766,1,0,0:0:0:0:
192,192,208924,128,0,209082:0:0:0:0:
320,192,209003,1,0,0:0:0:0:
448,192,209082,128,0,209319:0:0:0:0:
64,192,209082,128,0,209135:0:0:0:0:
192,192,209161,1,0,0:0:0:0:
64,192,209240,128,0,209293:0:0:0:0:
320,192,209240,1,0,0:0:0:0:
64,192,209398,128,0,209635:0:0:0:0:
448,192,209398,128,0,209714:0:0:0:0:
192,192,209556,128,0,209714:0:0:0:0:
64,192,209714,128,0,209950:0:0:0:0:
320,192,209714,128,0,209766:0:0:0:0:
320,192,209871,128,0,209924:0:0:0:0:
320,192,210029,128,0,210082:0:0:0:0:
64,192,210029,128,0,210135:0:0:0:0:
448,192,210056,128,0,210108:0:0:0:0:
192,192,210187,128,0,210240:0:0:0:0:
320,192,210187,128,0,210503:0:0:0:0:
192,192,210345,128,0,210398:0:0:0:0:
192,192,210503,128,0,210556:0:0:0:0:
448,192,210503,128,0,210582:0:0:0:0:
64,192,210529,128,0,210582:0:0:0:0:
192,192,210661,128,0,210819:0:0:0:0:
64,192,210819,128,0,211135:0:0:0:0:
448,192,210819,1,0,0:0:0:0:
192,192,210977,128,0,211029:0:0:0:0:
448,192,211003,128,0,211056:0:0:0:0:
320,192,211135,1,0,0:0:0:0:
192,192,211293,128,0,211450:0:0:0:0:
448,192,211293,1,0,0:0:0:0:
448,192,211450,128,0,211766:0:0:0:0:
320,192,211450,128,0,211503:0:0:0:0:
64,192,211477,128,0,211529:0:0:0:0:
320,192,211608,1,0,0:0:0:0:
192,192,211766,128,0,211845:0:0:0:0:
192,192,211924,128,0,212556:0:0:0:0:
64,192,211924,128,0,211977:0:0:0:0:
448,192,211950,128,0,212003:0:0:0:0:
64,192,212082,1,0,0:0:0:0:
448,192,212240,1,0,0:0:0:0:
320,192,212240,128,0,212293:0:0:0:0:
320,192,212398,128,0,212450:0:0:0:0:
320,192,212556,128,0,212608:0:0:0:0:
64,192,212556,128,0,212661:0:0:0:0:
448,192,212582,128,0,212635:0:0:0:0:
192,192,212714,128,0,212766:0:0:0:0:
192,192,212871,128,0,212924:0:0:0:0:
448,192,212950,1,0,0:0:0:0:
192,192,213029,128,0,213082:0:0:0:0:
64,192,213029,128,0,213108:0:0:0:0:
320,192,213056,128,0,213108:0:0:0:0:
448,192,213187,1,0,0:0:0:0:
192,192,213266,1,0,0:0:0:0:
64,192,213345,128,0,213582:0:0:0:0:
448,192,213398,128,0,213503:0:0:0:0:
192,192,213503,128,0,213740:0:0:0:0:
320,192,213556,128,0,213661:0:0:0:0:
64,192,213661,128,0,213766:0:0:0:0:
448,192,213714,128,0,213819:0:0:0:0:
320,192,213819,128,0,214135:0:0:0:0:
192,192,213819,128,0,214056:0:0:0:0:
64,192,213871,128,0,213977:0:0:0:0:
448,192,213977,128,0,214135:0:0:0:0:
192,192,214135,128,0,214187:0:0:0:0:
64,192,214135,128,0,214371:0:0:0:0:
192,192,214293,128,0,214345:0:0:0:0:
192,192,214450,128,0,214608:0:0:0:0:
448,192,214450,128,0,214687:0:0:0:0:
320,192,214503,128,0,214714:0:0:0:0:
64,192,214608,128,0,214766:0:0:0:0:
448,192,214766,128,0,215398:0:0:0:0:
192,192,214766,128,0,214819:0:0:0:0:
192,192,214924,128,0,214977:0:0:0:0:
64,192,215082,128,0,215135:0:0:0:0:
320,192,215082,128,0,215187:0:0:0:0:
192,192,215108,128,0,215161:0:0:0:0:
192,192,215240,128,0,215293:0:0:0:0:
192,192,215398,128,0,215450:0:0:0:0:
448,192,215556,128,0,215635:0:0:0:0:
192,192,215556,128,0,215608:0:0:0:0:
64,192,215582,128,0,215635:0:0:0:0:
448,192,215714,1,0,0:0:0:0:
320,192,215714,1,0,0:0:0:0:
448,192,215871,128,0,215924:0:0:0:0:
320,192,215898,128,0,216003:0:0:0:0:
64,192,215950,128,0,216003:0:0:0:0:
192,192,216029,1,0,0:0:0:0:
320,192,216187,128,0,216240:0:0:0:0:
192,192,216214,128,0,216319:0:0:0:0:
64,192,216266,128,0,216319:0:0:0:0:
320,192,216345,128,0,216582:0:0:0:0:
448,192,216345,1,0,0:0:0:0:
192,192,216503,1,0,0:0:0:0:
64,192,216661,128,0,216714:0:0:0:0:
448,192,216661,128,0,216898:0:0:0:0:
64,192,216819,128,0,216871:0:0:0:0:
192,192,216871,128,0,216977:0:0:0:0:
320,192,216924,128,0,217187:0:0:0:0:
448,192,216977,128,0,217293:0:0:0:0:
64,192,216977,128,0,217240:0:0:0:0:
192,192,217135,128,0,217214:0:0:0:0:
320,192,217293,128,0,217345:0:0:0:0:
64,192,217293,128,0,217924:0:0:0:0:
320,192,217450,128,0,217503:0:0:0:0:
192,192,217608,128,0,217714:0:0:0:0:
448,192,217608,128,0,217661:0:0:0:0:
320,192,217635,128,0,217687:0:0:0:0:
320,192,217766,128,0,217819:0:0:0:0:
320,192,217924,128,0,217977:0:0:0:0:
320,192,218082,128,0,218135:0:0:0:0:
64,192,218082,128,0,218161:0:0:0:0:
448,192,218108,128,0,218161:0:0:0:0:
192,192,218240,1,0,0:0:0:0:
64,192,218240,1,0,0:0:0:0:
64,192,218398,128,0,218450:0:0:0:0:
192,192,218424,128,0,218529:0:0:0:0:
448,192,218477,128,0,218529:0:0:0:0:
320,192,218556,1,0,0:0:0:0:
192,192,218714,128,0,218766:0:0:0:0:
320,192,218740,128,0,218845:0:0:0:0:
448,192,218793,128,0,218845:0:0:0:0:
64,192,218871,128,0,219108:0:0:0:0:
192,192,218871,1,0,0:0:0:0:
320,192,219029,128,0,219187:0:0:0:0:
192,192,219108,1,0,0:0:0:0:
64,192,219187,128,0,219424:0:0:0:0:
448,192,219187,128,0,219240:0:0:0:0:
320,192,219266,1,0,0:0:0:0:
448,192,219345,128,0,219398:0:0:0:0:
192,192,219345,1,0,0:0:0:0:
448,192,219503,128,0,219740:0:0:0:0:
64,192,219503,128,0,219819:0:0:0:0:
192,192,219661,128,0,219819:0:0:0:0:
320,192,219819,128,0,219871:0:0:0:0:
448,192,219819,128,0,220450:0:0:0:0:
320,192,219977,128,0,220029:0:0:0:0:
320,192,220135,128,0,220187:0:0:0:0:
64,192,220135,128,0,220240:0:0:0:0:
192,192,220161,128,0,220214:0:0:0:0:
320,192,220293,128,0,220345:0:0:0:0:
320,192,220450,128,0,220503:0:0:0:0:
448,192,220608,128,0,220661:0:0:0:0:
64,192,220608,128,0,220687:0:0:0:0:
320,192,220635,128,0,220687:0:0:0:0:
192,192,220766,128,0,220819:0:0:0:0:
64,192,220766,1,0,0:0:0:0:
192,192,220924,128,0,220977:0:0:0:0:
448,192,221003,1,0,0:0:0:0:
192,192,221082,128,0,221135:0:0:0:0:
64,192,221082,128,0,221187:0:0:0:0:
320,192,221108,128,0,221161:0:0:0:0:
448,192,221240,128,0,221293:0:0:0:0:
320,192,221319,1,0,0:0:0:0:
448,192,221398,128,0,221450:0:0:0:0:
64,192,221398,1,0,0:0:0:0:
448,192,221556,128,0,221608:0:0:0:0:
192,192,221556,128,0,221635:0:0:0:0:
320,192,221582,128,0,221635:0:0:0:0:
64,192,221714,128,0,221766:0:0:0:0:
320,192,221793,1,0,0:0:0:0:
64,192,221871,128,0,221924:0:0:0:0:
448,192,221871,1,0,0:0:0:0:
64,192,222029,128,0,222266:0:0:0:0:
192,192,222029,128,0,222240:0:0:0:0:
320,192,222082,128,0,222293:0:0:0:0:
448,192,222187,128,0,222319:0:0:0:0:
192,192,222345,128,0,222398:0:0:0:0:
64,192,222345,1,0,0:0:0:0:
192,192,222503,128,0,222556:0:0:0:0:
448,192,222503,1,0,0:0:0:0:
192,192,222661,128,0,222714:0:0:0:0:
64,192,222661,128,0,222766:0:0:0:0:
320,192,222687,128,0,222740:0:0:0:0:
448,192,222819,128,0,222871:0:0:0:0:
448,192,222977,128,0,223029:0:0:0:0:
64,192,223016,128,0,223095:0:0:0:0:
192,192,223135,128,0,223187:0:0:0:0:
448,192,223135,128,0,223293:0:0:0:0:
64,192,223161,128,0,223214:0:0:0:0:
320,192,223214,128,0,223293:0:0:0:0:
192,192,223293,1,0,0:0:0:0:
64,192,223293,1,0,0:0:0:0:
448,192,223450,128,0,223687:0:0:0:0:
64,192,223503,128,0,223608:0:0:0:0:
320,192,223608,128,0,223845:0:0:0:0:
192,192,223661,128,0,223766:0:0:0:0:
448,192,223766,128,0,223871:0:0:0:0:
64,192,223819,128,0,223924:0:0:0:0:
192,192,223924,128,0,224161:0:0:0:0:
448,192,223977,128,0,224082:0:0:0:0:
64,192,224082,128,0,224319:0:0:0:0:
448,192,224240,128,0,224293:0:0:0:0:
448,192,224398,128,0,224450:0:0:0:0:
64,192,224398,128,0,224819:0:0:0:0:
192,192,224556,128,0,224793:0:0:0:0:
448,192,224556,128,0,224740:0:0:0:0:
320,192,224608,128,0,224766:0:0:0:0:
320,192,224871,1,0,0:0:0:0:
448,192,224871,1,0,0:0:0:0:
64,192,224871,1,0,0:0:0:0:
