osu file format v14

[General]
AudioFilename: audio.mp3
AudioLeadIn: 0
PreviewTime: 51858
Countdown: 0
SampleSet: Soft
StackLeniency: 0.4
Mode: 0
LetterboxInBreaks: 0
EpilepsyWarning: 1
WidescreenStoryboard: 1

[Editor]
Bookmarks: 59240,173714,194556
DistanceSpacing: 0.9
BeatDivisor: 8
GridSize: 32
TimelineZoom: 2.2

[Metadata]
Title:Killer neuron
TitleUnicode:Killer neuron
Artist:Sataka Ryohei feat. Aitsuki Nakuru
ArtistUnicode:佐高陵平 feat. 藍月なくる
Creator:SMOKELIND
Version:gazimal's X
Source:
Tags:Hifumi,inc. みや。 Electronic Japanese Mocaotic Normal Pepekcz Hard Gazimal Expert Extra Nymphe Insane Kiyoshi Guarden Kang Sae-byeok Ermi Modding Queue ryouhei
BeatmapID:3664282
BeatmapSetID:1781376

[Difficulty]
HPDrainRate:5
CircleSize:3.6
OverallDifficulty:9
ApproachRate:9.4
SliderMultiplier:1.8
SliderTickRate:1

[Events]
//Background and Video events
Video,0,"vid.mp4"
0,0,"BG.jpg",0,0
//Break Periods
2,184450,194016
//Storyboard Layer 0 (Background)
//Storyboard Layer 1 (Fail)
//Storyboard Layer 2 (Pass)
//Storyboard Layer 3 (Foreground)
//Storyboard Layer 4 (Overlay)
//Storyboard Sound Samples

[TimingPoints]
1293,315.789473684211,4,2,7,27,1,0
2556,-200,4,2,7,37,0,0
12029,-100,4,2,74,57,0,0
12108,-100,4,2,74,5,0,0
12187,-100,4,2,74,57,0,0
12266,-100,4,2,74,5,0,0
12345,-100,4,2,74,57,0,0
12424,-100,4,2,74,5,0,0
12503,-100,4,2,74,57,0,0
12582,-100,4,2,74,5,0,0
12661,-100,4,2,7,57,0,0
13214,-100,4,2,7,5,0,0
13293,-303.030303030303,4,2,7,57,0,0
13529,-303.030303030303,4,2,7,5,0,0
13608,-166.666666666667,4,2,7,57,0,0
14556,-303.030303030303,4,2,7,57,0,0
14871,-166.666666666667,4,2,7,57,0,0
15819,-303.030303030303,4,2,7,57,0,0
16056,-303.030303030303,4,2,7,5,0,0
16135,-166.666666666667,4,2,7,57,0,0
17082,-303.030303030303,4,2,7,57,0,0
17398,-166.666666666667,4,2,7,57,0,0
17714,-100,4,2,7,57,0,0
18266,-303.030303030303,4,2,7,5,0,0
18345,-303.030303030303,4,2,7,57,0,0
18582,-303.030303030303,4,2,7,5,0,0
18661,-303.030303030303,4,2,7,57,0,0
18819,-166.666666666667,4,2,7,57,0,0
19608,-303.030303030303,4,2,7,57,0,0
19845,-303.030303030303,4,2,7,5,0,0
19924,-166.666666666667,4,2,7,57,0,0
20161,-303.030303030303,4,2,7,5,0,0
20240,-166.666666666667,4,2,7,57,0,0
20871,-303.030303030303,4,2,7,57,0,0
21503,-166.666666666667,4,2,7,57,0,0
22766,-100,4,2,7,67,0,0
23319,-303.030303030303,4,2,7,5,0,0
23398,-303.030303030303,4,2,7,67,0,0
23635,-303.030303030303,4,2,7,5,0,0
23714,-166.666666666667,4,2,7,67,0,0
23950,-303.030303030303,4,2,7,5,0,0
24029,-166.666666666667,4,2,7,67,0,0
24661,-303.030303030303,4,2,7,67,0,0
24977,-125,4,2,7,67,0,0
25924,-303.030303030303,4,2,7,67,0,0
26161,-303.030303030303,4,2,7,67,0,0
26240,-125,4,2,7,67,0,0
26477,-303.030303030303,4,2,7,5,0,0
26556,-125,4,2,7,67,0,0
27187,-303.030303030303,4,2,7,67,0,0
27503,-125,4,2,7,67,0,0
27740,-303.030303030303,4,2,7,5,0,0
27819,-100,4,2,7,67,0,0
28371,-303.030303030303,4,2,7,5,0,0
28450,-303.030303030303,4,2,7,67,0,0
28687,-303.030303030303,4,2,7,67,0,0
28766,-303.030303030303,4,2,7,67,0,0
28924,-125,4,2,7,67,0,0
29714,-303.030303030303,4,2,7,67,0,0
29950,-303.030303030303,4,2,7,5,0,0
30029,-303.030303030303,4,2,7,67,0,0
30345,-125,4,2,7,67,0,0
30898,-303.030303030303,4,2,7,5,0,0
30977,-303.030303030303,4,2,7,67,0,0
31214,-303.030303030303,4,2,7,5,0,0
31293,-125,4,2,7,67,0,0
31529,-303.030303030303,4,2,7,5,0,0
31608,-125,4,2,7,67,0,0
31845,-303.030303030303,4,2,7,5,0,0
31924,-125,4,2,7,67,0,0
32161,-303.030303030303,4,2,7,5,0,0
32240,-125,4,2,77,37,0,0
32279,-303.030303030303,4,2,77,5,0,0
32871,-125,4,2,7,37,0,0
36977,-500,4,2,7,37,0,0
37766,-200,4,2,7,37,0,0
40371,-303.030303030303,4,2,7,5,0,0
40450,-200,4,2,7,37,0,0
42977,-142.857142857143,4,2,7,57,0,0
44477,-303.030303030303,4,2,7,57,0,0
44556,-142.857142857143,4,2,7,57,0,0
47003,-303.030303030303,4,2,7,5,0,0
47082,-142.857142857143,4,2,7,57,0,0
47793,-303.030303030303,4,2,7,5,0,0
47871,-142.857142857143,4,2,7,57,0,0
48424,-303.030303030303,4,2,7,5,0,0
48503,-142.857142857143,4,2,7,57,0,0
49608,-250.000000000001,4,2,7,57,0,0
49845,-303.030303030303,4,2,7,57,0,0
49924,-142.857142857143,4,2,7,57,0,0
50556,-142.857142857143,4,2,77,57,0,0
50714,-142.857142857143,4,2,77,67,0,0
51503,-142.857142857143,4,2,77,57,0,0
51661,-142.857142857143,4,2,77,47,0,0
51819,-142.857142857143,4,2,77,37,0,0
52135,-232.558139534884,4,2,77,37,0,0
52450,-232.558139534884,4,2,77,17,0,0
52766,-232.558139534884,4,2,77,47,0,0
53082,-66.6666666666667,4,2,77,87,0,0
53240,-125,4,2,77,87,0,0
53635,-303.030303030303,4,2,77,5,0,0
53714,-66.6666666666667,4,2,77,87,0,0
54029,-100,4,2,77,87,0,0
54345,-66.6666666666667,4,2,77,87,0,0
54661,-100,4,2,77,87,0,0
55135,-66.6666666666667,4,2,77,87,0,0
55450,-100,4,2,77,87,0,0
56240,-66.6666666666667,4,2,77,87,0,0
56714,-100,4,2,77,87,0,0
56871,-66.6666666666667,4,2,77,87,0,0
57187,-100,4,2,77,87,0,0
57661,-200,4,2,7,87,0,0
57819,-200,4,2,77,87,0,0
58293,-55.5555555555556,4,2,77,87,0,0
58529,-303.030303030303,4,2,77,87,0,0
58608,-100,4,2,77,87,0,0
58924,-55.5555555555556,4,2,77,87,0,0
59161,-303.030303030303,4,2,77,87,0,0
59240,-333.333333333333,4,2,77,87,0,0
59714,-100,4,2,77,87,0,0
60187,-55.5555555555556,4,2,77,87,0,0
60424,-303.030303030303,4,2,77,87,0,0
60503,-100,4,2,77,87,0,0
60819,-55.5555555555556,4,2,77,87,0,0
61056,-303.030303030303,4,2,77,87,0,0
61135,-100,4,2,77,87,0,0
61450,-55.5555555555556,4,2,77,87,0,0
61687,-303.030303030303,4,2,77,87,0,0
61766,-100,4,2,77,87,0,0
61924,-55.5555555555556,4,2,77,87,0,0
62161,-303.030303030303,4,2,77,87,0,0
62240,-100,4,2,77,87,0,0
62398,-55.5555555555556,4,2,77,87,0,0
62516,-303.030303030303,4,2,77,87,0,0
62556,-100,4,2,77,87,0,0
62714,-100,4,2,74,87,0,0
63187,-66.6666666666667,4,2,77,87,0,0
63345,-125,4,2,77,87,0,0
63740,-303.030303030303,4,2,77,5,0,0
63819,-66.6666666666667,4,2,77,87,0,0
64135,-100,4,2,77,87,0,0
64450,-66.6666666666667,4,2,77,87,0,0
64766,-100,4,2,77,87,0,0
65240,-66.6666666666667,4,2,77,87,0,0
65556,-100,4,2,77,87,0,0
66345,-66.6666666666667,4,2,77,87,0,0
66661,-100,4,2,77,87,0,0
66977,-66.6666666666667,4,2,77,87,0,0
67293,-100,4,2,77,87,0,0
67766,-200,4,2,7,87,0,0
67924,-200,4,2,77,87,0,0
68398,-55.5555555555556,4,2,77,87,0,0
68635,-303.030303030303,4,2,77,87,0,0
68714,-100,4,2,77,87,0,0
69029,-55.5555555555556,4,2,77,87,0,0
69266,-303.030303030303,4,2,77,87,0,0
69345,-333.333333333333,4,2,77,87,0,0
69819,-100,4,2,77,87,0,0
70293,-55.5555555555556,4,2,77,87,0,0
70529,-303.030303030303,4,2,77,87,0,0
70608,-100,4,2,77,87,0,0
70924,-55.5555555555556,4,2,77,87,0,0
71161,-303.030303030303,4,2,77,87,0,0
71240,-100,4,2,77,87,0,0
71556,-55.5555555555556,4,2,77,87,0,0
71793,-303.030303030303,4,2,77,87,0,0
71871,-100,4,2,77,87,0,0
72029,-166.666666666667,4,2,7,87,0,0
72108,-166.666666666667,4,2,77,57,0,0
73293,-200,4,2,7,37,0,0
82806,-303.030303030303,4,2,7,5,0,0
83398,-142.857142857143,4,2,7,47,0,0
84069,-303.030303030303,4,2,7,5,0,0
84345,-142.857142857143,4,2,7,47,0,0
84582,-303.030303030303,4,2,7,47,0,0
84661,-142.857142857143,4,2,7,47,0,0
85332,-303.030303030303,4,2,7,5,0,0
85450,-142.857142857143,4,2,7,47,0,0
86595,-303.030303030303,4,2,7,5,0,0
86871,-142.857142857143,4,2,7,47,0,0
87108,-303.030303030303,4,2,7,5,0,0
87187,-142.857142857143,4,2,7,47,0,0
87819,-200,4,2,7,47,0,0
88135,-142.857142857143,4,2,7,47,0,0
89121,-303.030303030303,4,2,7,5,0,0
89398,-142.857142857143,4,2,7,47,0,0
90385,-303.030303030303,4,2,7,5,0,0
90661,-142.857142857143,4,2,7,47,0,0
90898,-303.030303030303,4,2,7,5,0,0
90977,-142.857142857143,4,2,7,47,0,0
91648,-303.030303030303,4,2,7,5,0,0
91766,-142.857142857143,4,2,7,47,0,0
92911,-303.030303030303,4,2,7,5,0,0
93503,-83.3333333333333,4,2,7,67,0,0
94056,-303.030303030303,4,2,7,5,0,0
94135,-303.030303030303,4,2,7,67,0,0
94371,-303.030303030303,4,2,7,5,0,0
94450,-125,4,2,7,67,0,0
94687,-303.030303030303,4,2,7,5,0,0
94766,-125,4,2,7,67,0,0
95398,-303.030303030303,4,2,7,67,0,0
95714,-125,4,2,7,67,0,0
96661,-303.030303030303,4,2,7,67,0,0
96898,-303.030303030303,4,2,7,67,0,0
96977,-125,4,2,7,67,0,0
97214,-303.030303030303,4,2,7,5,0,0
97293,-125,4,2,7,67,0,0
97924,-303.030303030303,4,2,7,67,0,0
98240,-125,4,2,7,67,0,0
98477,-303.030303030303,4,2,7,5,0,0
98556,-100,4,2,7,67,0,0
99108,-303.030303030303,4,2,7,5,0,0
99187,-303.030303030303,4,2,7,67,0,0
99424,-303.030303030303,4,2,7,67,0,0
99503,-303.030303030303,4,2,7,67,0,0
99661,-125,4,2,7,67,0,0
100450,-303.030303030303,4,2,7,67,0,0
100687,-303.030303030303,4,2,7,5,0,0
100766,-303.030303030303,4,2,7,67,0,0
101950,-303.030303030303,4,2,7,5,0,0
102029,-303.030303030303,4,2,7,67,0,0
103135,-125,4,2,7,67,0,0
103608,-125,4,2,7,57,0,0
104161,-303.030303030303,4,2,7,5,0,0
104240,-142.857142857143,4,2,7,57,0,0
104871,-303.030303030303,4,2,7,57,0,0
105503,-142.857142857143,4,2,7,57,0,0
105740,-303.030303030303,4,2,7,5,0,0
105819,-142.857142857143,4,2,7,57,0,0
106687,-303.030303030303,4,2,7,5,0,0
106766,-142.857142857143,4,2,7,57,0,0
107398,-303.030303030303,4,2,7,57,0,0
108029,-142.857142857143,4,2,7,57,0,0
108266,-303.030303030303,4,2,7,57,0,0
108345,-142.857142857143,4,2,7,57,0,0
108661,-100,4,2,7,57,0,0
109214,-303.030303030303,4,2,7,5,0,0
109293,-142.857142857143,4,2,7,57,0,0
109924,-303.030303030303,4,2,7,57,0,0
110398,-142.857142857143,4,2,7,57,0,0
111740,-303.030303030303,4,2,7,5,0,0
111819,-142.857142857143,4,2,7,57,0,0
112450,-303.030303030303,4,2,7,57,0,0
113082,-125,4,2,7,57,0,0
113319,-303.030303030303,4,2,7,5,0,0
113398,-125,4,2,7,57,0,0
113714,-100,4,2,7,57,0,0
114108,-303.030303030303,4,2,7,5,0,0
114187,-142.857142857143,4,2,7,57,0,0
114977,-303.030303030303,4,2,7,57,0,0
115608,-142.857142857143,4,2,7,57,0,0
115845,-303.030303030303,4,2,7,5,0,0
115924,-142.857142857143,4,2,7,57,0,0
116635,-303.030303030303,4,2,7,5,0,0
116714,-142.857142857143,4,2,7,57,0,0
117503,-303.030303030303,4,2,7,57,0,0
118450,-142.857142857143,4,2,7,57,0,0
118766,-100,4,2,7,57,0,0
119319,-303.030303030303,4,2,7,5,0,0
119398,-142.857142857143,4,2,7,57,0,0
120029,-303.030303030303,4,2,7,57,0,0
120661,-142.857142857143,4,2,7,57,0,0
121332,-303.030303030303,4,2,7,5,0,0
121608,-142.857142857143,4,2,7,17,0,0
123187,-333.333333333333,4,2,7,17,0,0
123661,-333.333333333333,4,2,7,37,0,0
127608,-500,4,2,7,37,0,0
128714,-200,4,2,7,37,0,0
131319,-303.030303030303,4,2,7,5,0,0
131398,-200,4,2,7,37,0,0
133924,-142.857142857143,4,2,7,57,0,0
135424,-303.030303030303,4,2,7,57,0,0
135503,-142.857142857143,4,2,7,57,0,0
137950,-303.030303030303,4,2,7,5,0,0
138029,-142.857142857143,4,2,7,57,0,0
138740,-303.030303030303,4,2,7,5,0,0
138819,-142.857142857143,4,2,7,57,0,0
139371,-303.030303030303,4,2,7,5,0,0
139450,-142.857142857143,4,2,7,57,0,0
140556,-250.000000000001,4,2,7,57,0,0
140793,-303.030303030303,4,2,7,57,0,0
140871,-142.857142857143,4,2,7,57,0,0
141504,-142.857142857143,4,2,77,57,0,0
141662,-142.857142857143,4,2,77,67,0,0
142451,-142.857142857143,4,2,77,57,0,0
142609,-142.857142857143,4,2,77,47,0,0
142766,-142.857142857143,4,2,77,37,0,0
143714,-250.000000000001,4,2,77,37,0,0
144029,-166.666666666667,4,2,77,87,0,0
144187,-55.5555555555556,4,2,77,87,0,0
144582,-303.030303030303,4,2,77,5,0,0
144661,-166.666666666667,4,2,77,87,0,0
144819,-55.5555555555556,4,2,77,87,0,0
145214,-303.030303030303,4,2,77,5,0,0
145293,-166.666666666667,4,2,77,87,0,0
145450,-55.5555555555556,4,2,77,87,0,0
145845,-303.030303030303,4,2,77,5,0,0
145924,-166.666666666667,4,2,77,87,0,0
146082,-333.333333333334,4,2,77,87,0,0
146556,-58.8235294117647,4,2,77,87,0,0
146871,-100,4,2,77,87,0,0
147187,-58.8235294117647,4,2,77,87,0,0
147503,-100,4,2,77,87,0,0
147819,-58.8235294117647,4,2,77,87,0,0
148450,-100,4,2,77,87,0,0
148608,-200,4,2,7,87,0,0
148766,-200,4,2,77,87,0,0
149240,-55.5555555555556,4,2,77,87,0,0
149477,-303.030303030303,4,2,77,87,0,0
149556,-58.8235294117647,4,2,77,87,0,0
149871,-55.5555555555556,4,2,77,87,0,0
150108,-303.030303030303,4,2,77,87,0,0
150187,-117.647058823529,4,2,77,87,0,0
150661,-100,4,2,77,87,0,0
151135,-55.5555555555556,4,2,77,87,0,0
151371,-303.030303030303,4,2,77,87,0,0
151450,-100,4,2,77,87,0,0
151766,-55.5555555555556,4,2,77,87,0,0
152003,-303.030303030303,4,2,77,87,0,0
152082,-100,4,2,77,87,0,0
152398,-55.5555555555556,4,2,77,87,0,0
152635,-303.030303030303,4,2,77,87,0,0
152714,-100,4,2,77,87,0,0
152871,-55.5555555555556,4,2,77,87,0,0
153108,-303.030303030303,4,2,77,87,0,0
153187,-100,4,2,77,87,0,0
153345,-55.5555555555556,4,2,77,87,0,0
153464,-303.030303030303,4,2,77,87,0,0
153503,-100,4,2,77,87,0,0
153661,-100,4,2,74,87,0,0
154135,-66.6666666666667,4,2,77,87,0,0
154293,-125,4,2,77,87,0,0
154687,-303.030303030303,4,2,77,5,0,0
154766,-66.6666666666667,4,2,77,87,0,0
155082,-100,4,2,77,87,0,0
155398,-66.6666666666667,4,2,77,87,0,0
155714,-100,4,2,77,87,0,0
156187,-66.6666666666667,4,2,77,87,0,0
156503,-100,4,2,77,87,0,0
157293,-66.6666666666667,4,2,77,87,0,0
157608,-100,4,2,77,87,0,0
157924,-66.6666666666667,4,2,77,87,0,0
158240,-100,4,2,77,87,0,0
158714,-200,4,2,7,87,0,0
158870,-200,4,2,77,87,0,0
159345,-55.5555555555556,4,2,77,87,0,0
159582,-303.030303030303,4,2,77,87,0,0
159661,-100,4,2,77,87,0,0
159977,-55.5555555555556,4,2,77,87,0,0
160214,-303.030303030303,4,2,77,87,0,0
160293,-200,4,2,77,87,0,0
160766,-100,4,2,77,87,0,0
161240,-55.5555555555556,4,2,77,87,0,0
161477,-303.030303030303,4,2,77,87,0,0
161556,-100,4,2,77,87,0,0
161871,-55.5555555555556,4,2,77,87,0,0
162108,-303.030303030303,4,2,77,87,0,0
162187,-100,4,2,77,87,0,0
162503,-55.5555555555556,4,2,77,87,0,0
162740,-303.030303030303,4,2,77,87,0,0
162819,-100,4,2,77,87,0,0
162977,-100,4,2,7,87,0,0
163056,-100,4,2,77,57,0,0
163293,-83.3333333333333,4,2,77,57,0,0
163608,-83.3333333333333,4,2,74,57,0,0
164240,-50,4,2,77,87,0,0
164714,-200,4,2,77,87,0,0
165029,-55.5555555555556,4,2,77,87,0,0
166214,-303.030303030303,4,2,77,87,0,0
166293,-333.333333333333,4,2,77,87,0,0
166766,-50,4,2,77,87,0,0
167398,-200,4,2,77,87,0,0
167556,-55.5555555555556,4,2,77,87,0,0
167793,-303.030303030303,4,2,77,5,0,0
167871,-55.5555555555556,4,2,77,87,0,0
168503,-100,4,2,77,87,0,0
168661,-100,4,2,7,87,0,0
168819,-333.333333333333,4,2,77,87,0,0
169293,-40,4,2,77,87,0,0
169924,-200,4,2,7,87,0,0
170082,-55.5555555555556,4,2,77,87,0,0
171187,-55.5555555555556,4,2,7,87,0,0
171266,-303.030303030303,4,2,7,87,0,0
171345,-333.333333333333,4,2,77,87,0,0
171819,-40,4,2,77,87,0,0
172450,-200,4,2,7,87,0,0
172608,-55.5555555555556,4,2,77,87,0,0
172845,-303.030303030303,4,2,77,5,0,0
172924,-55.5555555555556,4,2,77,87,0,0
173556,-100,4,2,77,87,0,0
173714,-100,4,2,74,87,0,0
174345,-55.5555555555556,4,2,77,87,0,0
174464,-303.030303030303,4,2,77,5,0,0
174503,-55.5555555555556,4,2,77,87,0,0
174621,-303.030303030303,4,2,77,5,0,0
174661,-45.4545454545455,4,2,77,87,0,0
174898,-303.030303030303,4,2,77,5,0,0
174977,-200,4,2,7,87,0,0
175135,-55.5555555555556,4,2,77,87,0,0
176082,-45.4545454545455,4,2,77,87,0,0
176240,-45.4545454545455,4,2,7,87,0,0
176319,-303.030303030303,4,2,7,5,0,0
176398,-142.857142857143,4,2,7,87,0,0
176871,-55.5555555555556,4,2,77,87,0,0
176990,-303.030303030303,4,2,77,5,0,0
177029,-55.5555555555556,4,2,77,87,0,0
177148,-303.030303030303,4,2,77,5,0,0
177187,-55.5555555555556,4,2,77,87,0,0
177464,-303.030303030303,4,2,77,5,0,0
177503,-200,4,2,7,87,0,0
177661,-55.5555555555556,4,2,77,87,0,0
177898,-303.030303030303,4,2,77,5,0,0
177977,-55.5555555555556,4,2,77,87,0,0
178608,-100,4,2,77,87,0,0
178766,-100,4,2,7,87,0,0
179398,-55.5555555555556,4,2,77,87,0,0
179516,-303.030303030303,4,2,77,5,0,0
179556,-55.5555555555556,4,2,77,87,0,0
179674,-303.030303030303,4,2,77,5,0,0
179714,-55.5555555555556,4,2,77,87,0,0
179950,-303.030303030303,4,2,77,5,0,0
180029,-200,4,2,7,87,0,0
180187,-55.5555555555556,4,2,77,87,0,0
181135,-100,4,2,77,87,0,0
181924,-55.5555555555556,4,2,77,87,0,0
182043,-303.030303030303,4,2,77,5,0,0
182082,-55.5555555555556,4,2,77,87,0,0
182200,-303.030303030303,4,2,77,5,0,0
182240,-55.5555555555556,4,2,77,87,0,0
182477,-303.030303030303,4,2,77,87,0,0
182556,-200,4,2,77,87,0,0
182714,-50,4,2,77,87,0,0
182950,-303.030303030303,4,2,77,87,0,0
183029,-100,4,2,77,87,0,0
184450,-100,4,2,7,27,0,0
186345,-100,4,2,7,17,0,0
194556,-142.857142857143,4,2,7,47,0,0
198582,-303.030303030303,4,2,7,47,0,0
198661,-142.857142857143,4,2,7,47,0,0
199214,-303.030303030303,4,2,7,5,0,0
199293,-142.857142857143,4,2,7,47,0,0
200003,-303.030303030303,4,2,7,5,0,0
200082,-142.857142857143,4,2,7,47,0,0
201187,-250.000000000001,4,2,7,47,0,0
201424,-303.030303030303,4,2,7,5,0,0
201502,-142.857142857143,4,2,7,47,0,0
203082,-142.857142857143,4,2,77,47,0,0
203398,-142.857142857143,4,2,77,57,0,0
204029,-142.857142857143,4,2,77,67,0,0
204345,-142.857142857143,4,2,77,77,0,0
204661,-66.6666666666667,4,2,77,87,0,1
204977,-55.5555555555556,4,2,77,87,0,1
205293,-66.6666666666667,4,2,77,87,0,1
207503,-55.5555555555556,4,2,77,87,0,1
207819,-66.6666666666667,4,2,77,87,0,1
209714,-55.5555555555556,4,2,77,87,0,1
209950,-303.030303030303,4,2,77,87,0,1
210029,-66.6666666666667,4,2,77,87,0,1
211450,-55.5555555555556,4,2,77,87,0,1
211687,-303.030303030303,4,2,77,87,0,1
211766,-66.6666666666667,4,2,77,87,0,1
215398,-100,4,2,77,87,0,1
215714,-45.4545454545455,4,2,77,87,0,1
215950,-303.030303030303,4,2,77,87,0,1
216029,-66.6666666666667,4,2,77,87,0,1
216582,-303.030303030303,4,2,77,5,0,1
216661,-66.6666666666667,4,2,77,87,0,1
216898,-303.030303030303,4,2,77,87,0,1
216977,-66.6666666666667,4,2,77,87,0,1
217608,-55.5555555555556,4,2,77,87,0,1
218871,-55.5555555555556,4,2,77,87,0,1
219108,-303.030303030303,4,2,77,87,0,1
219187,-100,4,2,77,87,0,1
220135,-58.8235294117647,4,2,77,87,0,1
220371,-303.030303030303,4,2,77,5,0,1
220450,-100,4,2,77,87,0,1
221082,-66.6666666666667,4,2,77,87,0,1
223608,-66.6666666666667,4,2,77,87,0,1
223648,-66.6666666666667,4,2,77,87,0,0
223687,-66.6666666666667,4,2,77,87,0,1
223727,-66.6666666666667,4,2,77,87,0,0
223766,-66.6666666666667,4,2,77,87,0,1
223806,-66.6666666666667,4,2,77,87,0,0
223845,-66.6666666666667,4,2,77,87,0,1
223885,-66.6666666666667,4,2,77,87,0,0
223924,-66.6666666666667,4,2,77,87,0,1
223964,-66.6666666666667,4,2,77,87,0,0
224003,-66.6666666666667,4,2,77,87,0,1
224043,-66.6666666666667,4,2,77,87,0,0
224082,-66.6666666666667,4,2,77,87,0,1
224121,-66.6666666666667,4,2,77,87,0,0
224161,-66.6666666666667,4,2,77,87,0,1
224200,-66.6666666666667,4,2,77,87,0,0
224240,-66.6666666666667,4,2,77,87,0,1
224279,-66.6666666666667,4,2,77,87,0,0
224319,-66.6666666666667,4,2,77,87,0,1
224358,-66.6666666666667,4,2,77,87,0,0
224398,-66.6666666666667,4,2,77,87,0,1
224437,-66.6666666666667,4,2,77,87,0,0
224477,-66.6666666666667,4,2,77,87,0,1
224516,-66.6666666666667,4,2,77,87,0,0
224556,-66.6666666666667,4,2,77,87,0,1
224595,-66.6666666666667,4,2,77,87,0,0
224635,-66.6666666666667,4,2,77,87,0,1
224674,-66.6666666666667,4,2,77,87,0,0
224714,-66.6666666666667,4,2,77,87,0,1
224753,-66.6666666666667,4,2,77,87,0,0
224793,-66.6666666666667,4,2,77,87,0,1
224832,-66.6666666666667,4,2,77,87,0,0
224871,-66.6666666666667,4,2,77,87,0,1
224911,-66.6666666666667,4,2,77,87,0,0

[Colours]
Combo1 : 106,106,106
Combo2 : 233,233,233

[HitObjects]
80,325,2556,6,0,P|66:307|41:300,2,45,0|0|0,1:0|0:0|0:0,0:0:0:0:
20,371,3029,1,0,0:0:0:0:
66,227,3187,2,0,P|108:239|141:275,1,90,8|0,0:0|0:0,0:0:0:0:
20,371,3661,1,0,0:0:0:0:
80,325,3977,6,0,P|66:307|41:300,2,45
66,227,4450,2,0,P|108:239|141:275,1,90,8|0,0:0|0:0,0:0:0:0:
20,371,4924,1,0,0:0:0:0:
80,325,5240,6,0,P|66:307|41:300,2,45
66,227,5714,2,0,P|108:239|141:275,1,90,8|0,0:0|0:0,0:0:0:0:
20,371,6187,1,0,0:0:0:0:
80,325,6503,6,0,P|66:307|41:300,2,45
66,227,6977,2,0,P|108:239|141:275,1,90,8|0,0:0|0:0,0:0:0:0:
20,371,7450,1,0,0:0:0:0:
210,338,7608,6,0,L|262:327,2,45,0|0|0,1:0|0:0|0:0,0:0:0:0:
318,384,8082,1,0,0:0:0:0:
298,260,8240,2,0,L|392:280,1,90,8|0,0:0|0:0,0:0:0:0:
318,384,8714,1,0,0:0:0:0:
210,338,9029,6,0,L|262:327,2,45
298,260,9503,2,0,L|392:280,1,90,8|0,0:0|0:0,0:0:0:0:
318,384,9977,1,0,0:0:0:0:
210,338,10293,6,0,L|262:327,2,45
298,260,10767,2,0,L|392:280,1,90,8|0,0:0|0:0,0:0:0:0:
318,384,11241,1,0,0:0:0:0:
210,338,11556,6,0,L|262:327,2,45
298,260,12029,6,0,P|326:265|352:270,1,45,8|0,0:0|0:0,0:0:0:0:
396,197,12187,2,0,P|368:192|341:186,1,45,8|0,0:0|0:0,0:0:0:0:
202,163,12345,6,0,P|179:164|157:169,1,45,8|0,0:0|0:0,0:0:0:0:
105,99,12503,2,0,P|127:95|149:91,1,45,8|0,0:0|0:0,0:0:0:0:
342,89,12661,6,0,B|376:66|367:8|300:-40|236:11|229:62|270:114|270:114|250:88|222:85,1,315,6|0,1:0|0:0,0:0:0:0:
149,91,13293,6,0,P|127:95|105:99,1,44.5499998640442,8|0,1:2|0:0,0:0:0:0:
19,125,13608,2,0,P|13:91|4:58,1,53.9999983520508,2|0,0:0|0:0,0:0:0:0:
94,232,13924,6,0,P|88:198|79:165,1,53.9999983520508,2|0,1:0|0:0,0:0:0:0:
17,288,14240,1,2,0:0:0:0:
17,288,14398,1,2,0:0:0:0:
78,357,14556,6,0,P|56:362|39:366,1,29.6999999093628,8|2,1:2|0:0,0:0:0:0:
203,313,14871,1,2,0:0:0:0:
203,313,15029,2,0,P|177:307|151:302,1,53.9999983520508,0|2,0:0|1:0,0:0:0:0:
246,236,15345,6,0,P|219:230|193:224,2,53.9999983520508
305,356,15819,6,0,P|301:334|297:312,1,44.5499998640442,8|0,1:2|0:0,0:0:0:0:
366,267,16135,2,0,P|372:300|380:336,1,53.9999983520508,2|0,0:0|0:0,0:0:0:0:
462,175,16450,6,0,P|457:201|451:227,1,53.9999983520508,2|0,1:0|0:0,0:0:0:0:
371,128,16766,1,2,0:0:0:0:
371,128,16924,1,2,0:0:0:0:
451,87,17082,6,0,P|445:67|441:45,1,29.6999999093628,8|2,1:2|0:0,0:0:0:0:
462,175,17398,2,0,P|457:201|451:227,1,53.9999983520508,2|0,0:0|0:0,0:0:0:0:
297,312,17714,6,0,B|264:323|221:312|210:272|219:236|219:236|195:193|127:193|100:239|100:239|124:248|132:270,1,315,4|0,1:0|0:0,0:0:0:0:
72,310,18345,6,0,P|80:331|83:356,1,44.5499998640442,8|0,1:2|0:0,0:0:0:0:
82,352,18661,1,2,0:0:0:0:
15,249,18819,6,0,P|19:223|30:196,1,53.9999983520508,2|0,0:0|1:0,0:0:0:0:
69,100,19135,2,0,P|44:109|15:113,2,53.9999983520508
0,26,19608,6,0,P|24:16|53:12,1,44.5499998640442,8|0,1:2|0:0,0:0:0:0:
120,33,19924,2,0,P|147:62|164:99,1,80.9999975280763,2|0,0:0|0:0,0:0:0:0:
164,99,20240,5,2,1:0:0:0:
289,31,20398,2,0,P|263:44|231:52,2,53.9999983520508
250,139,20871,6,0,P|251:170|242:198,1,59.3999998187256,10|0,1:2|0:0,0:0:0:0:
289,31,21345,1,0,0:0:0:0:
397,134,21503,6,0,B|406:115|431:103|431:103|392:71|346:90|324:131,1,161.999995056153,2|2,1:0|0:0,0:0:0:0:
466,206,22135,2,0,L|474:172,1,26.9999991760254,2|0,1:0|0:0,0:0:0:0:
499,47,22293,1,0,1:0:0:0:
499,47,22766,6,0,B|517:31|541:31|541:31|503:1|455:24|452:70|452:70|459:122|396:134|396:134|426:121|434:93,1,315,6|0,1:0|0:0,0:0:0:0:
368,61,23398,6,0,P|348:47|328:41,1,44.5499998640442,8|0,1:2|0:0,0:0:0:0:
264,3,23714,2,0,P|216:18|187:42,1,80.9999975280763,2|0,0:0|0:0,0:0:0:0:
227,105,24029,6,0,B|255:112|270:135|270:135|257:109|266:76,1,107.999996704102,2|2,1:0|0:0,0:0:0:0:
264,82,24503,1,2,0:0:0:0:
146,99,24661,6,0,P|128:98|114:91,1,29.6999999093628,8|2,1:2|0:0,0:0:0:0:
0,24,24977,2,0,P|37:90|65:165,1,144,2|0,0:0|1:0,0:0:0:0:
52,294,25450,2,0,P|77:263|123:237,2,72
169,169,25924,6,0,P|191:173|213:186,1,44.5499998640442,8|0,1:2|0:0,0:0:0:0:
259,254,26240,2,0,P|296:222|359:208,1,108,2|0,0:0|0:0,0:0:0:0:
430,226,26556,6,0,B|426:277|376:280|376:280|417:266|419:239,1,144,2|2,1:0|0:0,0:0:0:0:
404,151,27029,1,2,0:0:0:0:
363,352,27187,6,0,P|343:348|327:336,1,29.6999999093628,8|2,1:2|0:0,0:0:0:0:
177,302,27503,2,0,B|178:328|162:353|162:353|179:328|202:318,1,108,2|0,0:0|0:0,0:0:0:0:
259,254,27819,6,0,B|296:215|286:160|254:138|254:138|255:135|255:135|194:117|172:68|196:33|196:33|189:62|200:83,1,315,4|0,1:0|0:0,0:0:0:0:
267,58,28450,6,0,P|291:50|311:48,1,44.5499998640442,8|0,1:2|0:0,0:0:0:0:
310,48,28766,1,2,0:0:0:0:
401,71,28924,6,0,P|395:35|380:3,1,72,2|0,0:0|1:0,0:0:0:0:
493,96,29240,2,0,P|473:125|463:166,2,72
365,172,29714,6,0,P|381:190|390:211,1,44.5499998640442,8|0,1:2|0:0,0:0:0:0:
389,208,30029,1,0,0:0:0:0:
463,160,30187,1,0,0:0:0:0:
448,288,30345,6,0,P|469:259|497:235,1,72,0|0,1:0|0:0,0:0:0:0:
471,373,30661,2,0,P|422:372|372:338,1,108,2|0,0:0|0:0,0:0:0:0:
293,354,30977,6,0,P|292:327|299:309,1,44.5499998640442,10|0,1:2|0:0,0:0:0:0:
355,258,31293,2,0,P|301:269|242:281,1,108,2|0,0:0|0:0,0:0:0:0:
175,265,31608,6,0,B|175:231|213:217|213:217|179:235|183:260,1,108,2|0,1:0|0:0,0:0:0:0:
189,347,31924,2,0,P|135:335|76:323,1,108,2|0,0:0|0:0,0:0:0:0:
7,313,32240,6,0,L|11:335,1,18,10|0,1:2|0:0,0:0:0:0:
87,139,32871,5,4,1:2:0:0:
131,77,33187,1,0,0:0:0:0:
87,16,33503,1,0,0:0:0:0:
15,40,33819,1,0,0:0:0:0:
15,115,34451,5,0,0:0:0:0:
15,40,34766,1,0,0:0:0:0:
87,16,35082,1,0,0:0:0:0:
87,139,35398,5,0,0:0:0:0:
131,77,35714,1,0,0:0:0:0:
87,16,36030,1,0,0:0:0:0:
15,40,36346,1,0,0:0:0:0:
15,115,36977,6,0,L|22:149,2,36,2|2|2,0:0|0:0|0:0,0:0:0:0:
87,16,37766,5,2,0:0:0:0:
87,16,37924,2,0,P|127:41|181:40,1,90,0|2,0:0|0:0,0:0:0:0:
299,31,38398,2,0,P|256:53|230:101,1,90,2|0,0:0|0:0,0:0:0:0:
180,207,38871,5,2,0:0:0:0:
180,207,39029,2,0,P|182:158|153:112,1,90,2|0,0:0|0:0,0:0:0:0:
203,300,39503,1,2,0:0:0:0:
203,300,39661,2,0,P|246:277|271:229,1,90,2|2,0:0|0:0,0:0:0:0:
315,139,40135,2,0,P|340:160|373:169,1,67.5,2|0,0:0|0:0,0:0:0:0:
422,205,40450,6,0,P|412:161|402:113,2,90
485,56,41398,2,0,P|489:42|495:28,2,30
418,17,41714,6,0,P|383:46|332:52,1,90,0|2,0:0|0:0,0:0:0:0:
340,53,42345,2,0,P|380:84|407:126,1,90,2|2,0:0|0:0,0:0:0:0:
402,116,42819,1,0,0:0:0:0:
512,183,42977,6,0,P|461:219|431:274,1,125.999996154785,4|0,1:0|0:0,0:0:0:0:
431,274,43450,1,0,0:0:0:0:
459,368,43608,2,0,L|489:361,1,31.4999990386963,0|0,3:0|0:0,0:0:0:0:
322,273,43924,2,0,L|352:266,1,31.4999990386963,0|0,3:0|0:0,0:0:0:0:
276,365,44240,6,0,L|381:342,1,94.499997116089
352,266,44556,2,0,L|322:273,1,31.4999990386963,2|0,3:0|0:0,0:0:0:0:
512,183,44871,2,0,L|481:189,1,31.4999990386963,2|0,3:0|0:0,0:0:0:0:
459,368,45187,2,0,L|445:302,1,62.9999980773926,2|2,3:0|3:0,0:0:0:0:
276,365,45503,6,0,P|226:334|159:340,1,125.999996154785,0|0,3:0|0:0,0:0:0:0:
161,339,45977,1,0,3:0:0:0:
16,380,46135,2,0,L|8:346,1,31.4999990386963,0|0,3:0|0:0,0:0:0:0:
157,223,46450,2,0,L|149:256,1,31.4999990386963,0|0,3:0|0:0,0:0:0:0:
94,381,46766,6,0,L|74:287,1,94.499997116089
157,223,47082,2,0,L|149:256,1,31.4999990386963,2|0,3:0|0:0,0:0:0:0:
6,169,47398,2,0,B|7:126|61:123|63:127|65:133|116:125|115:77,1,157.499995193482,2|0,3:0|0:0,0:0:0:0:
116,79,47871,1,2,0:0:0:0:
43,50,48029,6,0,P|59:123|76:207,1,157.499995193482,0|0,3:0|0:0,0:0:0:0:
75,204,48503,1,0,0:0:0:0:
205,149,48661,2,0,L|162:140,1,31.4999990386963,0|0,3:0|0:0,0:0:0:0:
339,81,48977,2,0,L|296:72,1,31.4999990386963,0|0,3:0|0:0,0:0:0:0:
259,88,49135,6,0,L|382:61,1,125.999996154785
497,16,49608,6,0,L|484:73,1,54,2|0,3:0|0:0,0:0:0:0:
496,79,49924,2,0,L|506:28,1,31.4999990386963,2|0,3:0|0:0,0:0:0:0:
429,128,50082,2,0,L|439:178,1,31.4999990386963,0|0,3:0|0:0,0:0:0:0:
459,266,50240,1,2,3:0:0:0:
459,266,50556,5,0,3:0:0:0:
339,297,50714,1,0,3:0:0:0:
240,234,50872,1,0,3:0:0:0:
211,116,51030,1,0,3:0:0:0:
459,266,51188,6,0,L|426:259,1,31.4999990386963,0|0,3:0|0:0,0:0:0:0:
356,205,51346,2,0,L|328:222,1,31.4999990386963,0|0,3:0|0:0,0:0:0:0:
240,234,51503,2,0,L|233:266,1,31.4999990386963,0|0,3:0|0:0,0:0:0:0:
178,336,51661,2,0,L|195:363,1,31.4999990386963,0|0,3:0|0:0,0:0:0:0:
339,297,51819,5,0,0:0:0:0:
339,297,52135,1,0,0:0:0:0:
339,297,52450,1,0,0:0:0:0:
339,297,52766,6,0,L|336:280,6,9.67500014762879,0|0|0|0|0|0|0,1:0|0:0|0:0|0:0|0:0|0:0|0:0,0:0:0:0:
440,325,53082,6,0,P|434:289|425:252,1,67.5000025749208,0|0,1:0|0:0,0:0:0:0:
436,147,53240,2,0,B|440:126|468:114|468:114|418:98|364:138|388:206,1,180
500,183,53714,2,0,L|298:140,1,202.500007724762,14|2,1:2|0:0,0:0:0:0:
224,129,54029,2,0,P|228:156|235:182,1,45,0|2,0:0|0:0,0:0:0:0:
161,226,54187,2,0,P|156:198|149:172,1,45,0|2,0:0|0:0,0:0:0:0:
50,38,54345,6,0,B|46:34|6:37|-11:79|5:131|72:144|115:88|124:56,1,202.500007724762,2|2,1:0|0:0,0:0:0:0:
189,9,54661,2,0,P|214:18|229:33,1,45,0|2,0:0|0:0,0:0:0:0:
301,140,54819,2,0,P|322:133|338:118,1,45,0|2,0:0|0:0,0:0:0:0:
420,46,54977,2,0,P|445:55|460:70,1,45,8|0,1:2|0:0,0:0:0:0:
500,183,55135,2,0,L|298:140,1,202.500007724762,0|2,0:0|0:0,0:0:0:0:
224,129,55450,2,0,P|228:156|235:182,1,45,0|2,0:0|0:0,0:0:0:0:
260,355,55608,6,0,P|279:335|309:326,1,45,2|0,1:0|0:0,0:0:0:0:
306,248,55766,2,0,P|332:254|355:275,1,45,2|0,0:0|0:0,0:0:0:0:
496,371,55924,2,0,P|469:364|446:343,1,45,2|0,0:0|0:0,0:0:0:0:
380,384,56082,2,0,P|372:357|379:327,1,45,2|0,0:0|0:0,0:0:0:0:
302,141,56240,2,0,B|334:91|400:104|426:148|426:148|430:151|430:151|417:179|430:207,1,202.500007724762,10|2,1:2|0:0,0:0:0:0:
512,203,56556,2,0,B|516:185|528:171|528:171|515:182|497:183,1,67.5000025749208,0|2,0:0|0:0,0:0:0:0:
306,248,56714,2,0,P|329:232|342:197,1,45,0|2,0:0|0:0,0:0:0:0:
341,33,56871,6,0,B|283:-6|250:53|251:57|252:61|215:116|159:81,1,202.500007724762,0|2,1:0|0:0,0:0:0:0:
79,13,57187,2,0,P|84:34|89:56,1,45,0|2,0:0|0:0,0:0:0:0:
13,93,57345,2,0,P|9:70|4:48,1,45,0|2,0:0|0:0,0:0:0:0:
104,135,57503,2,0,P|98:156|93:178,1,45,8|0,1:2|0:0,0:0:0:0:
8,300,57661,2,0,P|4:277|-2:252,2,45,0|0|0,1:0|0:0|0:0,0:0:0:0:
8,300,58135,5,6,1:0:0:0:
184,344,58293,2,0,B|199:321|228:312|228:312|171:284|119:326|119:326|115:368|75:389,1,242.999992584229,2|0,0:0|0:0,0:0:0:0:
8,300,58608,2,0,P|31:307|50:325,1,45,2|0,0:0|0:0,0:0:0:0:
248,384,58766,2,0,P|271:377|290:359,1,45,14|0,1:2|0:0,0:0:0:0:
451,362,58924,2,0,B|420:347|416:305|416:305|364:263|307:291|307:291|336:300|351:323,1,242.999992584229,2|0,0:0|0:0,0:0:0:0:
491,299,59240,6,0,P|503:287|520:277,2,26.9999991760254,2|2|2,0:0|1:0|0:0,0:0:0:0:
286,363,59714,2,0,P|269:377|248:384,1,45,2|0,0:0|0:0,0:0:0:0:
134,384,59871,2,0,P|130:361|135:340,1,45,2|0,0:0|0:0,0:0:0:0:
192,241,60029,2,0,P|212:248|229:264,1,45,10|0,1:2|0:0,0:0:0:0:
351,323,60187,2,0,B|317:247|395:224|399:226|403:229|479:198|447:112,1,242.999992584229,2|0,0:0|0:0,0:0:0:0:
348,118,60503,6,0,P|359:138|383:151,1,45,2|0,0:0|0:0,0:0:0:0:
466,24,60661,2,0,P|443:23|419:37,1,45,2|0,1:2|0:0,0:0:0:0:
215,126,60819,2,0,B|213:103|191:85|191:85|231:7|315:44|315:44|281:60|277:92,1,242.999992584229,2|0,0:0|0:0,0:0:0:0:
142,144,61135,2,0,P|114:136|99:120,1,45,2|0,0:0|0:0,0:0:0:0:
33,19,61293,2,0,P|40:46|33:67,1,45,10|0,1:2|0:0,0:0:0:0:
24,214,61450,2,0,B|32:190|26:153|26:153|65:209|122:220|122:220|91:242|85:273,1,242.999992584229,2|0,0:0|0:0,0:0:0:0:
186,322,61766,2,0,P|176:300|145:284,1,45,2|0,0:0|0:0,0:0:0:0:
0,297,61924,6,0,L|254:242,1,242.999992584229,2|0,1:0|0:0,0:0:0:0:
111,231,62240,2,0,P|95:246|86:267,1,45,2|0,0:0|0:0,0:0:0:0:
0,379,62398,2,0,L|134:350,1,121.499996292114,2|0,0:0|0:0,0:0:0:0:
118,353,62556,6,0,L|55:339,1,45,8|0,1:2|0:0,0:0:0:0:
281,255,62714,2,0,L|218:241,1,45,10|0,0:0|0:0,0:0:0:0:
349,384,62871,2,0,L|286:370,1,45,10|0,0:0|0:0,0:0:0:0:
512,285,63029,2,0,L|449:271,1,45,8|0,0:0|0:0,0:0:0:0:
351,198,63187,6,0,P|364:167|394:153,1,67.5000025749208,0|0,1:0|0:0,0:0:0:0:
481,61,63345,2,0,B|478:43|483:26|483:26|430:44|423:84|423:84|464:104|472:149,1,180
454,197,63819,2,0,L|235:150,1,202.500007724762,14|2,1:2|0:0,0:0:0:0:
184,159,64135,2,0,L|175:115,1,45,0|2,0:0|0:0,0:0:0:0:
101,133,64293,2,0,L|111:178,1,45,0|2,0:0|0:0,0:0:0:0:
1,337,64450,6,0,L|219:290,1,202.500007724762,0|0,1:0|0:0,0:0:0:0:
271,299,64766,2,0,L|280:254,1,45,0|2,0:0|0:0,0:0:0:0:
354,273,64924,2,0,L|344:317,1,45,0|2,0:0|0:0,0:0:0:0:
454,197,65082,2,0,L|396:184,1,45,8|0,1:2|0:0,0:0:0:0:
327,64,65240,2,0,B|316:-8|390:-26|433:2|433:2|406:27|412:57,1,202.500007724762,0|2,0:0|0:0,0:0:0:0:
481,61,65556,2,0,L|469:112,1,45,0|2,0:0|0:0,0:0:0:0:
442,297,65714,6,0,P|454:283|481:275,1,45,2|0,1:0|0:0,0:0:0:0:
512,360,65871,2,0,P|500:374|473:382,1,45,2|0,0:0|0:0,0:0:0:0:
271,299,66029,2,0,L|280:254,1,45,2|0,0:0|0:0,0:0:0:0:
354,273,66187,2,0,L|344:317,1,45,2|0,0:0|0:0,0:0:0:0:
152,312,66345,2,0,B|-1:279|-1:279|33:296|42:332,1,202.500007724762,8|2,1:2|0:0,0:0:0:0:
27,383,66661,2,0,P|51:382|88:353,1,45,0|2,0:0|0:0,0:0:0:0:
167,235,66819,2,0,L|100:220,1,45,0|2,0:0|0:0,0:0:0:0:
20,93,66977,6,0,B|24:42|-2:-3|-2:-3|24:42|102:67,1,202.500007724762,0|2,1:0|0:0,0:0:0:0:
121,131,67293,2,0,P|147:127|171:97,1,45,0|2,0:0|0:0,0:0:0:0:
252,0,67450,2,0,P|278:4|302:34,1,45,0|2,0:0|0:0,0:0:0:0:
365,135,67608,2,0,L|417:123,1,45,8|0,1:2|0:0,0:0:0:0:
499,15,67766,2,0,L|451:25,2,45,0|0|0,1:0|0:0|0:0,0:0:0:0:
499,15,68240,5,6,1:0:0:0:
467,256,68398,2,0,B|499:260|537:227|531:178|531:178|499:158|484:121|484:121|484:164|460:177,1,242.999992584229,2|0,0:0|0:0,0:0:0:0:
393,280,68714,2,0,P|404:307|423:322,1,45,2|0,0:0|0:0,0:0:0:0:
292,384,68871,2,0,P|307:367|314:346,1,45,14|0,1:2|0:0,0:0:0:0:
238,240,69029,2,0,B|222:228|223:190|223:190|208:227|176:247|176:247|170:296|208:329|240:325,1,242.999992584229,2|0,0:0|0:0,0:0:0:0:
326,190,69345,6,0,L|292:197,2,26.9999991760254,2|2|2,0:0|1:0|0:0,0:0:0:0:
157,158,69819,2,0,P|145:177|127:190,1,45,2|0,0:0|0:0,0:0:0:0:
12,177,69978,2,0,P|1:158|0:136,1,45,2|0,0:0|0:0,0:0:0:0:
67,40,70135,2,0,P|89:42|110:52,1,45,10|0,1:2|0:0,0:0:0:0:
287,94,70293,2,0,B|325:133|383:113|398:71|397:67|396:64|414:5|477:8|518:44,1,242.999992584229,2|0,0:0|0:0,0:0:0:0:
507,117,70608,6,0,P|482:114|462:93,1,45,2|0,0:0|0:0,0:0:0:0:
280,15,70766,2,0,P|255:18|232:38,1,45,2|0,1:0|0:0,0:0:0:0:
75,125,70924,2,0,B|134:115|184:167|176:222|176:222|177:224|177:224|124:231|107:268,1,242.999992584229,2|0,0:0|0:0,0:0:0:0:
184,348,71240,2,0,P|178:328|174:301,1,45,2|0,0:0|0:0,0:0:0:0:
35,300,71398,2,0,P|48:323|79:336,1,45,10|0,1:2|0:0,0:0:0:0:
348,364,71556,2,0,B|289:374|239:322|247:267|247:267|246:265|246:265|299:258|316:221,1,242.999992584229,2|0,0:0|0:0,0:0:0:0:
239,141,71871,2,0,P|245:161|249:188,1,45,2|0,0:0|0:0,0:0:0:0:
184,348,72029,5,0,1:0:0:0:
432,325,73293,6,0,P|446:307|471:300,2,45,0|0|0,1:0|0:0|0:0,0:0:0:0:
492,371,73766,1,0,0:0:0:0:
446,227,73924,2,0,P|404:239|371:276,1,90,8|0,0:0|0:0,0:0:0:0:
492,371,74398,1,0,0:0:0:0:
432,325,74714,6,0,P|446:307|471:300,2,45
446,227,75187,2,0,P|404:239|371:276,1,90,8|0,0:0|0:0,0:0:0:0:
492,371,75661,1,0,0:0:0:0:
432,325,75977,6,0,P|446:307|471:300,2,45
446,227,76450,2,0,P|404:239|371:276,1,90,8|0,0:0|0:0,0:0:0:0:
492,371,76924,1,0,0:0:0:0:
432,325,77240,6,0,P|446:307|471:300,2,45
446,227,77714,2,0,P|404:239|371:276,1,90,8|0,0:0|0:0,0:0:0:0:
492,371,78187,1,0,0:0:0:0:
302,338,78345,6,0,L|250:327,2,45,0|0|0,1:0|0:0|0:0,0:0:0:0:
194,384,78819,1,0,0:0:0:0:
214,260,78977,2,0,L|120:280,1,90,8|0,0:0|0:0,0:0:0:0:
194,384,79451,1,0,0:0:0:0:
302,338,79766,6,0,L|250:327,2,45
214,260,80240,2,0,L|120:280,1,90,8|0,0:0|0:0,0:0:0:0:
194,384,80714,1,0,0:0:0:0:
302,338,81030,6,0,L|250:327,2,45
214,260,81504,2,0,L|120:280,1,90,8|0,0:0|0:0,0:0:0:0:
194,384,81978,1,0,0:0:0:0:
302,338,82293,6,0,L|250:327,2,45
400,384,82766,6,0,L|414:380,1,11.25,0|0,1:0|0:0,0:0:0:0:
480,75,83398,6,0,L|465:6,2,62.9999980773926,2|0|0,1:0|0:0|0:0,0:0:0:0:
396,71,83871,1,0,0:0:0:0:
424,159,84029,2,0,L|430:130,1,15.7499995193482,8|0,0:0|0:0,0:0:0:0:
323,9,84345,2,0,P|290:43|234:57,1,94.499997116089,2|0,0:0|0:0,0:0:0:0:
246,57,84661,6,0,P|277:68|300:98,1,62.9999980773926,2|0,0:0|0:0,0:0:0:0:
229,133,84977,1,2,0:0:0:0:
163,16,85135,1,2,0:0:0:0:
129,117,85293,2,0,L|148:112,1,15.7499995193482,8|0,0:0|0:0,0:0:0:0:
16,17,85450,1,2,0:0:0:0:
48,123,85608,2,0,B|42:86|75:62|75:62|48:87|54:119,1,125.999996154785,2|0,0:0|0:0,0:0:0:0:
103,252,86082,6,0,P|97:221|89:189,2,62.9999980773926
0,317,86556,2,0,L|4:297,1,15.7499995193482,8|0,0:0|0:0,0:0:0:0:
166,178,86871,2,0,P|176:225|183:271,1,94.499997116089,2|0,0:0|0:0,0:0:0:0:
183,271,87187,6,0,P|207:249|242:241,1,62.9999980773926,2|0,0:0|0:0,0:0:0:0:
247,321,87503,1,2,0:0:0:0:
103,252,87661,1,2,0:0:0:0:
133,373,87819,2,0,L|122:323,1,45,8|2,0:0|0:0,0:0:0:0:
208,384,88135,2,0,P|256:357|325:348,1,125.999996154785,2|0,0:0|0:0,0:0:0:0:
431,383,88608,6,0,P|416:360|409:326,2,62.9999980773926
506,302,89082,2,0,P|511:292|514:280,1,15.7499995193482,8|0,0:0|0:0,0:0:0:0:
351,268,89398,1,2,0:0:0:0:
418,226,89556,2,0,P|401:203|365:190,1,62.9999980773926
277,147,89871,6,0,L|292:215,2,62.9999980773926
205,241,90345,2,0,L|201:258,1,15.7499995193482,8|0,0:0|0:0,0:0:0:0:
348,119,90661,2,0,P|374:83|429:78,1,94.499997116089
421,75,90977,6,0,P|387:64|364:39,1,62.9999980773926
429,0,91293,1,0,0:0:0:0:
429,0,91450,1,0,0:0:0:0:
504,93,91608,2,0,L|499:116,1,15.7499995193482,8|0,0:0|0:0,0:0:0:0:
416,154,91766,2,0,B|419:182|430:215|430:215|426:182|415:152,1,125.999996154785
511,268,92240,6,0,B|507:296|496:329|496:329|500:296|511:266,1,125.999996154785
511,268,92714,1,0,0:0:0:0:
388,362,92871,2,0,L|392:385,1,15.7499995193482,8|0,1:2|0:0,0:0:0:0:
388,362,93503,6,0,B|346:394|292:383|259:326|263:324|266:322|267:263|208:235|132:271|97:329|161:418|238:406|258:354|261:342,1,377.999988464356,6|0,1:0|0:0,0:0:0:0:
347,299,94135,6,0,P|341:273|335:247,1,44.5499998640442,8|0,1:2|0:0,0:0:0:0:
401,185,94450,2,0,P|412:242|425:302,1,108,2|0,0:0|0:0,0:0:0:0:
466,362,94766,6,0,B|510:348|500:296|500:296|497:341|459:355,1,144,2|2,1:0|0:0,0:0:0:0:
388,362,95240,1,2,0:0:0:0:
486,226,95398,6,0,P|481:210|478:191,1,29.6999999093628,8|2,1:2|0:0,0:0:0:0:
462,50,95714,2,0,B|462:31|447:12|447:12|490:10|512:46|497:89,1,144,2|0,0:0|1:0,0:0:0:0:
317,41,96187,2,0,P|350:56|400:58,2,72
177,0,96661,6,0,P|151:6|135:17,1,44.5499998640442,8|0,1:2|0:0,0:0:0:0:
58,50,96977,2,0,P|103:95|131:148,1,108,2|0,0:0|0:0,0:0:0:0:
98,212,97293,2,0,B|59:215|38:249|38:249|62:219|55:181,1,144,2|2,1:0|0:0,0:0:0:0:
179,193,97766,1,2,0:0:0:0:
94,301,97924,6,0,P|105:287|119:285,1,29.6999999093628,8|2,1:2|0:0,0:0:0:0:
23,347,98240,2,0,P|47:375|126:376,1,108,2|0,0:0|0:0,0:0:0:0:
194,370,98556,6,0,B|190:348|174:331|174:331|220:282|288:333|288:333|298:387|386:372|386:372|368:359|366:340,1,315,4|0,1:0|0:0,0:0:0:0:
345,281,99187,6,0,P|361:264|381:253,1,44.5499998640442,8|0,1:2|0:0,0:0:0:0:
379,253,99503,1,2,0:0:0:0:
499,330,99661,2,0,P|464:328|432:313,1,72,2|0,0:0|1:0,0:0:0:0:
286,229,99977,2,0,P|313:200|347:187,2,72
194,370,100450,6,0,P|184:346|169:323,1,44.5499998640442,8|0,1:2|0:0,0:0:0:0:
174,330,100766,1,2,0:0:0:0:
23,281,100924,1,2,0:0:0:0:
99,306,101082,1,2,1:0:0:0:
157,201,101398,5,2,0:0:0:0:
82,225,101556,1,2,0:0:0:0:
233,176,101714,6,0,P|243:152|258:129,1,44.5499998640442,10|0,1:2|0:0,0:0:0:0:
252,136,102029,1,2,0:0:0:0:
101,87,102187,1,2,0:0:0:0:
177,112,102345,1,2,1:0:0:0:
177,112,102661,5,2,0:0:0:0:
157,201,102819,1,2,0:0:0:0:
99,306,102977,1,10,1:2:0:0:
82,225,103135,2,0,B|51:210|25:179|25:179|51:211|59:245,1,144,2|2,0:0|0:0,0:0:0:0:
172,384,103608,6,0,P|247:308|413:308,1,252,4|0,1:2|0:0,0:0:0:0:
477,284,104240,2,0,P|480:275|487:265,6,15.7499995193482
447,368,104556,2,0,P|452:375|458:386,6,15.7499995193482
386,296,104871,6,0,P|362:279|331:273,1,59.3999998187256,8|0,0:0|0:0,0:0:0:0:
333,273,105503,2,0,P|371:247|391:204,1,94.499997116089
458,164,105819,2,0,P|450:153|441:146,6,15.7499995193482
373,123,106135,6,0,B|333:130|316:167|316:167|310:164|310:164|265:173|224:136|241:73,1,220.499993270874,0|0,1:0|0:0,0:0:0:0:
185,22,106766,2,0,P|191:14|202:9,6,15.7499995193482
109,50,107082,2,0,P|105:40|106:28,6,15.7499995193482
100,132,107398,6,0,P|70:146|41:143,1,59.3999998187256,8|0,0:0|0:0,0:0:0:0:
44,143,108029,2,0,P|91:171|115:216,1,94.499997116089
185,225,108345,2,0,P|183:237|176:250,6,15.7499995193482
136,365,108661,6,0,B|127:320|91:291|41:265|-13:266|-37:330|10:380|47:360|95:322|111:278,1,315,4|0,1:0|0:0,0:0:0:0:
111,204,109293,2,0,P|104:192|97:187,6,15.7499995193482
104,114,109608,2,0,P|90:114|82:117,6,15.7499995193482
0,103,109924,6,0,P|18:85|25:53,1,59.3999998187256,8|0,0:0|0:0,0:0:0:0:
102,25,110398,2,0,B|91:-7|53:-16|53:-16|85:-4|94:25,1,125.999996154785
104,114,110871,2,0,P|90:114|82:117,6,15.7499995193482
180,53,111187,6,0,B|211:13|257:37|272:67|271:74|270:80|280:118|332:136|360:97,1,220.499993270874,0|0,1:0|0:0,0:0:0:0:
428,76,111819,2,0,P|425:66|419:58,6,15.7499995193482
483,139,112135,2,0,P|490:131|494:122,6,15.7499995193482
392,167,112450,6,0,P|419:189|428:216,1,59.3999998187256,8|0,0:0|0:0,0:0:0:0:
427,211,113082,2,0,P|387:242|367:307,1,108
304,339,113398,2,0,P|311:350|319:355,6,18
399,369,113714,6,0,L|161:319,1,225,4|0,1:0|0:0,0:0:0:0:
105,347,114187,2,0,B|88:318|111:285|111:285|93:320|107:342,1,125.999996154785
148,217,114661,2,0,P|158:223|166:228,6,15.7499995193482
77,179,114977,6,0,P|98:152|124:140,1,59.3999998187256,8|0,0:0|0:0,0:0:0:0:
120,141,115608,2,0,L|22:120,1,94.499997116089
8,46,115924,2,0,L|26:49,6,15.7499995193482
91,21,116240,6,0,B|86:4|75:-4|75:-4|121:-14|153:9|153:9|146:38|160:57,1,157.499995193482,0|0,1:0|0:0,0:0:0:0:
265,54,116714,2,0,B|258:30|273:-9|273:-9|254:28|220:28,1,125.999996154785
305,122,117187,2,0,P|316:115|329:106,6,15.7499995193482
208,110,117503,6,0,P|215:137|220:170,1,59.3999998187256,8|0,0:0|0:0,0:0:0:0:
219,168,118135,1,0,0:0:0:0:
318,113,118293,1,0,0:0:0:0:
299,221,118450,2,0,L|295:204,6,15.7499995193482
336,318,118766,6,0,B|311:324|291:353|291:353|286:295|356:268|396:307|396:307|405:348|443:373|483:362,1,315,4|0,1:0|0:0,0:0:0:0:
481,282,119398,2,0,P|471:286|464:293,6,15.7499995193482
403,224,119714,2,0,P|413:226|421:232,6,15.7499995193482
489,196,120029,6,0,L|476:138,1,59.3999998187256,8|0,0:0|0:0,0:0:0:0:
476,138,120661,2,0,P|466:147|451:152,6,15.7499995193482
358,106,120977,2,0,P|355:92|358:77,6,15.7499995193482
439,10,121293,2,0,P|452:14|464:24,1,15.7499995193482,0|0,1:0|0:0,0:0:0:0:
427,83,121608,5,2,0:0:0:0:
427,83,121924,5,0,0:0:0:0:
427,83,122240,5,0,0:0:0:0:
427,83,122556,5,0,0:0:0:0:
427,83,122871,5,0,0:0:0:0:
427,83,123187,6,0,L|415:136,1,53.9999983520508
415,135,123661,1,0,0:0:0:0:
227,48,123820,5,4,1:0:0:0:
252,121,124135,1,0,0:0:0:0:
332,119,124450,1,0,0:0:0:0:
351,43,124766,1,0,0:0:0:0:
289,0,125398,5,0,0:0:0:0:
351,43,125714,1,0,0:0:0:0:
332,119,126030,1,0,0:0:0:0:
227,48,126345,5,0,0:0:0:0:
252,121,126660,1,0,0:0:0:0:
332,119,126977,1,0,0:0:0:0:
351,43,127293,1,0,0:0:0:0:
289,0,127924,6,0,L|246:8,2,36,2|2|2,0:0|0:0|0:0,0:0:0:0:
174,110,128714,5,2,0:0:0:0:
174,110,128871,2,0,P|136:83|80:78,1,90,0|2,0:0|0:0,0:0:0:0:
120,271,129345,2,0,P|161:252|190:218,1,90,2|0,0:0|0:0,0:0:0:0:
8,143,129819,5,2,0:0:0:0:
8,143,129977,2,0,P|3:188|18:230,1,90,2|0,0:0|0:0,0:0:0:0:
174,110,130450,1,2,0:0:0:0:
174,110,130607,2,0,P|136:83|80:78,1,90,2|2,0:0|0:0,0:0:0:0:
275,144,131082,2,0,P|318:136|346:113,1,67.5,2|0,0:0|0:0,0:0:0:0:
369,67,131398,6,0,L|390:167,2,90
478,206,132345,2,0,L|484:176,2,30
380,251,132661,6,0,P|402:289|448:306,1,90,0|2,0:0|0:0,0:0:0:0:
443,305,133293,2,0,P|401:321|378:363,1,90,2|2,0:0|0:0,0:0:0:0:
379,359,133766,1,0,0:0:0:0:
233,384,133924,6,0,L|263:241,1,125.999996154785,2|0,1:0|0:0,0:0:0:0:
259,260,134398,1,0,0:0:0:0:
122,384,134556,2,0,L|157:376,1,31.4999990386963,0|0,3:0|0:0,0:0:0:0:
0,322,134871,2,0,L|35:314,1,31.4999990386963,0|0,3:0|0:0,0:0:0:0:
186,237,135187,6,0,B|174:210|144:207|144:207|168:216|180:241,1,94.499997116089,0|0,0:0|3:0,0:0:0:0:
113,275,135503,2,0,L|121:313,1,31.4999990386963,2|0,3:0|0:0,0:0:0:0:
11,144,135819,2,0,L|19:182,1,31.4999990386963,2|0,3:0|0:0,0:0:0:0:
83,0,136135,2,0,L|98:72,1,62.9999980773926,2|2,3:0|3:0,0:0:0:0:
278,127,136450,6,0,P|238:84|165:93,1,125.999996154785,0|0,3:0|0:0,0:0:0:0:
174,86,136924,1,0,3:0:0:0:
327,55,137082,2,0,L|359:48,1,31.4999990386963,0|0,3:0|0:0,0:0:0:0:
503,191,137398,2,0,L|470:184,1,31.4999990386963,0|0,3:0|0:0,0:0:0:0:
361,126,137714,6,0,L|480:100,1,94.499997116089
357,48,138029,2,0,L|327:55,1,31.4999990386963,2|0,3:0|0:0,0:0:0:0:
211,144,138345,2,0,B|198:166|171:170|171:170|206:183|259:163|270:112,1,157.499995193482,2|0,3:0|0:0,0:0:0:0:
262,132,138819,1,2,0:0:0:0:
157,93,138977,6,0,P|194:160|224:256,1,157.499995193482,0|0,3:0|0:0,0:0:0:0:
219,236,139450,1,0,0:0:0:0:
23,193,139608,2,0,P|30:177|41:161,1,31.4999990386963,0|0,3:0|0:0,0:0:0:0:
97,304,139924,2,0,P|104:288|115:272,1,31.4999990386963,0|0,3:0|0:0,0:0:0:0:
93,219,140082,6,0,L|121:353,1,125.999996154785
247,384,140556,6,0,P|226:361|191:352,1,54,0|0,3:0|0:0,0:0:0:0:
205,352,140871,2,0,P|219:349|233:334,1,31.4999990386963,0|0,3:0|0:0,0:0:0:0:
339,224,141029,2,0,P|353:226|367:241,1,31.4999990386963,0|0,3:0|0:0,0:0:0:0:
444,374,141187,1,0,3:0:0:0:
444,374,141503,5,0,3:0:0:0:
512,285,141661,1,0,3:0:0:0:
448,192,141819,1,0,3:0:0:0:
339,224,141978,1,0,3:0:0:0:
335,337,142135,6,0,L|370:329,1,31.4999990386963,0|0,3:0|0:0,0:0:0:0:
239,361,142293,2,0,L|263:387,1,31.4999990386963,0|0,3:0|0:0,0:0:0:0:
170,289,142450,2,0,L|158:323,1,31.4999990386963,0|0,3:0|0:0,0:0:0:0:
197,193,142608,2,0,L|161:200,1,31.4999990386963,0|0,3:0|0:0,0:0:0:0:
339,224,142766,5,0,0:0:0:0:
339,224,143082,1,0,0:0:0:0:
339,224,143398,1,0,0:0:0:0:
339,224,143714,6,0,L|336:210,6,9,0|0|0|0|0|0|0,1:0|0:0|0:0|0:0|0:0|0:0|0:0,0:0:0:0:
139,156,144029,6,0,P|130:172|129:193,1,26.9999991760254,4|0,1:0|0:0,0:0:0:0:
130,307,144187,2,0,B|118:315|112:340|112:340|56:336|17:274|75:197|183:201|167:254|165:258|204:299|263:294|272:248|259:200|202:204|198:239,1,404.999987640381
337,215,144662,6,0,P|327:199|309:187,1,26.9999991760254,12|0,1:2|0:0,0:0:0:0:
211,132,144819,2,0,B|208:117|190:100|190:100|223:52|295:49|333:139|275:230|237:190|235:187|180:200|155:253|190:284|238:297|263:246|234:224,1,404.999987640381
186,357,145293,6,0,P|204:356|223:347,1,26.9999991760254,4|0,1:0|0:0,0:0:0:0:
322,289,145450,2,0,B|335:294|359:287|359:287|384:339|350:403|254:391|204:295|257:282|261:282|278:228|244:179|200:195|164:229|197:276|229:263,1,404.999987640381
139,156,145924,6,0,P|130:172|129:193,1,26.9999991760254,12|0,1:2|0:0,0:0:0:0:
23,335,146082,6,0,P|32:351|33:372,2,26.9999991760254
188,358,146556,6,0,B|240:383|288:329|286:324|284:319|316:248|382:274,1,229.500004377365,4|0,1:0|0:0,0:0:0:0:
511,304,146871,2,0,P|512:327|503:347,1,45
397,375,147029,2,0,P|377:365|363:347,1,45
357,185,147187,2,0,B|351:112|436:74|479:101|479:101|443:110|426:140,1,229.500004377365,8|0,1:2|0:0,0:0:0:0:
509,220,147503,2,0,P|504:197|482:168,1,45
482,24,147661,2,0,P|458:17|422:24,1,45
310,93,147819,6,0,B|293:110|287:141|287:141|247:141|210:115|210:115|190:53|123:66,1,229.500004377365,4|0,1:0|0:0,0:0:0:0:
97,161,148135,2,0,B|120:162|130:176|130:176|126:158|133:136,1,76.5000014591217
334,15,148293,2,0,B|357:14|367:0|367:0|363:18|370:40,1,76.5000014591217
408,157,148450,2,0,L|362:147,1,45,8|0,1:2|0:0,0:0:0:0:
70,89,148608,2,0,L|24:79,2,45,0|0|0,1:0|0:0|0:0,0:0:0:0:
70,89,149082,5,6,1:0:0:0:
132,328,149240,2,0,B|105:291|55:295|55:295|58:249|33:206|33:206|57:243|107:236,1,242.999992584229,2|0,0:0|0:0,0:0:0:0:
244,320,149556,2,0,B|239:341|244:359|244:359|233:345|210:345,1,76.5000014591217,2|0,0:0|0:0,0:0:0:0:
97,161,149714,2,0,B|120:162|130:176|130:176|126:158|133:136,1,76.5000014591217,14|0,1:2|0:0,0:0:0:0:
262,243,149871,2,0,B|242:205|268:161|268:161|226:143|199:101|199:101|221:139|203:160,1,242.999992584229,2|0,0:0|0:0,0:0:0:0:
210,345,150187,6,0,B|233:345|244:359|244:359|239:341|244:320,2,76.5000014591217,2|2|2,0:0|1:0|0:0,0:0:0:0:
330,210,150661,2,0,P|355:218|368:242,1,45,2|0,0:0|0:0,0:0:0:0:
503,259,150819,2,0,P|483:276|456:275,1,45,2|0,0:0|0:0,0:0:0:0:
374,384,150977,2,0,P|368:358|382:335,1,45,10|0,1:2|0:0,0:0:0:0:
441,201,151135,2,0,B|487:137|439:90|439:90|438:85|438:85|364:87|351:22,1,242.999992584229,2|0,0:0|0:0,0:0:0:0:
469,0,151450,6,0,L|419:10,1,45,2|0,0:0|0:0,0:0:0:0:
256,75,151608,2,0,L|206:64,1,45,2|0,1:2|0:0,0:0:0:0:
46,20,151766,2,0,B|3:53|26:158|130:124|130:124|115:105|113:73,1,242.999992584229,2|0,0:0|0:0,0:0:0:0:
204,152,152082,2,0,P|197:175|164:197,1,45,2|0,0:0|0:0,0:0:0:0:
0,278,152240,2,0,P|23:272|59:289,1,45,10|0,1:2|0:0,0:0:0:0:
196,278,152398,2,0,B|226:322|172:415|82:351|82:351|103:338|115:308,1,242.999992584229,2|0,0:0|0:0,0:0:0:0:
264,221,152714,2,0,P|281:246|286:268,1,45,2|0,0:0|0:0,0:0:0:0:
436,300,152871,6,0,B|444:284|475:275|475:275|421:250|360:248|360:248|366:295|328:321,1,242.999992584229,2|0,1:0|0:0,0:0:0:0:
471,383,153187,2,0,P|493:357|493:335,1,45,2|0,0:0|0:0,0:0:0:0:
498,200,153345,2,0,P|440:180|378:173,1,121.499996292114,2|0,0:0|0:0,0:0:0:0:
380,173,153503,6,0,L|443:159,1,45,8|0,1:2|0:0,0:0:0:0:
267,37,153661,2,0,L|310:27,1,45,10|0,0:0|0:0,0:0:0:0:
160,161,153819,2,0,L|203:151,1,45,10|0,0:0|0:0,0:0:0:0:
3,79,153977,2,0,L|66:65,1,45,8|0,0:0|0:0,0:0:0:0:
280,150,154135,6,0,P|277:183|255:207,1,67.5000025749208,0|0,1:0|0:0,0:0:0:0:
94,263,154293,2,0,B|98:275|89:303|89:303|130:286|148:242|148:242|113:237|98:209,1,180
5,193,154766,2,0,L|203:150,1,202.500007724762,14|2,1:2|0:0,0:0:0:0:
280,150,155082,2,0,P|278:174|257:204,1,45,0|2,0:0|0:0,0:0:0:0:
190,317,155240,2,0,P|211:306|248:309,1,45,0|2,0:0|0:0,0:0:0:0:
466,297,155398,6,0,B|516:270|495:206|495:206|431:194|414:245,1,202.500007724762,0|0,1:0|0:0,0:0:0:0:
380,312,155714,2,0,P|360:298|344:265,1,45,0|2,0:0|0:0,0:0:0:0:
280,150,155871,2,0,P|278:174|257:204,1,45,0|2,0:0|0:0,0:0:0:0:
190,317,156029,2,0,P|211:306|248:309,1,45,8|0,1:2|0:0,0:0:0:0:
466,297,156187,6,0,B|516:270|495:206|495:206|431:194|414:245,1,202.500007724762,0|2,0:0|0:0,0:0:0:0:
353,199,156503,2,0,P|363:177|393:156,1,45,0|2,0:0|0:0,0:0:0:0:
495,126,156661,6,0,P|470:127|437:112,1,45,2|0,1:0|0:0,0:0:0:0:
464,18,156819,2,0,P|488:16|521:31,1,45,2|0,0:0|0:0,0:0:0:0:
375,77,156977,2,0,L|362:20,1,45,2|0,0:0|0:0,0:0:0:0:
277,12,157135,2,0,L|289:68,1,45,2|0,0:0|0:0,0:0:0:0:
203,150,157293,2,0,B|150:174|109:134|109:134|81:73|17:89,1,202.500007724762,8|2,1:2|0:0,0:0:0:0:
0,189,157608,2,0,P|23:178|36:158,1,45,0|2,0:0|0:0,0:0:0:0:
137,48,157766,2,0,P|156:60|170:82,1,45,0|2,0:0|0:0,0:0:0:0:
116,289,157924,6,0,B|66:264|12:275|12:275|65:262|101:202,1,202.500007724762,0|2,1:0|0:0,0:0:0:0:
203,150,158240,2,0,L|193:194,1,45,0|2,0:0|0:0,0:0:0:0:
248,352,158398,2,0,L|238:307,1,45,0|2,0:0|0:0,0:0:0:0:
32,348,158556,2,0,P|59:348|91:367,1,45,8|0,1:2|0:0,0:0:0:0:
333,377,158714,2,0,L|320:320,2,45,0|0|0,1:0|0:0|0:0,0:0:0:0:
333,377,159187,5,6,1:0:0:0:
394,184,159345,2,0,B|395:168|406:153|406:153|381:127|342:137|342:137|296:179|326:252|385:254,1,242.999992584229,2|0,0:0|0:0,0:0:0:0:
481,162,159661,2,0,P|482:139|470:108,1,45,2|0,0:0|0:0,0:0:0:0:
310,70,159819,2,0,P|289:80|268:106,1,45,14|0,1:2|0:0,0:0:0:0:
129,254,159977,2,0,B|168:255|198:182|152:140|152:140|113:130|88:156|88:156|99:171|100:187,1,242.999992584229,2|0,0:0|0:0,0:0:0:0:
74,312,160293,6,0,P|90:329|118:334,2,45,2|2|2,0:0|1:0|0:0,0:0:0:0:
37,101,160766,2,0,P|58:83|85:73,1,45,2|0,0:0|0:0,0:0:0:0:
187,0,160924,2,0,P|213:9|235:27,1,45,2|0,0:0|0:0,0:0:0:0:
349,79,161082,2,0,P|354:106|349:134,1,45,10|0,1:2|0:0,0:0:0:0:
308,343,161240,2,0,B|319:318|304:287|304:287|356:226|434:259|434:259|410:270|403:290,1,242.999992584229,2|0,0:0|0:0,0:0:0:0:
236,320,161556,6,0,P|207:318|183:308,1,45,2|0,0:0|0:0,0:0:0:0:
20,186,161714,2,0,P|33:211|36:237,1,45,2|0,1:0|0:0,0:0:0:0:
64,368,161871,2,0,B|35:310|80:265|119:269|122:271|126:273|179:250|183:197|148:162,1,242.999992584229,2|0,0:0|0:0,0:0:0:0:
37,101,162187,2,0,P|58:83|85:73,1,45,2|0,0:0|0:0,0:0:0:0:
187,0,162345,2,0,P|213:9|235:27,1,45,10|0,1:2|0:0,0:0:0:0:
331,198,162503,2,0,B|275:229|228:187|230:148|232:145|233:141|208:89|155:88|119:123,1,242.999992584229,2|0,0:0|0:0,0:0:0:0:
117,190,162819,2,0,L|174:177,1,45,2|0,0:0|0:0,0:0:0:0:
480,136,162977,5,0,1:0:0:0:
480,136,163608,6,0,P|468:109|446:86,1,53.9999983520508,8|0,0:0|0:0,0:0:0:0:
370,126,163765,2,0,P|391:143|404:167,1,53.9999983520508,8|0,0:0|0:0,0:0:0:0:
288,337,163924,6,0,P|266:353|254:377,1,53.9999983520508,8|0,0:0|0:0,0:0:0:0:
179,347,164082,2,0,P|191:320|213:297,1,53.9999983520508,8|0,0:0|0:0,0:0:0:0:
331,198,164240,6,0,L|141:238,2,180,0|0|0,1:0|1:0|1:0,0:0:0:0:
322,184,164871,2,0,L|297:189,1,22.5
62,221,165029,2,0,B|30:166|71:103|136:118|139:121|142:125|198:164|270:84|227:28,1,323.999990112305,0|0,1:0|0:0,0:0:0:0:
68,228,165503,2,0,B|36:173|77:110|142:125|145:128|148:132|204:171|276:91|233:35,1,323.999990112305,0|0,1:0|0:0,0:0:0:0:
123,11,165937,5,0,0:0:0:0:
123,11,165977,2,0,L|173:249,1,242.999992584229,0|0,1:0|0:0,0:0:0:0:
188,250,166293,2,0,L|181:220,2,26.9999991760254,0|0|0,1:0|0:0|0:0,0:0:0:0:
4,334,166766,6,0,L|194:374,2,180,0|0|0,1:0|1:0|1:0,0:0:0:0:
4,317,167398,2,0,L|29:322,1,22.5
273,313,167556,2,0,B|266:284|294:257|294:257|226:277|186:318|186:318|194:347|179:374,1,242.999992584229,0|0,1:0|0:0,0:0:0:0:
109,342,167871,5,0,1:0:0:0:
109,342,167950,1,0,1:0:0:0:
109,342,168029,2,0,B|264:308|264:308|268:304|268:304|425:271,1,323.999990112305,0|0,1:0|0:0,0:0:0:0:
462,375,168464,1,0,0:0:0:0:
462,375,168503,2,0,P|438:364|424:336,1,45,0|0,1:0|0:0,0:0:0:0:
453,206,168661,2,0,P|477:217|490:244,1,45,8|0,0:0|0:0,0:0:0:0:
349,363,168819,6,0,L|322:368,2,26.9999991760254,0|0|0,1:0|0:0|0:0,0:0:0:0:
453,206,169293,6,0,B|479:176|483:135|435:108|430:109|426:110|377:88|375:51|396:19,2,225,0|0|0,1:0|1:0|1:0,0:0:0:0:
370,40,169924,2,0,P|371:24|384:12,1,22.5,8|0,0:0|0:0,0:0:0:0:
462,46,170082,2,0,P|314:56|127:90,1,323.999990112305,0|0,1:0|0:0,0:0:0:0:
351,116,170556,2,0,B|296:99|293:39|293:39|239:-29|155:13|155:13|197:24|215:64,1,323.999990112305,0|0,1:0|0:0,0:0:0:0:
374,44,170990,5,0,0:0:0:0:
374,44,171029,2,0,P|250:59|120:87,1,242.999992584229,0|0,1:0|0:0,0:0:0:0:
11,39,171345,2,0,L|4:10,2,26.9999991760254,0|0|0,1:0|0:0|0:0,0:0:0:0:
195,195,171819,6,0,B|206:229|182:271|124:264|121:260|119:257|68:246|39:275|43:316,2,225,0|0|0,1:0|1:0|1:0,0:0:0:0:
27,294,172450,2,0,P|24:304|26:316,1,22.5,8|0,0:0|0:0,0:0:0:0:
138,370,172608,2,0,L|86:126,1,242.999992584229,0|0,1:0|0:0,0:0:0:0:
195,195,172924,5,0,1:0:0:0:
195,195,173003,1,0,1:0:0:0:
195,195,173082,2,0,B|206:229|182:271|124:264|121:260|119:257|68:246|25:272|-1:328|35:387|117:376|114:331,1,323.999990112305,0|0,1:0|0:0,0:0:0:0:
98,176,173516,1,0,0:0:0:0:
98,176,173556,2,0,L|88:130,1,45,0|0,1:0|0:0,0:0:0:0:
11,5,173714,6,0,L|62:16,1,45,8|0,0:0|0:0,0:0:0:0:
238,90,173871,2,0,L|186:101,1,45,8|0,1:2|0:0,0:0:0:0:
134,33,174029,2,0,L|185:21,1,45,8|0,0:0|0:0,0:0:0:0:
316,108,174187,2,0,L|361:118,1,45,8|0,0:0|0:0,0:0:0:0:
477,100,174345,6,0,B|449:99|421:72|421:72|441:107|433:137,1,121.499996292114,0|0,1:0|0:0,0:0:0:0:
464,208,174503,2,0,B|457:229|476:263|476:263|449:237|421:236,1,121.499996292114,0|0,1:0|0:0,0:0:0:0:
417,313,174661,2,0,L|477:21,1,297.000009063721,0|0,1:0|0:0,0:0:0:0:
464,8,174977,2,0,L|457:36,1,22.5,8|0,0:0|0:0,0:0:0:0:
342,250,175135,6,0,B|334:215|364:181|364:181|325:150|240:168|229:261|229:261|219:218|183:203,1,323.999990112305,0|0,1:0|0:0,0:0:0:0:
342,242,175608,2,0,B|334:207|364:173|364:173|325:142|240:160|229:253|229:253|219:210|183:195,1,323.999990112305,0|0,1:0|0:0,0:0:0:0:
425,239,176043,5,0,0:0:0:0:
425,239,176082,2,0,L|134:177,1,297.000009063721,0|0,1:0|0:0,0:0:0:0:
55,190,176398,6,0,L|65:220,1,31.4999990386963,0|0,1:0|0:0,0:0:0:0:
21,109,176556,2,0,L|0:133,1,31.4999990386963
72,40,176714,2,0,L|42:34,1,31.4999990386963,8|0,0:0|0:0,0:0:0:0:
214,129,176871,6,0,B|246:135|264:161|264:161|251:131|258:101,1,121.499996292114,0|0,1:0|0:0,0:0:0:0:
305,43,177029,2,0,B|312:31|311:15|311:15|348:7|361:40|361:40|343:46|335:63,1,121.499996292114,0|0,1:0|0:0,0:0:0:0:
392,110,177187,2,0,P|441:164|449:43,1,283.499991348267,0|0,1:0|0:0,0:0:0:0:
453,31,177503,2,0,P|471:34|479:37,1,22.5,8|0,0:0|0:0,0:0:0:0:
491,241,177661,2,0,B|457:253|440:283|440:283|373:263|354:196|354:196|375:218|398:225,1,242.999992584229,0|0,1:0|0:0,0:0:0:0:
399,117,177977,5,0,1:0:0:0:
399,117,178056,1,0,1:0:0:0:
399,117,178135,2,0,B|426:209|339:259|339:259|340:263|340:263|253:237|208:304,1,323.999990112305,0|0,1:0|0:0,0:0:0:0:
308,333,178569,1,0,0:0:0:0:
308,333,178608,2,0,P|278:336|262:355,1,45,0|0,1:0|0:0,0:0:0:0:
99,384,178766,2,0,P|111:356|102:333,1,45,8|0,0:0|0:0,0:0:0:0:
12,244,178924,6,0,L|22:292,1,45,0|0,1:0|0:0,0:0:0:0:
127,218,179082,2,0,L|89:251,1,45
207,305,179240,2,0,L|159:289,1,45
53,172,179398,6,0,B|27:153|-6:159|-6:159|27:149|40:118,1,121.499996292114,0|0,1:0|0:0,0:0:0:0:
111,92,179556,2,0,B|137:73|170:79|170:79|137:69|124:38,1,121.499996292114,0|0,1:0|0:0,0:0:0:0:
42,9,179714,2,0,L|97:268,1,242.999992584229,0|0,1:0|0:0,0:0:0:0:
109,253,180029,2,0,L|103:225,1,22.5,8|0,0:0|0:0,0:0:0:0:
229,124,180187,6,0,B|212:148|183:152|183:152|261:214|320:146|320:146|324:145|324:145|316:107|338:60|388:57,1,323.999990112305,0|0,1:0|0:0,0:0:0:0:
235,130,180661,2,0,B|218:154|189:158|189:158|253:222|326:152|326:152|330:151|330:151|322:113|344:66|394:63,1,323.999990112305,0|0,1:0|0:0,0:0:0:0:
443,165,181095,1,0,0:0:0:0:
443,165,181135,2,0,P|417:153|406:127,1,45,0|0,1:0|0:0,0:0:0:0:
471,50,181293,2,0,P|497:61|508:88,1,45,8|0,0:0|0:0,0:0:0:0:
512,231,181450,6,0,L|500:284,1,45,0|0,0:0|1:0,0:0:0:0:
364,279,181608,2,0,L|416:262,1,45,0|0,3:0|3:0,0:0:0:0:
480,384,181766,2,0,L|439:347,1,45,0|0,3:0|3:0,0:0:0:0:
331,202,181924,6,0,P|261:189|246:236,1,121.499996292114,0|0,1:0|0:0,0:0:0:0:
193,279,182082,2,0,B|198:288|210:296|210:296|189:330|150:318|150:318|158:301|155:290,1,121.499996292114,0|0,1:0|0:0,0:0:0:0:
118,223,182240,2,0,B|61:222|6:184|6:184|60:221|84:281,1,242.999992584229,0|0,1:0|3:0,0:0:0:0:
72,299,182556,2,0,P|68:287|60:280,1,22.5,0|0,3:0|3:0,0:0:0:0:
1,107,182714,2,0,B|4:35|70:19|121:44|121:44|125:41|125:41|141:99|204:98,1,270,0|0,1:0|0:0,0:0:0:0:
239,5,183029,2,0,P|212:10|198:34,1,45,0|0,3:0|3:0,0:0:0:0:
118,223,183187,5,0,1:0:0:0:
118,223,194556,6,0,P|87:170|13:150,1,125.999996154785,6|0,1:0|0:0,0:0:0:0:
28,148,195029,1,0,3:0:0:0:
176,283,195187,2,0,P|185:271|194:254,1,31.4999990386963,0|0,3:0|0:0,0:0:0:0:
32,364,195503,2,0,P|46:366|66:365,1,31.4999990386963,0|0,3:0|0:0,0:0:0:0:
456,244,195977,5,0,0:0:0:0:
456,244,196056,1,0,3:0:0:0:
456,244,196135,2,0,L|447:204,1,31.4999990386963,0|0,3:0|0:0,0:0:0:0:
298,340,196450,2,0,L|289:380,1,31.4999990386963,2|0,3:0|0:0,0:0:0:0:
378,268,196766,2,0,L|360:187,1,62.9999980773926,2|2,3:0|3:0,0:0:0:0:
361,217,197003,1,0,3:0:0:0:
358,226,197082,6,0,B|301:215|301:215|299:210|299:210|213:193,1,125.999996154785,0|0,3:0|0:0,0:0:0:0:
237,197,197556,1,0,3:0:0:0:
467,147,197714,2,0,L|505:138,1,31.4999990386963,0|0,3:0|0:0,0:0:0:0:
276,28,198029,2,0,L|314:19,1,31.4999990386963,0|0,3:0|0:0,0:0:0:0:
380,144,198345,6,0,L|287:124,1,94.499997116089,0|0,0:0|3:0,0:0:0:0:
276,28,198661,2,0,L|314:19,1,31.4999990386963,2|0,3:0|0:0,0:0:0:0:
79,141,198977,2,0,P|125:137|155:102,1,94.499997116089,2|0,3:0|0:0,0:0:0:0:
155,93,199293,1,0,0:0:0:0:
149,87,199371,1,0,0:0:0:0:
139,82,199450,1,2,0:0:0:0:
129,82,199529,1,0,0:0:0:0:
120,86,199608,6,0,B|87:121|120:168|120:168|159:183|160:235,1,157.499995193482,0|0,3:0|0:0,0:0:0:0:
158,218,200082,1,0,0:0:0:0:
54,244,200240,2,0,L|95:235,1,31.4999990386963,0|0,3:0|0:0,0:0:0:0:
188,382,200556,2,0,L|146:373,1,31.4999990386963,0|0,3:0|3:0,0:0:0:0:
50,323,200714,6,0,L|183:294,1,125.999996154785
273,215,201187,6,0,P|257:239|232:250,1,54,0|0,3:0|0:0,0:0:0:0:
234,249,201503,2,0,P|250:256|265:273,1,31.4999990386963
348,384,201661,2,0,P|364:377|379:360,1,31.4999990386963
496,268,201819,1,0,3:0:0:0:
496,268,202135,5,0,3:0:0:0:
423,181,202293,1,0,3:0:0:0:
312,174,202450,1,0,3:0:0:0:
234,249,202608,1,0,3:0:0:0:
348,384,202766,6,0,P|364:377|379:360,1,31.4999990386963,0|0,3:0|0:0,0:0:0:0:
214,370,202924,2,0,P|228:380|250:384,1,31.4999990386963,0|0,3:0|0:0,0:0:0:0:
159,246,203082,2,0,P|157:263|164:284,1,31.4999990386963,0|0,3:0|3:0,0:0:0:0:
238,136,203240,2,0,P|221:142|207:159,1,31.4999990386963,0|0,3:0|3:0,0:0:0:0:
428,275,203398,6,0,P|429:257|422:236,1,31.4999990386963,8|0,3:2|3:0,0:0:0:0:
234,249,203556,1,0,3:0:0:0:
238,259,203635,1,0,3:0:0:0:
242,269,203714,2,0,L|290:258,1,31.4999990386963,2|0,3:0|3:0,0:0:0:0:
351,248,203871,1,0,3:0:0:0:
214,370,204029,5,2,3:0:0:0:
198,368,204108,1,0,3:0:0:0:
183,364,204187,2,0,L|143:355,1,31.4999990386963,0|0,3:0|3:0,0:0:0:0:
62,384,204345,2,0,L|49:344,1,31.4999990386963,2|0,3:0|3:0,0:0:0:0:
22,204,204503,1,2,3:0:0:0:
160,276,204661,6,0,L|83:259,1,67.5000025749208,6|0,1:0|0:0,0:0:0:0:
314,169,204819,2,0,L|390:152,1,67.5000025749208,0|0,1:0|0:0,0:0:0:0:
152,90,204977,2,0,B|122:35|55:52|55:52|80:65|87:88,1,161.999995056153,8|0,0:0|1:0,0:0:0:0:
7,137,205214,1,0,0:0:0:0:
7,137,205293,2,0,L|24:219,1,67.5000025749208,0|0,1:0|0:0,0:0:0:0:
145,342,205450,2,0,L|162:259,1,67.5000025749208,0|0,1:0|0:0,0:0:0:0:
0,300,205608,1,8,0:0:0:0:
107,168,205766,5,0,0:0:0:0:
186,160,205845,1,0,0:0:0:0:
233,224,205924,1,0,1:0:0:0:
242,246,206003,1,0,0:0:0:0:
257,257,206082,1,0,0:0:0:0:
277,259,206161,1,0,0:0:0:0:
292,255,206240,2,0,L|138:278,1,135.000005149842,10|0,0:0|1:0,0:0:0:0:
373,375,206556,5,2,0:0:0:0:
377,351,206634,1,0,0:0:0:0:
393,336,206713,1,0,1:0:0:0:
417,333,206792,1,0,0:0:0:0:
437,345,206872,1,10,0:0:0:0:
415,300,206950,1,0,0:0:0:0:
420,250,207029,1,2,0:0:0:0:
451,211,207108,1,0,0:0:0:0:
499,195,207187,6,0,P|462:190|422:163,1,67.5000025749208,0|0,1:0|0:0,0:0:0:0:
291,161,207345,2,0,P|313:131|357:110,1,67.5000025749208,0|0,1:0|0:0,0:0:0:0:
425,15,207503,2,0,B|465:28|506:16|506:16|466:29|442:62,1,161.999995056153,8|0,0:0|1:0,0:0:0:0:
318,40,207740,1,0,0:0:0:0:
318,40,207819,2,0,P|286:50|260:71,1,67.5000025749208,0|0,1:0|0:0,0:0:0:0:
160,197,207977,2,0,P|128:187|102:166,1,67.5000025749208,0|0,1:0|0:0,0:0:0:0:
0,24,208135,1,8,0:0:0:0:
188,21,208293,5,0,0:0:0:0:
165,94,208371,1,0,0:0:0:0:
87,94,208450,1,0,1:0:0:0:
56,98,208529,1,0,0:0:0:0:
36,117,208608,1,0,0:0:0:0:
29,136,208687,1,0,0:0:0:0:
28,156,208766,2,0,L|-2:10,1,135.000005149842,10|0,0:0|1:0,0:0:0:0:
164,201,209003,1,0,0:0:0:0:
164,201,209082,2,0,L|155:240,6,33.7500012874604,2|0|0|0|0|0|0,0:0|0:0|0:0|0:0|1:0|0:0|0:0,0:0:0:0:
249,184,209398,2,0,L|232:260,1,67.5000025749208,10|0,0:0|0:0,0:0:0:0:
125,384,209556,5,2,0:0:0:0:
142,347,209635,1,0,0:0:0:0:
181,318,209714,2,0,B|196:336|229:337|229:337|183:383|124:368|124:368|107:326|71:318,1,242.999992584229,0|0,1:0|0:0,0:0:0:0:
16,257,210029,2,0,P|44:238|81:238,1,67.5000025749208,10|0,0:0|0:0,0:0:0:0:
318,232,210187,2,0,L|301:308,1,67.5000025749208,2|0,1:0|0:0,0:0:0:0:
479,362,210345,1,0,1:0:0:0:
462,327,210423,1,0,0:0:0:0:
428,311,210502,1,0,1:0:0:0:
391,319,210581,1,0,0:0:0:0:
372,345,210661,2,0,L|387:280,1,67.5000025749208,10|0,0:0|0:0,0:0:0:0:
479,148,210819,5,2,0:0:0:0:
416,193,210898,1,0,0:0:0:0:
349,154,210977,1,0,1:0:0:0:
332,145,211056,1,0,0:0:0:0:
307,143,211135,1,0,0:0:0:0:
285,151,211214,1,0,0:0:0:0:
270,168,211293,2,0,P|252:137|205:117,1,67.5000025749208,10|0,0:0|0:0,0:0:0:0:
27,168,211450,2,0,B|26:185|13:203|13:203|158:157|158:157|144:124|160:90,1,242.999992584229,2|0,1:0|0:0,0:0:0:0:
95,33,211766,2,0,P|81:65|77:115,1,67.5000025749208,2|0,1:0|0:0,0:0:0:0:
199,224,211924,1,10,0:0:0:0:
53,357,212082,5,0,0:0:0:0:
86,289,212161,1,0,0:0:0:0:
162,295,212240,1,0,1:0:0:0:
189,307,212319,1,0,0:0:0:0:
219,307,212398,1,0,1:0:0:0:
248,297,212477,1,0,0:0:0:0:
267,273,212556,2,0,P|210:317|193:384,1,135.000005149842,8|0,0:0|1:0,0:0:0:0:
192,375,212793,1,0,0:0:0:0:
192,375,212871,1,0,1:0:0:0:
115,205,213029,1,0,1:0:0:0:
336,317,213187,1,8,0:0:0:0:
53,357,213345,5,0,0:0:0:0:
86,289,213424,1,0,0:0:0:0:
162,295,213503,1,0,1:0:0:0:
189,307,213582,1,0,0:0:0:0:
219,307,213661,1,0,0:0:0:0:
248,297,213740,1,0,1:0:0:0:
267,273,213819,1,10,0:0:0:0:
275,244,213898,1,0,0:0:0:0:
269,214,213977,1,0,3:0:0:0:
250,190,214056,1,0,0:0:0:0:
223,176,214135,2,0,P|209:192|190:200,6,33.7500012874604,2|0|0|0|0|0|0,3:0|0:0|3:0|0:0|3:0|0:0|3:0,0:0:0:0:
313,64,214450,5,10,3:2:0:0:
354,37,214528,1,0,0:0:0:0:
403,43,214607,1,2,3:0:0:0:
437,80,214686,1,0,3:0:0:0:
439,130,214766,6,0,P|405:141|392:181,1,67.5000025749208,6|0,1:0|0:0,0:0:0:0:
451,263,214924,2,0,P|485:252|498:212,1,67.5000025749208,0|0,1:0|0:0,0:0:0:0:
469,29,215082,2,0,L|402:42,1,67.5000025749208,8|0,0:0|0:0,0:0:0:0:
214,73,215240,1,0,1:0:0:0:
317,221,215398,2,0,P|311:201|306:172,1,45,0|0,1:0|0:0,0:0:0:0:
223,176,215556,2,0,P|228:198|233:224,1,45,0|0,1:0|0:0,0:0:0:0:
391,167,215714,2,0,B|374:161|355:142|355:142|294:142|270:199|279:197|256:255|192:264|192:264|182:246|161:241,1,297.000009063721,8|0,0:0|0:0,0:0:0:0:
36,336,216029,5,0,1:0:0:0:
41,303,216107,1,0,0:0:0:0:
66,282,216186,1,0,0:0:0:0:
99,282,216265,1,0,0:0:0:0:
124,306,216345,2,0,B|67:271|89:205|89:205|136:177|135:136,1,202.500007724762,10|0,0:0|0:0,0:0:0:0:
52,67,216661,2,0,B|26:54|17:26|17:26|-28:68|7:140|67:131,1,202.500007724762,2|0,0:0|0:0,0:0:0:0:
161,241,216977,2,0,P|187:212|204:170,1,67.5000025749208,10|0,0:0|0:0,0:0:0:0:
185,21,217135,5,2,0:0:0:0:
171,19,217214,1,0,0:0:0:0:
157,16,217293,2,0,L|80:-1,1,67.5000025749208,0|0,1:0|0:0,0:0:0:0:
332,85,217450,2,0,L|409:68,1,67.5000025749208,0|0,1:0|0:0,0:0:0:0:
287,240,217608,2,0,B|261:119|261:119|273:141|294:155,1,161.999995056153,8|0,0:0|1:0,0:0:0:0:
378,209,217845,1,0,0:0:0:0:
378,209,217924,2,0,L|360:289,1,80.9999975280763,0|0,1:0|0:0,0:0:0:0:
503,384,218082,2,0,L|485:303,1,80.9999975280763,0|0,1:0|0:0,0:0:0:0:
314,381,218240,1,8,0:0:0:0:
504,224,218398,5,0,0:0:0:0:
446,174,218477,1,0,0:0:0:0:
378,209,218556,1,0,1:0:0:0:
362,227,218635,1,0,0:0:0:0:
339,239,218714,1,0,0:0:0:0:
311,244,218793,1,0,0:0:0:0:
287,240,218871,2,0,B|219:203|262:129|262:129|261:125|261:125|314:122|345:93|346:53,1,242.999992584229,10|0,0:0|0:0,0:0:0:0:
263,2,219187,2,0,L|274:55,1,45,2|0,0:0|0:0,0:0:0:0:
434,262,219345,1,0,1:0:0:0:
473,23,219503,1,10,0:0:0:0:
199,80,219661,5,2,0:0:0:0:
199,80,219740,1,0,0:0:0:0:
199,80,219819,2,0,L|188:27,1,45,0|0,1:0|0:0,0:0:0:0:
115,68,219977,2,0,L|125:113,1,45,0|0,1:0|0:0,0:0:0:0:
197,305,220135,2,0,B|211:285|247:283|247:283|197:268|159:306|159:306|143:357|98:363,1,229.500004377365,10|0,0:0|0:0,0:0:0:0:
28,359,220450,2,0,P|4:350|-1:331,1,45,0|0,1:0|0:0,0:0:0:0:
56,263,220608,2,0,P|80:272|85:291,1,45,0|0,1:0|0:0,0:0:0:0:
245,365,220766,1,10,0:0:0:0:
235,320,220844,1,0,0:0:0:0:
226,276,220923,1,2,0:0:0:0:
216,232,221002,1,0,0:0:0:0:
207,188,221082,6,0,L|277:202,1,67.5000025749208,0|0,1:0|0:0,0:0:0:0:
407,144,221240,2,0,L|337:158,1,67.5000025749208
121,213,221398,1,10,0:0:0:0:
406,373,221556,5,2,1:0:0:0:
381,332,221635,1,0,0:0:0:0:
341,312,221714,1,0,1:0:0:0:
303,312,221793,1,0,0:0:0:0:
271,329,221871,1,2,1:0:0:0:
254,346,221950,1,0,0:0:0:0:
245,365,222030,1,10,0:0:0:0:
235,320,222108,1,0,0:0:0:0:
226,276,222187,1,0,0:0:0:0:
216,232,222266,1,0,0:0:0:0:
207,188,222345,6,0,P|242:190|272:214,1,67.5000025749208,0|0,1:0|0:0,0:0:0:0:
381,332,222503,2,0,P|365:300|371:262,1,67.5000025749208,0|0,1:0|0:0,0:0:0:0:
406,113,222661,2,0,P|386:142|350:156,1,67.5000025749208,8|0,0:0|0:0,0:0:0:0:
121,213,222819,1,0,1:0:0:0:
271,91,222978,1,0,1:0:0:0:
246,59,223056,1,0,0:0:0:0:
209,42,223135,1,0,1:0:0:0:
169,45,223214,1,0,0:0:0:0:
135,65,223293,1,10,0:0:0:0:
0,156,223450,2,0,P|32:156|68:121,1,67.5000025749208,0|0,3:0|3:0,0:0:0:0:
254,6,223608,5,2,1:0:0:0:
246,59,223687,1,0,0:0:0:0:
238,112,223766,1,0,3:0:0:0:
230,165,223845,1,0,3:0:0:0:
207,188,223924,5,2,3:0:0:0:
213,230,224003,1,0,3:0:0:0:
219,272,224082,1,2,3:0:0:0:
226,315,224161,1,0,3:0:0:0:
258,340,224240,5,0,3:0:0:0:
255,354,224319,1,0,3:0:0:0:
253,369,224398,1,2,3:0:0:0:
251,384,224477,1,0,0:0:0:0:
214,376,224556,5,2,3:0:0:0:
253,369,224635,1,0,3:0:0:0:
306,359,224714,1,0,3:0:0:0:
380,347,224793,1,0,3:0:0:0:
462,334,224871,1,4,1:0:0:0:
