osu file format v14

[General]
AudioFilename: audio.mp3
AudioLeadIn: 0
PreviewTime: 51858
Countdown: 0
SampleSet: Soft
StackLeniency: 0.7
Mode: 0
LetterboxInBreaks: 0
EpilepsyWarning: 1
WidescreenStoryboard: 1

[Editor]
DistanceSpacing: 1.4
BeatDivisor: 4
GridSize: 32
TimelineZoom: 2.1

[Metadata]
Title:Killer neuron
TitleUnicode:Killer neuron
Artist:Sataka Ryohei feat. Aitsuki Nakuru
ArtistUnicode:佐高陵平 feat. 藍月なくる
Creator:SMOKELIND
Version:Pepekcz's H
Source:
Tags:Hifumi,inc. みや。 Electronic Japanese Mocaotic Normal Pepekcz Hard Gazimal Expert Extra Nymphe Insane Kiyoshi Guarden Kang Sae-byeok Ermi Modding Queue ryouhei
BeatmapID:3660923
BeatmapSetID:1781376

[Difficulty]
HPDrainRate:4
CircleSize:3.8
OverallDifficulty:7
ApproachRate:8
SliderMultiplier:1.4
SliderTickRate:1

[Events]
//Background and Video events
0,0,"BG.jpg",0,0
Video,0,"vid.mp4"
//Break Periods
2,33071,42227
2,124019,133174
2,184650,193806
//Storyboard Layer 0 (Background)
//Storyboard Layer 1 (Fail)
//Storyboard Layer 2 (Pass)
//Storyboard Layer 3 (Foreground)
//Storyboard Layer 4 (Overlay)
//Storyboard Sound Samples

[TimingPoints]
1293,315.789473684211,4,2,7,27,1,0
2556,-125,4,2,7,37,0,0
12029,-125,4,2,74,57,0,0
12661,-125,4,2,7,57,0,0
22766,-111.111111111111,4,2,7,67,0,0
32240,-111.111111111111,4,2,77,37,0,0
32871,-111.111111111111,4,2,7,37,0,0
42977,-125,4,2,7,57,0,0
48029,-111.111111111111,4,2,7,57,0,0
50556,-111.111111111111,4,2,77,57,0,0
50713,-111.111111111111,4,2,77,67,0,0
51503,-111.111111111111,4,2,77,57,0,0
51660,-111.111111111111,4,2,77,47,0,0
51819,-111.111111111111,4,2,77,37,0,0
52766,-111.111111111111,4,2,77,47,0,0
53082,-111.111111111111,4,2,77,87,0,0
53240,-100,4,2,77,87,0,0
57661,-100,4,2,7,87,0,0
58135,-100,4,2,77,87,0,0
62713,-100,4,2,74,87,0,0
63819,-100,4,2,77,87,0,0
67766,-100,4,2,7,87,0,0
68240,-100,4,2,77,87,0,0
72029,-100,4,2,7,87,0,0
73293,-125,4,2,7,37,0,0
83398,-142.857142857143,4,2,7,47,0,0
93503,-111.111111111111,4,2,7,67,0,0
103608,-111.111111111111,4,2,7,57,0,0
103924,-125,4,2,7,57,0,0
121608,-125,4,2,7,17,0,0
123661,-125,4,2,7,37,0,0
133924,-125,4,2,7,57,0,0
138977,-111.111111111111,4,2,7,57,0,0
141503,-111.111111111111,4,2,77,57,0,0
141660,-111.111111111111,4,2,77,67,0,0
142450,-111.111111111111,4,2,77,57,0,0
142607,-111.111111111111,4,2,77,47,0,0
142766,-111.111111111111,4,2,77,37,0,0
144029,-111.111111111111,4,2,77,87,0,0
144187,-100,4,2,77,87,0,0
148608,-100,4,2,7,87,0,0
149082,-100,4,2,77,87,0,0
153660,-100,4,2,74,87,0,0
154766,-100,4,2,77,87,0,0
158714,-100,4,2,7,87,0,0
159187,-100,4,2,77,87,0,0
162977,-100,4,2,7,87,0,0
163608,-100,4,2,74,57,0,0
164240,-111.111111111111,4,2,74,87,0,0
168660,-111.111111111111,4,2,7,87,0,0
168819,-111.111111111111,4,2,77,87,0,0
171186,-111.111111111111,4,2,7,87,0,0
171345,-111.111111111111,4,2,77,87,0,0
173713,-111.111111111111,4,2,74,87,0,0
176239,-111.111111111111,4,2,7,87,0,0
176871,-111.111111111111,4,2,77,87,0,0
178765,-111.111111111111,4,2,7,87,0,0
179398,-111.111111111111,4,2,77,87,0,0
184450,-111.111111111111,4,2,7,27,0,0
194556,-125,4,2,7,47,0,0
199608,-111.111111111111,4,2,7,47,0,0
203082,-111.111111111111,4,2,77,47,0,0
203398,-111.111111111111,4,2,77,57,0,0
204029,-111.111111111111,4,2,77,67,0,0
204345,-111.111111111111,4,2,77,77,0,0
204661,-111.111111111111,4,2,77,87,0,0
204977,-100,4,2,77,87,0,0

[Colours]
Combo1 : 106,106,106
Combo2 : 233,233,233

[HitObjects]
460,324,2556,6,0,L|477:381,2,56,0|0|0,1:0|2:0|2:0,2:0:0:0:
492,252,3029,1,0,2:0:0:0:
492,252,3187,2,0,P|476:212|400:204,1,112,8|0,2:0|2:0,2:0:0:0:
300,304,3819,6,0,L|244:320,1,56,0|0,2:0|2:0,2:0:0:0:
172,352,4135,2,0,L|116:368,1,56,0|0,2:0|2:0,2:0:0:0:
48,332,4450,2,0,P|62:275|80:208,1,112,8|0,2:0|2:0,2:0:0:0:
48,68,5082,6,0,L|32:4,2,56,0|0|0,2:0|2:0|2:0,2:0:0:0:
104,132,5556,1,0,2:0:0:0:
104,132,5714,2,0,B|160:140|148:96|212:104,1,112,8|0,2:0|2:0,2:0:0:0:
364,128,6345,6,0,P|377:98|374:73,1,56,0|0,2:0|2:0,2:0:0:0:
300,58,6661,2,0,P|286:87|289:112,1,56,0|0,2:0|2:0,2:0:0:0:
308,188,6977,2,0,P|321:240|340:312,1,112,8|0,2:0|2:0,2:0:0:0:
180,312,7608,6,0,L|196:256,2,56,0|0|0,1:0|2:0|2:0,2:0:0:0:
254,349,8082,1,0,2:0:0:0:
254,349,8240,2,0,P|278:305|346:301,1,112,8|0,2:0|2:0,2:0:0:0:
476,364,8871,6,0,P|488:332|484:312,1,56,0|0,2:0|2:0,2:0:0:0:
428,256,9187,2,0,P|416:224|420:204,1,56,0|0,2:0|2:0,2:0:0:0:
476,144,9503,2,0,P|500:104|472:48,1,112,8|0,2:0|2:0,2:0:0:0:
316,48,10135,6,0,L|332:108,2,56,0|0|0,2:0|2:0|2:0,2:0:0:0:
244,28,10608,1,0,2:0:0:0:
244,28,10766,2,0,B|188:20|200:64|136:56,1,112,8|0,2:0|2:0,2:0:0:0:
40,176,11398,6,0,L|24:232,2,56,0|0|0,2:0|2:0|2:0,2:0:0:0:
140,144,11871,1,0,2:0:0:0:
140,144,12029,2,0,P|160:128|196:124,1,56,8|8,2:0|2:0,2:0:0:0:
256,168,12345,2,0,P|276:184|312:188,1,56,8|8,2:0|2:0,2:0:0:0:
396,140,12661,6,0,P|416:223|436:308,1,168,6|0,1:0|2:0,2:0:0:0:
380,360,13293,2,0,P|352:332|280:332,1,112,8|2,1:2|2:0,2:0:0:0:
128,360,13924,6,0,L|64:348,1,56,2|0,1:0|2:0,2:0:0:0:
20,292,14240,1,2,2:0:0:0:
20,292,14398,2,0,P|52:260|32:192,1,112,2|2,2:0|2:0,2:0:0:0:
4,48,15029,5,0,2:0:0:0:
4,48,15187,2,0,B|48:28|88:60|72:76|104:104|164:88,1,168,2|0,1:0|2:0,2:0:0:0:
228,60,15819,2,0,P|278:44|352:24,1,112,8|2,1:2|2:0,2:0:0:0:
480,88,16450,6,0,L|464:156,1,56,2|0,1:0|2:0,2:0:0:0:
488,224,16766,1,2,2:0:0:0:
488,224,16924,2,0,P|473:281|460:340,1,112,2|2,2:0|2:0,2:0:0:0:
388,364,17398,1,2,2:0:0:0:
268,264,17714,6,0,P|236:240|272:128,1,168,4|0,1:0|2:0,2:0:0:0:
340,116,18345,2,0,P|376:96|364:32,1,112,8|2,1:2|2:0,2:0:0:0:
292,12,18819,2,0,P|241:27|176:48,1,112,2|0,2:0|2:0,2:0:0:0:
124,96,19293,1,0,2:0:0:0:
28,220,19608,2,0,P|48:277|68:336,1,112,8|2,1:2|2:0,2:0:0:0:
216,368,20240,6,0,B|260:388|300:356|284:340|316:312|376:328,1,168,2|0,1:0|2:0,2:0:0:0:
436,360,20871,2,0,P|472:344|472:272,1,112,10|0,1:2|2:0,2:0:0:0:
344,192,21503,2,0,P|308:176|308:104,1,112,2|0,1:0|2:0,2:0:0:0:
352,48,21977,2,0,L|288:24,1,56,2|2,2:0|1:0,2:0:0:0:
220,32,22293,1,0,1:0:0:0:
44,20,22766,6,0,P|96:48|92:120,1,125.999996154785,6|0,1:0|2:0,2:0:0:0:
32,168,23240,1,0,2:0:0:0:
32,168,23398,2,0,P|42:198|60:252,1,62.9999980773926,8|0,1:2|2:0,2:0:0:0:
16,308,23714,2,0,P|26:338|44:392,1,62.9999980773926,2|0,2:0|2:0,2:0:0:0:
124,372,24029,6,0,P|160:332|232:336,1,125.999996154785,2|2,1:0|2:0,2:0:0:0:
312,364,24503,1,2,2:0:0:0:
312,364,24661,2,0,P|348:372|380:360,1,62.9999980773926,8|2,1:2|2:0,2:0:0:0:
444,312,24977,1,2,2:0:0:0:
452,136,25293,6,0,L|472:72,2,62.9999980773926,0|0|0,1:0|2:0|2:0,2:0:0:0:
420,220,25766,1,0,2:0:0:0:
420,220,25924,2,0,B|356:232|368:180|288:192,1,125.999996154785,8|2,1:2|2:0,2:0:0:0:
228,244,26398,5,0,2:0:0:0:
228,244,26556,1,2,1:0:0:0:
80,340,26871,1,2,2:0:0:0:
80,340,27029,1,2,2:0:0:0:
20,272,27187,2,0,L|48:192,1,62.9999980773926,8|2,1:2|2:0,2:0:0:0:
4,132,27503,2,0,P|52:120|60:72,1,94.499997116089,2|0,2:0|2:0,2:0:0:0:
60,68,27819,6,0,P|117:47|184:28,1,125.999996154785,4|0,1:0|2:0,2:0:0:0:
260,68,28293,1,0,2:0:0:0:
260,68,28450,1,8,1:2:0:0:
432,24,28766,1,2,2:0:0:0:
432,24,28924,1,2,2:0:0:0:
488,92,29082,6,0,P|470:152|452:224,1,125.999996154785,0|0,1:0|2:0,2:0:0:0:
488,300,29556,1,0,2:0:0:0:
488,300,29714,2,0,P|452:348|380:340,1,125.999996154785,8|0,1:2|2:0,2:0:0:0:
236,264,30345,6,0,B|172:252|184:304|104:292,1,125.999996154785,0|2,1:0|2:0,2:0:0:0:
44,244,30819,1,0,2:0:0:0:
44,244,30977,2,0,P|16:200|48:136,1,125.999996154785,10|2,1:2|2:0,2:0:0:0:
128,112,31450,5,0,2:0:0:0:
128,112,31608,2,0,P|173:126|232:148,1,94.499997116089,2|0,1:0|2:0,2:0:0:0:
228,152,31924,2,0,L|288:176,1,62.9999980773926,2|0,2:0|2:0,2:0:0:0:
376,232,32240,2,0,P|428:208|420:144,1,125.999996154785,10|2,1:2|2:0,2:0:0:0:
328,48,32871,5,4,1:2:0:0:
144,224,42977,6,0,P|198:237|268:256,1,112,4|0,1:0|2:0,2:0:0:0:
332,276,43450,1,0,2:0:0:0:
332,276,43608,1,0,3:0:0:0:
456,176,43924,2,0,P|476:144|388:92,1,168,0|0,3:0|2:0,2:0:0:0:
328,136,44556,6,0,P|284:144|236:96,1,112,2|2,3:0|3:0,2:0:0:0:
96,44,45187,1,2,3:0:0:0:
96,44,45345,1,2,3:0:0:0:
44,104,45503,6,0,P|63:160|84:220,1,112,0|0,3:0|2:0,2:0:0:0:
44,280,45977,1,0,3:0:0:0:
44,280,46135,1,0,3:0:0:0:
180,360,46450,6,0,P|198:287|224:188,1,168,0|0,3:0|2:0,2:0:0:0:
196,124,47082,1,2,3:0:0:0:
316,20,47398,2,0,P|368:28|392:92,1,112,2|0,3:0|3:0,2:0:0:0:
340,164,47871,5,2,2:0:0:0:
340,164,48029,2,0,P|359:226|380:296,1,125.999996154785,0|0,3:0|2:0,2:0:0:0:
404,372,48503,1,0,2:0:0:0:
404,372,48661,1,0,3:0:0:0:
240,320,48977,5,0,3:0:0:0:
240,320,49135,2,0,B|176:308|188:360|108:348,1,125.999996154785,0|0,2:0|2:0,2:0:0:0:
44,304,49608,1,2,3:0:0:0:
128,148,49924,1,2,3:0:0:0:
128,148,50082,1,0,3:0:0:0:
68,88,50240,1,2,3:0:0:0:
68,88,50398,1,0,3:0:0:0:
140,36,50556,6,0,P|168:20|208:20,1,62.9999980773926,0|0,3:0|3:0,2:0:0:0:
268,72,50871,2,0,P|296:88|336:88,1,62.9999980773926,0|0,3:0|3:0,2:0:0:0:
408,56,51187,1,0,3:0:0:0:
408,56,51345,1,0,3:0:0:0:
476,116,51503,2,0,L|452:192,1,62.9999980773926,0|0,3:0|3:0,2:0:0:0:
428,260,51819,5,0,2:0:0:0:
428,260,52766,6,0,P|388:264|360:316,1,94.499997116089,0|0,1:0|2:0,2:0:0:0:
360,320,53082,1,0,1:0:0:0:
276,372,53240,2,0,P|208:354|132:336,1,140,0|0,2:0|2:0,2:0:0:0:
28,372,53714,1,14,1:2:0:0:
28,372,53871,1,2,2:0:0:0:
28,272,54029,2,0,L|52:196,1,70,2|0,2:0|2:0,2:0:0:0:
56,104,54345,6,0,P|108:86|164:72,1,105,2|2,1:0|2:0,2:0:0:0:
168,80,54661,2,0,L|252:108,1,70,2|0,2:0|2:0,2:0:0:0:
320,56,54977,2,0,L|386:33,1,70,10|0,1:2|2:0,2:0:0:0:
476,88,55293,1,2,2:0:0:0:
476,88,55450,1,2,2:0:0:0:
416,168,55608,6,0,L|344:148,2,70,0|2|2,1:0|2:0|2:0,2:0:0:0:
476,248,56082,1,2,2:0:0:0:
412,324,56240,2,0,P|363:340|304:360,1,105,10|2,1:2|2:0,2:0:0:0:
300,364,56556,2,0,P|268:336|268:304,1,70,0|0,2:0|2:0,2:0:0:0:
324,236,56871,6,0,P|352:212|344:144,1,105,2|2,1:0|2:0,2:0:0:0:
336,140,57187,2,0,L|260:116,1,70,2|0,2:0|2:0,2:0:0:0:
184,68,57503,1,8,1:2:0:0:
92,104,57661,2,0,P|48:152|72:224,1,140,0|0,1:0|2:0,2:0:0:0:
152,296,58135,5,6,1:0:0:0:
152,296,58293,2,0,B|228:284|204:340|296:328,1,140,2|2,2:0|2:0,2:0:0:0:
372,284,58766,1,14,1:2:0:0:
460,332,58924,2,0,P|477:264|494:196,1,140,2|2,2:0|2:0,2:0:0:0:
452,112,59398,5,2,1:0:0:0:
452,112,59556,1,2,2:0:0:0:
376,52,59714,2,0,P|332:52|308:72,1,70,2|2,2:0|2:0,2:0:0:0:
232,124,60029,1,10,1:2:0:0:
144,80,60187,2,0,P|129:142|112:228,1,140,2|2,2:0|2:0,2:0:0:0:
68,304,60661,5,2,1:2:0:0:
68,304,60819,2,0,P|108:344|188:336,1,140,2|2,2:0|2:0,2:0:0:0:
264,280,61293,1,10,1:2:0:0:
344,336,61450,2,0,B|420:324|396:380|488:368,1,140,2|2,2:0|2:0,2:0:0:0:
500,272,61924,6,0,P|486:221|468:156,1,105,2|0,1:0|2:0,2:0:0:0:
468,156,62240,1,2,2:0:0:0:
376,136,62398,1,2,2:0:0:0:
376,136,62556,2,0,L|296:160,1,70,8|10,1:2|2:0,2:0:0:0:
236,220,62871,1,10,2:0:0:0:
68,116,63187,5,0,1:0:0:0:
144,52,63345,2,0,B|220:64|196:8|288:20,1,140,0|0,2:0|2:0,2:0:0:0:
376,68,63819,1,14,1:2:0:0:
376,68,63977,1,2,2:0:0:0:
464,24,64135,2,0,P|488:64|484:96,1,70,2|0,2:0|2:0,2:0:0:0:
428,164,64450,6,0,P|396:208|408:264,1,105,2|0,1:0|2:0,2:0:0:0:
412,264,64766,2,0,P|436:292|436:340,1,70,2|0,2:0|2:0,2:0:0:0:
352,368,65082,2,0,L|264:344,1,70,8|0,1:2|2:0,2:0:0:0:
220,284,65398,1,2,2:0:0:0:
220,284,65556,1,2,2:0:0:0:
128,316,65714,6,0,L|148:388,2,70,2|2|2,1:0|2:0|2:0,2:0:0:0:
68,240,66187,1,0,2:0:0:0:
16,156,66345,2,0,P|33:104|56:40,1,105,10|2,1:2|2:0,2:0:0:0:
56,44,66661,2,0,P|80:24|124:24,1,70,0|0,2:0|2:0,2:0:0:0:
192,88,66977,6,0,P|224:124|292:116,1,105,2|2,1:0|2:0,2:0:0:0:
288,116,67293,2,0,L|368:84,1,70,2|0,2:0|2:0,2:0:0:0:
440,48,67608,1,8,1:2:0:0:
488,132,67766,2,0,P|465:204|440:288,1,140,0|0,1:0|2:0,2:0:0:0:
360,344,68240,5,6,1:0:0:0:
360,344,68398,2,0,P|336:292|248:288,1,140,2|2,2:0|2:0,2:0:0:0:
180,336,68871,1,14,1:2:0:0:
84,360,69029,2,0,P|36:344|48:248,1,140,2|2,2:0|2:0,2:0:0:0:
116,212,69503,5,2,1:0:0:0:
116,212,69661,1,2,2:0:0:0:
52,140,69819,2,0,L|68:60,1,70,2|2,2:0|2:0,2:0:0:0:
152,24,70135,1,10,1:2:0:0:
228,88,70293,2,0,B|304:100|280:44|372:56,1,140,2|2,2:0|2:0,2:0:0:0:
456,112,70766,5,2,1:0:0:0:
456,112,70924,2,0,P|492:164|464:240,1,140,2|2,2:0|2:0,2:0:0:0:
380,268,71398,1,10,1:2:0:0:
292,224,71556,2,0,P|224:204|140:184,1,140,2|2,2:0|2:0,2:0:0:0:
64,216,72029,5,0,1:0:0:0:
64,216,73293,6,0,P|52:244|56:276,2,56,0|0|0,1:0|2:0|2:0,2:0:0:0:
120,160,73766,1,0,2:0:0:0:
120,160,73924,2,0,L|232:196,1,112,8|0,2:0|2:0,2:0:0:0:
364,332,74556,6,0,P|388:348|420:348,1,56,0|0,2:0|2:0,2:0:0:0:
480,308,74871,2,0,P|496:284|496:252,1,56,0|0,2:0|2:0,2:0:0:0:
440,204,75187,2,0,P|408:160|432:100,1,112,8|0,2:0|2:0,2:0:0:0:
272,68,75819,6,0,L|260:136,2,56,0|0|0,2:0|2:0|2:0,2:0:0:0:
204,36,76293,1,0,2:0:0:0:
204,36,76451,2,0,B|148:44|160:0|96:8,1,112,8|0,2:0|2:0,2:0:0:0:
20,144,77082,6,0,L|36:208,1,56,0|0,2:0|2:0,2:0:0:0:
108,224,77398,2,0,L|92:288,1,56,0|0,2:0|2:0,2:0:0:0:
64,352,77714,2,0,P|96:320|168:332,1,112,8|0,2:0|2:0,2:0:0:0:
312,356,78345,6,0,L|328:300,2,56,0|0|0,1:0|2:0|2:0,2:0:0:0:
392,380,78819,1,0,2:0:0:0:
392,380,78977,2,0,P|406:326|424:268,1,112,8|0,2:0|2:0,2:0:0:0:
488,128,79608,6,0,P|464:104|432:96,1,56,0|0,2:0|2:0,2:0:0:0:
372,132,79924,2,0,P|348:156|316:164,1,56,0|0,2:0|2:0,2:0:0:0:
263,115,80240,2,0,P|230:73|175:65,1,112,8|0,2:0|2:0,2:0:0:0:
48,156,80871,6,0,L|33:101,2,56,0|0|0,2:0|2:0|2:0,2:0:0:0:
96,228,81345,1,0,2:0:0:0:
96,228,81503,2,0,B|152:236|140:192|204:200,1,112,8|0,2:0|2:0,2:0:0:0:
344,264,82135,6,0,L|328:324,1,56,0|0,2:0|2:0,2:0:0:0:
264,360,82450,2,0,L|192:344,1,56,0|0,2:0|2:0,2:0:0:0:
132,328,82766,1,0,1:0:0:0:
132,328,83398,6,0,P|184:288|149:217,1,146.999995513916,2|0,1:0|2:0,2:0:0:0:
89,195,84029,2,0,P|49:175|50:113,1,97.9999970092774,8|2,2:0|2:0,2:0:0:0:
152,43,84661,6,0,L|209:58,1,48.9999985046387,2|0,2:0|2:0,2:0:0:0:
269,92,84977,1,2,2:0:0:0:
269,92,85135,2,0,B|320:99|309:58|368:66,1,97.9999970092774,2|2,2:0|2:0,2:0:0:0:
448,99,85608,6,0,P|427:170|407:248,1,146.999995513916,2|0,2:0|2:0,2:0:0:0:
317,343,86398,1,0,2:0:0:0:
317,343,86556,2,0,P|268:331|209:317,1,97.9999970092774,8|2,2:0|2:0,2:0:0:0:
84,318,87187,6,0,P|66:291|68:262,1,48.9999985046387,2|0,2:0|2:0,2:0:0:0:
116,215,87503,1,2,2:0:0:0:
116,215,87661,2,0,P|156:183|141:132,1,97.9999970092774,2|2,2:0|2:0,2:0:0:0:
84,72,88135,6,0,B|123:89|159:61|145:46|173:21|227:36,1,146.999995513916,2|0,2:0|2:0,2:0:0:0:
331,118,88924,1,0,2:0:0:0:
331,118,89082,2,0,P|359:89|341:24,1,97.9999970092774,8|2,2:0|2:0,2:0:0:0:
282,12,89556,2,0,P|246:53|259:105,1,97.9999970092774,0|0,2:0|2:0,2:0:0:0:
270,169,90029,1,0,2:0:0:0:
315,298,90345,2,0,P|359:334|412:319,1,97.9999970092774,8|0,2:0|2:0,2:0:0:0:
474,216,90977,6,0,P|494:176|423:109,1,146.999995513916,0|0,2:0|2:0,2:0:0:0:
361,121,91608,2,0,P|309:107|252:92,1,97.9999970092774,8|0,2:0|2:0,2:0:0:0:
149,22,92240,6,0,P|109:30|87:95,1,97.9999970092774,0|0,2:0|2:0,2:0:0:0:
108,152,92714,1,0,2:0:0:0:
108,152,92871,2,0,L|89:212,1,48.9999985046387,8|0,1:2|2:0,2:0:0:0:
71,269,93187,1,0,2:0:0:0:
214,367,93503,6,0,B|278:379|266:327|346:339,1,125.999996154785,6|0,1:0|2:0,2:0:0:0:
423,359,93977,1,0,2:0:0:0:
423,359,94135,2,0,P|443:327|443:299,1,62.9999980773926,8|0,1:2|2:0,2:0:0:0:
388,233,94450,2,0,P|368:201|368:173,1,62.9999980773926,2|0,2:0|2:0,2:0:0:0:
416,104,94766,6,0,P|392:60|304:56,1,125.999996154785,2|2,1:0|2:0,2:0:0:0:
248,96,95240,1,2,2:0:0:0:
248,96,95398,2,0,L|180:76,1,62.9999980773926,8|2,1:2|2:0,2:0:0:0:
100,56,95714,1,2,2:0:0:0:
24,216,96029,6,0,L|44:284,2,62.9999980773926,0|0|0,1:0|2:0|2:0,2:0:0:0:
64,136,96503,1,0,2:0:0:0:
64,136,96661,2,0,P|127:154|200:176,1,125.999996154785,8|2,1:2|2:0,2:0:0:0:
260,228,97135,5,0,2:0:0:0:
260,228,97293,1,2,1:0:0:0:
420,152,97608,1,2,2:0:0:0:
420,152,97766,1,2,2:0:0:0:
476,220,97924,2,0,L|456:284,1,62.9999980773926,8|2,1:2|2:0,2:0:0:0:
404,352,98240,2,0,P|358:339|312:328,1,94.499997116089,2|0,2:0|2:0,2:0:0:0:
300,332,98556,6,0,P|242:349|172:372,1,125.999996154785,4|0,1:0|2:0,2:0:0:0:
96,356,99029,1,0,2:0:0:0:
96,356,99187,1,8,1:2:0:0:
28,200,99503,1,2,2:0:0:0:
28,200,99661,1,2,2:0:0:0:
72,124,99819,6,0,P|96:80|176:84,1,125.999996154785,0|0,1:0|2:0,2:0:0:0:
236,136,100293,1,0,2:0:0:0:
236,136,100450,1,8,1:2:0:0:
396,56,100766,1,2,2:0:0:0:
396,56,100924,1,2,2:0:0:0:
460,116,101082,6,0,P|473:179|488:252,1,125.999996154785,2|2,1:0|2:0,2:0:0:0:
428,308,101556,1,2,2:0:0:0:
428,308,101714,2,0,B|364:320|376:268|296:280,1,125.999996154785,10|2,1:2|2:0,2:0:0:0:
224,296,102187,1,2,2:0:0:0:
224,296,102345,6,0,P|196:264|212:200,1,94.499997116089,2|0,1:0|2:0,2:0:0:0:
212,208,102661,2,0,P|236:176|232:148,1,62.9999980773926,2|2,2:0|2:0,2:0:0:0:
180,52,102977,1,10,1:2:0:0:
180,52,103135,2,0,P|136:16|64:24,1,125.999996154785,2|2,2:0|2:0,2:0:0:0:
0,108,103608,5,4,1:2:0:0:
28,264,103924,2,0,B|96:288|152:248|108:208|160:160|236:152|296:232|220:312|176:248,1,336,0|8,2:0|2:0,2:0:0:0:
178,251,105503,2,0,P|260:222|342:195,1,168,0|0,2:0|2:0,2:0:0:0:
436,228,106135,6,0,B|468:212|512:176|512:108|448:64|348:84|376:180|296:260|420:344,1,448,0|8,1:0|2:0,2:0:0:0:
419,343,108029,2,0,P|376:280|280:288,1,168,0|0,2:0|2:0,2:0:0:0:
208,344,108661,6,0,P|152:324|176:188,2,224,4|0|8,1:0|2:0|2:0,2:0:0:0:
364,324,110240,2,0,L|380:384,2,56,0|0|0,2:0|2:0|2:0,2:0:0:0:
480,220,110871,2,0,L|500:156,1,56,0|0,2:0|2:0,2:0:0:0:
436,84,111187,6,0,B|508:140|588:36|500:-60|388:-44|336:24|396:80|304:136|236:96,1,448,0|8,1:0|2:0,2:0:0:0:
236,96,113082,1,0,2:0:0:0:
96,28,113398,2,0,L|76:92,1,56,0|0,2:0|2:0,2:0:0:0:
24,168,113714,6,0,P|68:176|80:288,2,168,4|0|0,1:0|2:0|2:0,2:0:0:0:
148,72,114977,6,0,P|255:47|376:20,1,224,8|0,2:0|2:0,2:0:0:0:
432,164,115924,1,0,2:0:0:0:
360,304,116240,6,0,B|404:324|444:292|428:276|460:248|520:264,2,168,0|0|0,1:0|2:0|2:0,2:0:0:0:
220,236,117503,6,0,B|156:216|104:248|132:276|76:320|15:287,1,224,8|0,2:0|2:0,2:0:0:0:
8,212,118293,1,0,2:0:0:0:
8,212,118450,2,0,L|24:148,1,56,0|0,2:0|2:0,2:0:0:0:
100,92,118766,6,0,B|84:56|48:44|48:44|336:140|336:140|296:128|256:160,1,448,4|8,1:0|2:0,2:0:0:0:
267,151,120661,2,0,P|336:168|328:264,1,168,0|0,2:0|2:0,2:0:0:0:
288,316,121293,5,0,1:0:0:0:
144,260,121608,2,0,P|129:314|116:372,2,112,2|0|0,2:0|2:0|2:0,2:0:0:0:
44,140,122556,6,0,P|64:112|144:112,1,112,0|0,2:0|2:0,2:0:0:0:
252,212,123187,2,0,P|272:240|352:240,1,112,0|0,2:0|2:0,2:0:0:0:
416,168,123661,5,0,2:0:0:0:
416,168,123819,1,4,1:0:0:0:
24,16,133924,6,0,P|78:29|92:88,1,112,2|0,1:0|2:0,2:0:0:0:
52,148,134398,1,0,2:0:0:0:
52,148,134556,1,0,3:0:0:0:
128,284,134871,2,0,B|172:304|212:272|196:256|228:228|288:244,1,168,0|0,3:0|2:0,2:0:0:0:
332,300,135503,6,0,P|372:336|436:324,1,112,2|2,3:0|3:0,2:0:0:0:
500,192,136135,1,2,3:0:0:0:
500,192,136293,1,2,3:0:0:0:
459,119,136450,6,0,P|411:105|343:87,1,112,0|0,3:0|2:0,2:0:0:0:
277,78,136924,1,0,3:0:0:0:
277,78,137082,1,0,3:0:0:0:
136,16,137398,6,0,P|80:24|80:120,1,168,0|0,3:0|2:0,2:0:0:0:
140,164,138029,1,2,3:0:0:0:
276,84,138345,2,0,P|334:101|396:120,1,112,2|0,3:0|2:0,2:0:0:0:
476,168,138819,5,2,2:0:0:0:
476,168,138977,2,0,P|436:188|424:272,1,125.999996154785,0|0,3:0|3:0,2:0:0:0:
468,340,139450,1,0,2:0:0:0:
468,340,139608,1,0,3:0:0:0:
296,312,139924,5,0,3:0:0:0:
296,312,140082,2,0,B|232:300|244:352|164:340,1,125.999996154785,0|0,2:0|2:0,2:0:0:0:
96,308,140556,1,0,3:0:0:0:
12,160,140871,1,0,3:0:0:0:
12,160,141029,1,0,3:0:0:0:
80,100,141187,1,0,3:0:0:0:
80,100,141345,1,0,3:0:0:0:
152,152,141503,6,0,P|184:161|232:176,1,62.9999980773926,0|0,3:0|3:0,2:0:0:0:
284,116,141819,2,0,P|314:106|344:98,1,62.9999980773926,0|0,3:0|3:0,2:0:0:0:
424,144,142135,1,0,3:0:0:0:
424,144,142292,1,0,3:0:0:0:
492,200,142450,2,0,P|496:244|476:276,1,62.9999980773926,0|0,3:0|3:0,2:0:0:0:
432,328,142766,6,0,B|356:354|294:310|343:265|285:212|200:200|136:300|192:323|236:372|280:296,1,377.999988464356,0|0,2:0|1:0,2:0:0:0:
368,144,144029,5,4,1:0:0:0:
316,60,144187,2,0,P|250:43|164:24,1,140,0|0,2:0|2:0,2:0:0:0:
100,84,144661,1,12,1:2:0:0:
16,36,144819,2,0,P|-4:84|52:168,1,140,0|0,2:0|2:0,2:0:0:0:
108,220,145293,5,4,1:0:0:0:
76,312,145450,2,0,B|152:324|128:268|220:280,1,140,0|0,2:0|2:0,2:0:0:0:
296,320,145924,1,12,1:2:0:0:
296,320,146082,2,0,P|345:335|400:352,1,105,0|0,2:0|2:0,2:0:0:0:
408,356,146398,1,0,2:0:0:0:
488,272,146556,5,6,1:0:0:0:
488,272,146714,2,0,P|476:235|464:192,1,70,2|0,2:0|2:0,2:0:0:0:
488,108,147029,1,2,2:0:0:0:
416,44,147187,2,0,P|368:40|320:72,1,105,10|0,1:2|2:0,2:0:0:0:
316,84,147503,2,0,P|292:116|256:120,1,70,2|0,2:0|2:0,2:0:0:0:
176,76,147819,6,0,P|152:44|84:40,1,105,6|0,1:0|2:0,2:0:0:0:
80,44,148135,2,0,L|56:128,1,70,2|0,2:0|2:0,2:0:0:0:
68,208,148450,1,10,1:2:0:0:
164,184,148608,2,0,B|240:172|216:228|308:216,1,140,0|0,1:0|2:0,2:0:0:0:
404,176,149082,5,6,1:0:0:0:
404,176,149240,2,0,P|444:212|420:300,1,140,2|2,2:0|2:0,2:0:0:0:
356,352,149714,1,14,1:2:0:0:
264,316,149871,2,0,B|188:304|212:360|120:348,1,140,2|2,2:0|2:0,2:0:0:0:
48,300,150345,5,2,1:0:0:0:
48,300,150503,1,2,2:0:0:0:
100,216,150661,2,0,P|116:180|108:152,1,70,2|2,2:0|2:0,2:0:0:0:
36,84,150977,1,10,1:2:0:0:
112,20,151135,2,0,P|181:36|252:56,1,140,2|2,2:0|2:0,2:0:0:0:
356,16,151608,5,2,1:2:0:0:
356,16,151766,2,0,P|396:40|392:136,1,140,2|2,2:0|2:0,2:0:0:0:
332,200,152240,1,10,1:2:0:0:
384,284,152398,2,0,P|315:304|244:328,1,140,2|2,2:0|2:0,2:0:0:0:
160,364,152871,6,0,P|107:349|52:336,1,105,2|0,1:0|2:0,2:0:0:0:
44,336,153187,1,2,2:0:0:0:
24,244,153345,1,2,2:0:0:0:
24,244,153503,2,0,L|44:168,1,70,8|10,1:2|2:0,2:0:0:0:
36,76,153819,6,0,P|72:100|128:60,1,105,10|0,2:0|2:0,2:0:0:0:
132,64,154135,1,0,1:0:0:0:
220,20,154293,2,0,P|283:37|376:64,1,140,0|0,2:0|2:0,2:0:0:0:
440,136,154766,1,14,1:2:0:0:
440,136,154924,1,2,2:0:0:0:
352,180,155082,2,0,L|264:156,1,70,2|0,2:0|2:0,2:0:0:0:
192,128,155398,6,0,P|140:141|72:160,1,105,2|0,1:0|2:0,2:0:0:0:
76,159,155714,2,0,P|57:188|60:223,1,70,2|0,2:0|2:0,2:0:0:0:
116,304,156029,2,0,P|147:326|183:322,1,70,10|0,1:2|2:0,2:0:0:0:
264,272,156345,1,2,2:0:0:0:
264,272,156503,1,2,2:0:0:0:
356,304,156661,6,0,L|340:376,2,70,2|2|2,1:0|2:0|2:0,2:0:0:0:
440,252,157134,1,0,2:0:0:0:
504,176,157293,2,0,P|490:126|472:64,1,105,10|2,1:2|2:0,2:0:0:0:
468,64,157608,2,0,L|396:48,1,70,2|0,2:0|2:0,2:0:0:0:
308,88,157924,6,0,P|256:101|192:120,1,105,0|2,1:0|2:0,2:0:0:0:
192,112,158240,2,0,L|108:88,1,70,2|0,2:0|2:0,2:0:0:0:
44,148,158555,1,10,1:2:0:0:
84,236,158714,2,0,B|160:248|136:192|228:204,1,140,0|0,1:0|2:0,2:0:0:0:
328,184,159187,5,6,1:0:0:0:
328,184,159345,2,0,P|376:232|356:312,1,140,2|2,2:0|2:0,2:0:0:0:
288,356,159819,1,14,1:2:0:0:
192,364,159977,2,0,P|129:346|56:328,1,140,2|2,2:0|2:0,2:0:0:0:
16,244,160450,5,2,1:0:0:0:
16,244,160608,1,2,2:0:0:0:
32,148,160766,2,0,L|120:120,1,70,2|2,2:0|2:0,2:0:0:0:
172,60,161082,1,10,1:2:0:0:
256,108,161240,2,0,B|332:120|308:64|400:76,1,140,2|2,2:0|2:0,2:0:0:0:
480,144,161713,5,2,1:0:0:0:
480,144,161871,2,0,P|461:212|440:300,1,140,2|2,2:0|2:0,2:0:0:0:
364,332,162345,1,10,1:2:0:0:
280,280,162503,2,0,P|211:261|124:240,1,140,2|2,2:0|2:0,2:0:0:0:
48,224,162977,5,0,1:0:0:0:
48,224,163608,2,0,L|64:144,2,70,8|8|8,2:0|2:0|2:0,2:0:0:0:
48,332,164082,5,8,2:0:0:0:
48,332,164240,2,0,P|72:352|104:360,1,62.9999980773926,0|0,1:0|1:0,2:0:0:0:
168,300,164556,2,0,P|204:236|328:252,1,188.999994232178,0|0,1:0|1:0,2:0:0:0:
492,372,165503,6,0,P|477:316|456:236,1,125.999996154785,0|0,1:0|2:0,2:0:0:0:
476,164,165977,2,0,L|500:96,1,62.9999980773926,0|0,1:0|2:0,2:0:0:0:
456,24,166293,1,0,1:0:0:0:
200,84,166766,5,0,1:0:0:0:
200,84,166924,1,0,1:0:0:0:
120,48,167082,2,0,P|95:140|68:244,1,188.999994232178,0|0,1:0|1:0,2:0:0:0:
216,332,167871,5,0,1:0:0:0:
216,332,167950,1,0,1:0:0:0:
216,332,168029,2,0,P|264:308|252:240,1,125.999996154785,0|0,1:0|2:0,2:0:0:0:
180,196,168503,2,0,P|156:176|148:136,1,62.9999980773926,0|8,1:0|2:0,2:0:0:0:
208,84,168819,1,0,1:0:0:0:
464,20,169293,6,0,L|484:92,1,62.9999980773926,0|0,1:0|1:0,2:0:0:0:
412,136,169608,2,0,B|388:184|424:232|442:210|480:252|455:312,1,188.999994232178,0|0,1:0|1:0,2:0:0:0:
200,364,170556,6,0,P|196:328|112:300,1,125.999996154785,0|0,1:0|2:0,2:0:0:0:
48,344,171029,2,0,L|24:276,1,62.9999980773926,0|8,1:0|2:0,2:0:0:0:
76,212,171345,1,0,1:0:0:0:
8,16,171819,6,0,P|40:16|76:40,1,62.9999980773926,0|0,1:0|1:0,2:0:0:0:
116,104,172135,2,0,P|144:156|268:148,1,188.999994232178,0|0,1:0|1:0,2:0:0:0:
404,52,172924,5,0,1:0:0:0:
404,52,173003,1,0,1:0:0:0:
404,52,173082,2,0,P|452:96|436:168,1,125.999996154785,0|0,1:0|2:0,2:0:0:0:
380,208,173556,2,0,P|360:240|364:276,1,62.9999980773926,0|8,1:0|2:0,2:0:0:0:
399,343,173871,1,8,1:2:0:0:
318,372,174029,1,8,0:0:0:0:
318,372,174187,1,8,0:0:0:0:
232,348,174345,6,0,L|256:276,1,62.9999980773926,0|0,1:0|1:0,2:0:0:0:
291,208,174661,2,0,P|289:151|179:132,1,188.999994232178,0|0,1:0|1:0,2:0:0:0:
32,352,175608,6,0,B|100:360|84:308|160:316,1,125.999996154785,0|0,1:0|2:0,2:0:0:0:
232,348,176082,2,0,L|312:368,1,62.9999980773926,0|8,1:0|2:0,2:0:0:0:
376,328,176398,1,0,1:0:0:0:
504,96,176871,6,0,P|480:120|444:120,1,62.9999980773926,0|0,1:0|1:0,2:0:0:0:
384,68,177187,2,0,B|336:44|288:80|309:98|268:136|208:112,1,188.999994232178,0|0,1:0|1:0,2:0:0:0:
60,28,177977,5,0,1:0:0:0:
60,28,178056,1,0,1:0:0:0:
60,28,178135,2,0,L|20:164,1,125.999996154785,0|0,1:0|2:0,2:0:0:0:
36,236,178608,2,0,P|64:256|100:256,1,62.9999980773926,0|8,1:0|2:0,2:0:0:0:
172,216,178924,1,0,1:0:0:0:
384,56,179398,6,0,P|408:32|440:24,1,62.9999980773926,0|0,1:0|1:0,2:0:0:0:
496,88,179714,2,0,P|470:177|444:276,1,188.999994232178,0|0,1:0|1:0,2:0:0:0:
196,364,180661,6,0,P|176:312|112:312,1,125.999996154785,0|0,1:0|2:0,2:0:0:0:
36,352,181135,2,0,P|16:328|16:288,1,62.9999980773926,0|8,1:0|2:0,2:0:0:0:
76,236,181450,1,0,2:0:0:0:
8,4,181924,6,0,L|88:28,1,62.9999980773926,0|0,1:0|1:0,2:0:0:0:
132,84,182240,2,0,B|179:108|227:72|206:53|248:16|308:40,1,188.999994232178,0|0,1:0|1:0,2:0:0:0:
492,220,183187,5,0,1:0:0:0:
256,192,184450,5,4,1:2:0:0:
488,24,194556,6,0,B|430:13|441:59|369:49,1,112,6|0,1:0|2:0,2:0:0:0:
312,28,195029,1,0,3:0:0:0:
312,28,195187,1,0,3:0:0:0:
156,56,195503,2,0,P|133:134|108:224,1,168,0|0,3:0|2:0,2:0:0:0:
52,272,196135,6,0,P|72:316|136:324,1,112,0|2,3:0|3:0,2:0:0:0:
288,300,196766,1,2,3:0:0:0:
288,300,196924,1,2,3:0:0:0:
356,340,197082,6,0,P|374:287|392:234,1,112,0|0,3:0|2:0,2:0:0:0:
420,164,197556,1,0,3:0:0:0:
420,164,197714,1,0,3:0:0:0:
328,36,198029,6,0,P|280:92|192:72,1,168,0|0,3:0|2:0,2:0:0:0:
132,28,198661,1,2,3:0:0:0:
28,144,198977,2,0,P|44:200|60:260,1,112,2|0,3:0|2:0,2:0:0:0:
160,256,199450,5,2,2:0:0:0:
160,256,199608,2,0,P|141:195|123:135,1,125.999996154785,0|0,3:0|2:0,2:0:0:0:
195,75,200082,1,0,2:0:0:0:
195,75,200240,1,0,3:0:0:0:
368,28,200556,5,0,3:0:0:0:
368,28,200714,2,0,P|408:64|404:140,1,125.999996154785,0|0,2:0|2:0,2:0:0:0:
364,208,201187,1,0,3:0:0:0:
248,340,201503,1,0,2:0:0:0:
248,340,201661,1,0,2:0:0:0:
180,296,201819,1,0,3:0:0:0:
180,296,201977,1,0,2:0:0:0:
104,340,202135,6,0,P|88:312|88:272,1,62.9999980773926,0|0,3:0|3:0,2:0:0:0:
140,212,202450,2,0,P|156:184|156:144,1,62.9999980773926,0|0,3:0|3:0,2:0:0:0:
100,96,202766,1,0,3:0:0:0:
100,96,202924,1,0,3:0:0:0:
168,40,203082,2,0,L|244:20,1,62.9999980773926,0|0,3:0|3:0,2:0:0:0:
328,56,203398,5,8,3:2:0:0:
504,32,203714,2,0,P|487:78|468:132,1,94.499997116089,2|0,3:0|3:0,2:0:0:0:
468,132,204029,2,0,P|484:178|504:232,1,94.499997116089,2|0,3:0|3:0,2:0:0:0:
500,232,204345,2,0,L|484:280,3,31.4999990386963,2|0|2|0,3:0|3:0|3:0|3:0,2:0:0:0:
484,276,204661,5,6,1:0:0:0:
416,344,204819,1,0,1:0:0:0:
416,344,204977,2,0,P|384:292|304:292,1,140,8|0,2:0|1:0,2:0:0:0:
228,344,205450,1,0,1:0:0:0:
228,344,205608,1,8,2:0:0:0:
144,292,205766,1,0,2:0:0:0:
60,344,205924,6,0,P|32:312|36:248,1,105,0|0,1:0|2:0,2:0:0:0:
43,244,206240,2,0,P|67:219|69:184,1,70,10|0,2:0|1:0,2:0:0:0:
28,96,206556,2,0,P|61:82|96:68,1,70,2|0,2:0|1:0,2:0:0:0:
188,84,206871,2,0,P|220:97|252:110,1,70,10|2,2:0|2:0,2:0:0:0:
328,172,207187,5,0,1:0:0:0:
328,172,207345,1,0,1:0:0:0:
252,232,207503,2,0,P|216:284|248:352,1,140,8|0,2:0|1:0,2:0:0:0:
340,368,207977,1,0,1:0:0:0:
412,300,208135,2,0,L|484:276,1,70,8|0,2:0|2:0,2:0:0:0:
509,184,208450,6,0,P|491:136|469:76,1,105,0|0,1:0|2:0,2:0:0:0:
465,72,208766,1,10,0:0:0:0:
385,33,208924,1,0,1:0:0:0:
385,33,209003,1,0,0:0:0:0:
385,33,209082,2,0,P|322:52|237:81,1,140,2|10,2:0|2:0,2:0:0:0:
170,29,209556,5,2,2:0:0:0:
170,29,209714,2,0,P|107:48|22:77,1,140,0|10,1:0|2:0,2:0:0:0:
20,168,210187,2,0,P|76:184|88:264,1,140,2|0,1:0|1:0,2:0:0:0:
56,348,210661,1,10,2:0:0:0:
56,348,210819,1,2,2:0:0:0:
148,376,210977,6,0,L|192:360,3,35,0|0|0|0,1:0|2:0|2:0|2:0,2:0:0:0:
196,360,211293,1,10,2:0:0:0:
272,300,211450,2,0,L|344:320,1,70,2|0,1:0|1:0,2:0:0:0:
424,372,211766,1,2,1:0:0:0:
488,296,211924,2,0,P|492:260|472:224,1,70,10|0,2:0|2:0,2:0:0:0:
400,168,212240,5,0,1:0:0:0:
400,168,212398,1,0,1:0:0:0:
444,80,212556,2,0,B|368:92|392:36|300:48,1,140,8|0,2:0|1:0,2:0:0:0:
232,100,213029,2,0,P|200:120|160:120,1,70,0|8,1:0|2:0,2:0:0:0:
84,96,213345,5,0,2:0:0:0:
84,96,213424,1,0,2:0:0:0:
84,96,213503,2,0,L|60:176,1,70,0|0,1:0|2:0,2:0:0:0:
40,260,213819,2,0,P|88:256|124:296,1,105,10|0,2:0|2:0,2:0:0:0:
128,308,214135,2,0,P|176:312|212:272,1,105,2|0,3:0|3:0,2:0:0:0:
216,260,214450,2,0,L|264:240,3,35,10|0|2|0,3:2|2:0|3:0|3:0,2:0:0:0:
264,244,214766,5,6,1:0:0:0:
348,304,214924,1,0,1:0:0:0:
348,304,215082,2,0,P|392:292|400:200,1,140,8|0,2:0|1:0,2:0:0:0:
352,132,215556,1,0,1:0:0:0:
352,132,215714,1,8,2:0:0:0:
408,52,215871,1,0,2:0:0:0:
316,16,216029,6,0,P|266:28|208:44,1,105,0|0,1:0|2:0,2:0:0:0:
200,36,216345,2,0,L|120:8,1,70,10|0,2:0|1:0,2:0:0:0:
48,60,216661,2,0,P|28:96|36:132,1,70,2|0,2:0|1:0,2:0:0:0:
96,200,216977,2,0,P|116:236|108:272,1,70,10|2,2:0|2:0,2:0:0:0:
64,352,217293,5,0,1:0:0:0:
64,352,217450,1,0,1:0:0:0:
160,372,217608,2,0,B|236:384|212:328|304:340,1,140,8|0,2:0|1:0,2:0:0:0:
388,352,218082,1,0,1:0:0:0:
448,276,218240,2,0,L|424:196,1,70,8|0,2:0|2:0,2:0:0:0:
344,160,218556,6,0,P|288:156|256:192,1,105,0|0,1:0|2:0,2:0:0:0:
252,200,218871,1,10,0:0:0:0:
183,270,219029,1,0,1:0:0:0:
183,270,219108,1,0,0:0:0:0:
183,270,219187,2,0,P|127:274|87:198,1,140,2|10,2:0|2:0,2:0:0:0:
102,94,219661,5,2,2:0:0:0:
102,94,219819,2,0,B|178:106|154:50|246:62,1,140,0|10,1:0|2:0,2:0:0:0:
329,39,220293,2,0,P|344:106|365:191,1,140,2|0,1:0|1:0,2:0:0:0:
414,257,220766,1,10,2:0:0:0:
352,332,220924,5,2,2:0:0:0:
352,332,221003,1,0,2:0:0:0:
352,332,221082,2,0,P|320:360|276:360,1,70,0|0,1:0|2:0,2:0:0:0:
204,324,221398,1,10,2:0:0:0:
116,364,221556,2,0,P|97:304|72:228,1,140,2|2,1:0|1:0,2:0:0:0:
20,148,222029,2,0,L|44:68,1,70,10|0,2:0|2:0,2:0:0:0:
132,40,222346,5,0,1:0:0:0:
132,40,222504,1,0,1:0:0:0:
200,108,222661,2,0,P|248:156|320:144,1,140,8|0,2:0|1:0,2:0:0:0:
392,84,223135,2,0,P|416:60|460:60,1,70,0|10,1:0|2:0,2:0:0:0:
508,148,223450,5,0,3:0:0:0:
508,148,223529,1,0,3:0:0:0:
508,148,223608,2,0,L|484:228,1,70,2|0,1:0|3:0,2:0:0:0:
456,308,223924,1,2,3:0:0:0:
372,260,224082,2,0,B|296:248|320:304|228:292,1,140,2|2,3:0|3:0,2:0:0:0:
164,232,224556,2,0,L|180:184,3,35,2|0|0|0,3:0|3:0|3:0|3:0,2:0:0:0:
180,188,224871,5,4,1:0:0:0:
