osu file format v14

[General]
AudioFilename: audio.mp3
AudioLeadIn: 0
PreviewTime: 51858
Countdown: 0
SampleSet: Soft
StackLeniency: 0.5
Mode: 0
LetterboxInBreaks: 0
EpilepsyWarning: 1
WidescreenStoryboard: 1

[Editor]
DistanceSpacing: 1
BeatDivisor: 2
GridSize: 32
TimelineZoom: 1.3

[Metadata]
Title:Killer neuron
TitleUnicode:Killer neuron
Artist:Sataka Ryohei feat. Aitsuki Nakuru
ArtistUnicode:佐高陵平 feat. 藍月なくる
Creator:SMOKELIND
Version:Mocaotic's N
Source:
Tags:Hifumi,inc. みや。 Electronic Japanese Mocaotic Normal Pepekcz Hard Gazimal Expert Extra Nymphe Insane Kiyoshi Guarden Kang Sae-byeok Ermi Modding Queue ryouhei
BeatmapID:3669644
BeatmapSetID:1781376

[Difficulty]
HPDrainRate:3
CircleSize:3.4
OverallDifficulty:4
ApproachRate:5.8
SliderMultiplier:0.999999999999998
SliderTickRate:1

[Events]
//Background and Video events
Video,0,"vid.mp4"
0,0,"BG.jpg",0,0
//Break Periods
2,33071,41852
2,123819,132799
2,184450,193431
//Storyboard Layer 0 (Background)
//Storyboard Layer 1 (Fail)
//Storyboard Layer 2 (Pass)
//Storyboard Layer 3 (Foreground)
//Storyboard Layer 4 (Overlay)
//Storyboard Sound Samples

[TimingPoints]
1293,315.789473684211,4,2,7,27,1,0
2556,-100,4,2,7,37,0,0
12029,-100,4,2,74,57,0,0
12108,-100,4,2,74,5,0,0
12187,-100,4,2,74,57,0,0
12266,-100,4,2,74,5,0,0
12345,-100,4,2,74,57,0,0
12424,-100,4,2,74,5,0,0
12503,-100,4,2,74,57,0,0
12582,-100,4,2,74,5,0,0
12661,-100,4,2,7,57,0,0
22766,-100,4,2,7,67,0,0
32240,-100,4,2,77,37,0,0
32871,-100,4,2,7,37,0,0
42977,-100,4,2,7,57,0,0
50556,-100,4,2,77,57,0,0
50714,-100,4,2,77,67,0,0
51503,-100,4,2,77,57,0,0
51661,-100,4,2,77,47,0,0
51819,-100,4,2,77,37,0,0
52450,-100,4,2,77,17,0,0
52766,-100,4,2,77,47,0,0
53082,-100,4,2,77,87,0,0
57661,-100,4,2,7,87,0,0
57819,-100,4,2,77,87,0,0
62714,-100,4,2,74,87,0,0
63187,-100,4,2,77,87,0,0
67766,-100,4,2,7,87,0,0
67924,-100,4,2,77,87,0,0
72029,-100,4,2,7,87,0,0
72108,-100,4,2,77,57,0,0
73293,-100,4,2,7,37,0,0
83398,-111.111111111111,4,2,7,47,0,0
93503,-100,4,2,7,67,0,0
103608,-100,4,2,7,57,0,0
103924,-111.111111111111,4,2,7,57,0,0
121608,-111.111111111111,4,2,7,17,0,0
123661,-111.111111111111,4,2,7,37,0,0
133924,-100,4,2,7,57,0,0
141504,-100,4,2,77,57,0,0
141662,-100,4,2,77,67,0,0
142451,-100,4,2,77,57,0,0
142609,-100,4,2,77,47,0,0
142766,-100,4,2,77,37,0,0
144029,-100,4,2,77,87,0,0
148608,-100,4,2,7,87,0,0
148766,-100,4,2,77,87,0,0
153661,-100,4,2,74,87,0,0
154133,-100,4,2,77,87,0,0
158714,-100,4,2,7,87,0,0
158870,-100,4,2,77,87,0,0
162977,-100,4,2,7,87,0,0
163056,-100,4,2,77,57,0,0
163608,-100,4,2,74,57,0,0
164240,-100,4,2,77,87,0,0
168661,-100,4,2,7,87,0,0
168819,-100,4,2,77,87,0,0
169924,-100,4,2,7,87,0,0
170082,-100,4,2,77,87,0,0
171187,-100,4,2,7,87,0,0
171345,-100,4,2,77,87,0,0
172450,-100,4,2,7,87,0,0
172608,-100,4,2,77,87,0,0
173714,-100,4,2,74,87,0,0
174345,-100,4,2,77,87,0,0
174977,-100,4,2,7,87,0,0
175135,-100,4,2,77,87,0,0
176240,-100,4,2,7,87,0,0
176871,-100,4,2,77,87,0,0
177503,-100,4,2,7,87,0,0
177661,-100,4,2,77,87,0,0
178766,-100,4,2,7,87,0,0
179398,-100,4,2,77,87,0,0
180029,-100,4,2,7,87,0,0
180187,-100,4,2,77,87,0,0
184450,-100,4,2,7,27,0,0
186345,-100,4,2,7,17,0,0
194556,-100,4,2,7,47,0,0
203082,-100,4,2,77,47,0,0
203398,-100,4,2,77,57,0,0
204029,-100,4,2,77,67,0,0
204345,-100,4,2,77,77,0,0
204661,-95.2380952380952,4,2,77,87,0,1
224871,-100,4,2,77,87,0,0

[Colours]
Combo1 : 106,106,106
Combo2 : 233,233,233

[HitObjects]
256,192,1293,12,0,2556,1:0:0:0:
156,95,3187,5,8,0:0:0:0:
156,95,4450,1,8,0:0:0:0:
156,95,5714,1,8,0:0:0:0:
156,95,6977,1,8,0:0:0:0:
156,95,8240,1,8,0:0:0:0:
156,95,9503,1,8,0:0:0:0:
156,95,10766,1,8,0:0:0:0:
156,95,12029,2,0,P|139:129|135:163,1,49.9999999999999,8|8,0:0|0:0,0:0:0:0:
109,182,12345,2,0,P|126:216|130:250,1,49.9999999999999,8|8,0:0|0:0,0:0:0:0:
159,267,12661,6,0,B|222:248|260:294|239:313|271:367|352:342,1,200,6|8,1:0|1:2,0:0:0:0:
417,384,13608,1,2,0:0:0:0:
493,319,13924,2,0,P|500:252|532:189,1,99.9999999999998,2|2,1:0|0:0,0:0:0:0:
501,172,14398,1,2,0:0:0:0:
420,112,14714,2,0,P|361:117|336:172,1,99.9999999999998,2|0,0:0|0:0,0:0:0:0:
314,191,15187,6,0,B|258:202|226:159|246:137|212:82|126:114,1,200,2|8,1:0|1:2,0:0:0:0:
57,67,16135,1,2,0:0:0:0:
3,151,16450,2,0,P|24:212|35:279,1,99.9999999999998,2|2,1:0|0:0,0:0:0:0:
54,291,16924,2,0,P|109:289|146:252,1,99.9999999999998,2|2,0:0|0:0,0:0:0:0:
179,227,17398,1,2,0:0:0:0:
244,151,17714,6,0,B|307:127|347:178|326:194|370:236|442:210,1,200,4|8,1:0|1:2,0:0:0:0:
502,160,18661,2,0,P|507:115|515:92,1,49.9999999999999,2|2,0:0|0:0,0:0:0:0:
498,61,18977,2,0,P|426:17|352:95,1,200,0|8,1:0|1:2,0:0:0:0:
406,170,19924,1,2,0:0:0:0:
326,230,20240,2,0,P|220:184|116:194,2,200,2|10|2,1:0|1:2|1:0,0:0:0:0:
481,355,22135,2,0,P|497:318|509:297,1,49.9999999999999,2|0,1:0|1:0,0:0:0:0:
501,309,22766,6,0,P|448:282|381:342,1,150,6|0,1:0|0:0,0:0:0:0:
356,374,23398,1,8,1:2:0:0:
268,324,23714,1,2,0:0:0:0:
179,370,24029,2,0,P|106:353|60:353,1,99.9999999999998,2|2,1:0|0:0,0:0:0:0:
35,331,24503,2,0,P|14:282|54:226,1,99.9999999999998,2|2,0:0|0:0,0:0:0:0:
70,209,24977,1,2,0:0:0:0:
155,157,25293,6,0,B|204:147|233:179|218:198|250:225|316:214,1,150,0|0,1:0|0:0,0:0:0:0:
332,204,25924,1,8,1:2:0:0:
407,270,26240,1,2,0:0:0:0:
496,224,26556,2,0,P|510:137|497:100,1,99.9999999999998,2|2,1:0|0:0,0:0:0:0:
475,88,27029,1,2,0:0:0:0:
392,41,27345,1,2,0:0:0:0:
392,41,27503,2,0,P|352:55|320:63,1,49.9999999999999,2|0,0:0|0:0,0:0:0:0:
307,91,27819,6,0,B|259:95|239:63|253:49|223:9|148:32,1,150,4|0,1:0|0:0,0:0:0:0:
135,6,28450,1,8,1:2:0:0:
52,62,28766,2,0,P|62:98|66:130,1,49.9999999999999,2|2,0:0|0:0,0:0:0:0:
28,145,29082,2,0,P|41:211|48:308,1,150,0|0,1:0|0:0,0:0:0:0:
27,339,29714,2,0,P|85:368|175:271,1,200,8|0,1:2|1:0,0:0:0:0:
218,198,30661,5,2,0:0:0:0:
316,213,30977,2,0,P|371:194|422:192,1,99.9999999999998,10|2,1:2|0:0,0:0:0:0:
503,233,31608,1,2,1:0:0:0:
477,329,31924,1,2,0:0:0:0:
379,304,32240,2,0,B|316:285|280:333|304:351|267:404|186:379,1,200,10|4,1:2|1:2,0:0:0:0:
212,384,42977,6,0,P|181:321|118:248,1,150,4|0,1:0|0:0,0:0:0:0:
84,239,43608,1,0,3:0:0:0:
78,139,43924,2,0,B|126:124|147:71|147:71|141:153|188:184,1,200,0|2,3:0|3:0,0:0:0:0:
229,244,44871,1,2,3:0:0:0:
229,244,45503,6,0,B|275:228|306:261|291:275|326:316|387:295,1,150,0|0,3:0|3:0,0:0:0:0:
402,323,46135,1,0,3:0:0:0:
466,247,46450,2,0,P|472:159|516:49,1,200,0|2,3:0|3:0,0:0:0:0:
427,0,47398,2,0,P|375:-5|337:37,1,99.9999999999998,2|0,3:0|3:0,0:0:0:0:
263,88,48029,6,0,B|219:97|196:65|205:55|167:12|110:40,1,150,0|0,3:0|0:0,0:0:0:0:
86,12,48661,1,0,3:0:0:0:
12,79,48977,1,0,3:0:0:0:
12,79,49135,2,0,P|33:141|49:234,1,150,0|2,0:0|3:0,0:0:0:0:
17,319,49924,2,0,P|-13:318|-29:290,2,49.9999999999999,2|0|2,3:0|3:0|3:0,0:0:0:0:
113,348,50556,6,0,P|152:329|175:330,1,49.9999999999999,0|0,3:0|3:0,0:0:0:0:
198,298,50871,2,0,P|239:312|254:329,1,49.9999999999999,0|0,3:0|3:0,0:0:0:0:
289,336,51187,2,0,P|280:366|277:403,2,49.9999999999999,0|0|0,3:0|3:0|3:0,0:0:0:0:
335,313,51661,1,0,3:0:0:0:
335,313,51819,1,0,0:0:0:0:
407,179,53082,6,0,B|412:152|412:152|391:128,1,49.9999999999999,0|0,1:0|0:0,0:0:0:0:
251,168,53714,2,0,B|246:195|246:195|267:219,1,49.9999999999999,14|0,1:2|0:0,0:0:0:0:
306,243,54029,1,2,0:0:0:0:
306,243,54187,2,0,B|326:291|326:291|285:354,1,99.9999999999998,2|0,0:0|0:0,0:0:0:0:
270,373,54661,1,2,0:0:0:0:
270,373,54819,2,0,B|227:368|227:368|209:376|209:376|140:367,1,99.9999999999998,2|0,0:0|0:0,0:0:0:0:
134,338,55293,2,0,L|78:354,1,49.9999999999999,2|0,0:0|0:0,0:0:0:0:
45,381,55608,1,2,1:0:0:0:
1,185,56240,6,0,L|16:122,1,49.9999999999999,10|2,1:2|0:0,0:0:0:0:
54,107,56556,1,2,0:0:0:0:
54,107,56714,2,0,B|96:117|96:117|106:130|106:130|182:145,1,99.9999999999998,2|0,0:0|0:0,0:0:0:0:
183,170,57187,2,0,L|261:156,1,49.9999999999999,2|0,0:0|0:0,0:0:0:0:
280,140,57503,1,8,1:2:0:0:
280,140,57661,1,0,1:0:0:0:
421,203,58135,5,6,1:0:0:0:
421,203,58293,2,0,P|406:232|401:309,1,99.9999999999998,2|2,0:0|0:0,0:0:0:0:
367,336,58766,1,14,1:2:0:0:
367,336,58924,2,0,B|314:340|328:371|279:376,1,99.9999999999998,2|2,0:0|0:0,0:0:0:0:
229,363,59398,1,2,1:0:0:0:
146,302,59714,2,0,P|159:258|161:247,1,49.9999999999999,2|2,0:0|0:0,0:0:0:0:
193,217,60029,1,10,1:2:0:0:
193,217,60187,1,2,0:0:0:0:
312,124,60661,5,2,1:2:0:0:
312,124,60819,2,0,P|288:52|286:14,1,99.9999999999998,2|2,0:0|0:0,0:0:0:0:
245,9,61293,1,10,1:2:0:0:
245,9,61450,2,0,B|189:11|208:43|134:41,1,99.9999999999998,2|2,0:0|0:0,0:0:0:0:
105,21,61924,1,2,1:0:0:0:
22,77,62240,1,2,0:0:0:0:
22,77,62398,2,0,P|7:130|45:181,1,99.9999999999998,2|10,0:0|0:0,0:0:0:0:
69,193,62871,1,10,0:0:0:0:
168,203,63187,6,0,B|192:197|192:197|200:190|200:190|238:183,1,49.9999999999999,0|0,1:0|0:0,0:0:0:0:
312,73,63819,2,0,B|333:77|333:77|344:86|344:86|382:93,1,49.9999999999999,14|0,1:2|0:0,0:0:0:0:
406,117,64135,1,2,0:0:0:0:
406,117,64293,2,0,L|379:241,1,99.9999999999998,2|0,0:0|0:0,0:0:0:0:
347,247,64766,1,2,0:0:0:0:
347,247,64924,2,0,B|292:256|292:256|248:214,1,99.9999999999998,2|0,0:0|0:0,0:0:0:0:
215,201,65398,2,0,B|187:197|187:197|164:216,1,49.9999999999999,2|0,0:0|0:0,0:0:0:0:
133,245,65714,1,2,1:0:0:0:
296,359,66345,6,0,B|324:363|324:363|347:344,1,49.9999999999999,8|2,1:2|0:0,0:0:0:0:
378,316,66661,1,2,0:0:0:0:
378,316,66819,2,0,B|428:307|428:307|477:349,1,99.9999999999998,2|0,0:0|0:0,0:0:0:0:
512,321,67293,2,0,L|501:237,1,49.9999999999999,2|0,0:0|0:0,0:0:0:0:
487,230,67608,1,8,1:2:0:0:
487,230,67766,1,0,1:0:0:0:
512,85,68240,5,6,1:0:0:0:
512,85,68398,2,0,P|456:55|405:79,1,99.9999999999998,2|2,0:0|0:0,0:0:0:0:
386,95,68871,1,14,1:2:0:0:
386,95,69029,2,0,P|398:154|407:209,1,99.9999999999998,2|2,0:0|0:0,0:0:0:0:
428,237,69503,1,2,1:0:0:0:
375,322,69819,2,0,P|336:313|298:313,1,49.9999999999999,2|2,0:0|0:0,0:0:0:0:
282,333,70135,1,10,1:2:0:0:
282,333,70293,1,2,0:0:0:0:
160,255,70766,5,2,1:0:0:0:
160,255,70924,2,0,P|113:257|55:277,1,99.9999999999998,2|2,0:0|0:0,0:0:0:0:
17,265,71398,1,10,1:2:0:0:
17,265,71556,2,0,P|-8:223|17:160,1,99.9999999999998,2|2,0:0|0:0,0:0:0:0:
38,139,72029,1,0,1:0:0:0:
256,192,72108,12,0,73293,1:0:0:0:
367,270,73924,5,8,0:0:0:0:
367,270,75187,1,8,0:0:0:0:
367,270,76450,1,8,0:0:0:0:
367,270,77714,1,8,0:0:0:0:
367,270,78977,1,8,0:0:0:0:
367,270,80240,1,8,0:0:0:0:
367,270,81503,1,8,0:0:0:0:
367,270,82766,1,0,1:0:0:0:
367,270,83398,6,0,B|313:253|288:293|300:307|271:355|202:333,1,179.999994506836,2|8,1:0|0:0,0:0:0:0:
134,376,84345,1,2,0:0:0:0:
55,332,84661,2,0,P|46:279|1:154,1,179.999994506836,2|8,0:0|0:0,0:0:0:0:
4,160,85924,2,0,P|66:128|166:205,1,179.999994506836,0|8,0:0|0:0,0:0:0:0:
214,245,86871,1,2,0:0:0:0:
274,311,87187,2,0,P|345:359|426:327,1,179.999994506836,2|8,0:0|0:0,0:0:0:0:
426,327,88450,6,0,P|435:250|480:123,1,179.999994506836,0|8,0:0|0:0,0:0:0:0:
511,74,89398,1,2,0:0:0:0:
443,14,89714,2,0,P|357:-1|287:78,1,179.999994506836,0|8,0:0|0:0,0:0:0:0:
292,57,90977,2,0,P|323:135|343:234,2,179.999994506836,0|8|0,0:0|0:0|0:0,0:0:0:0:
118,11,92871,1,8,1:2:0:0:
3,174,93503,6,0,B|48:156|81:186|68:200|96:224|142:210,1,150,6|0,1:0|0:0,0:0:0:0:
186,226,94135,1,8,1:2:0:0:
258,157,94451,1,2,0:0:0:0:
346,203,94766,2,0,P|329:276|329:322,1,99.9999999999998,2|2,1:0|0:0,0:0:0:0:
341,349,95240,2,0,P|390:353|438:366,1,99.9999999999998,2|2,0:0|0:0,0:0:0:0:
486,382,95714,1,2,0:0:0:0:
510,284,96030,6,0,P|495:196|476:127,1,150,0|0,1:0|0:0,0:0:0:0:
495,90,96661,1,8,1:2:0:0:
421,22,96977,1,2,0:0:0:0:
336,75,97293,2,0,P|317:143|310:201,1,99.9999999999998,2|2,1:0|0:0,0:0:0:0:
346,208,97766,1,2,0:0:0:0:
300,299,98082,1,2,0:0:0:0:
300,299,98240,2,0,P|260:311|235:331,1,49.9999999999999,2|0,0:0|0:0,0:0:0:0:
225,356,98556,6,0,B|181:361|160:330|176:315|141:274|66:297,1,150,4|0,1:0|0:0,0:0:0:0:
54,312,99187,1,8,1:2:0:0:
8,222,99503,2,0,P|14:186|27:162,1,49.9999999999999,2|2,0:0|0:0,0:0:0:0:
56,139,99819,2,0,P|129:138|201:173,1,150,0|0,1:0|0:0,0:0:0:0:
232,206,100450,1,8,1:2:0:0:
322,163,100766,6,0,P|312:127|311:100,2,49.9999999999999,2|2|2,0:0|0:0|1:0,0:0:0:0:
406,215,101398,2,0,P|441:205|468:204,2,49.9999999999999,2|2|10,0:0|0:0|1:2,0:0:0:0:
355,300,102029,2,0,P|364:335|365:362,2,49.9999999999999,2|2|2,0:0|0:0|1:0,0:0:0:0:
270,248,102661,2,0,P|234:257|207:258,2,49.9999999999999,2|2|10,0:0|0:0|1:2,0:0:0:0:
306,212,103135,2,0,P|389:204|443:257,1,150,2|4,0:0|1:2,0:0:0:0:
487,327,103924,6,0,P|408:347|315:386,1,179.999994506836
231,357,104871,1,8,0:0:0:0:
231,357,105503,2,0,P|209:305|170:269,1,89.9999972534179
100,254,106135,2,0,P|124:172|254:29,1,269.999991760254,0|0,1:0|0:0,0:0:0:0:
333,14,107398,1,8,0:0:0:0:
333,14,108029,2,0,P|384:32|432:41,1,89.9999972534179
481,104,108661,6,0,B|426:134|415:216|415:216|366:152|296:152,1,269.999991760254,4|0,1:0|0:0,0:0:0:0:
222,194,109924,1,8,0:0:0:0:
222,194,110871,2,0,P|195:206|174:224,1,44.9999986267089
143,238,111187,2,0,P|70:232|59:64,1,269.999991760254,0|0,1:0|0:0,0:0:0:0:
135,33,112450,1,8,0:0:0:0:
135,33,113398,1,0,0:0:0:0:
215,72,113714,6,0,P|271:54|363:44,2,134.999995880127,4|0|0,1:0|0:0|0:0,0:0:0:0:
167,148,114977,1,8,0:0:0:0:
167,148,115924,1,0,0:0:0:0:
132,231,116240,2,0,P|76:213|-16:203,2,134.999995880127,0|0|0,1:0|0:0|0:0,0:0:0:0:
180,307,117503,1,8,0:0:0:0:
180,307,118135,2,0,P|190:346|191:367,2,44.9999986267089
241,240,118766,6,0,B|314:189|376:274|337:300|398:376|476:326,1,269.999991760254,4|0,1:0|0:0,0:0:0:0:
511,262,120029,1,8,0:0:0:0:
511,262,120977,2,0,P|491:226|480:210,1,44.9999986267089
452,195,121293,1,0,1:0:0:0:
452,195,133924,6,0,P|367:217|303:262,1,150,2|0,1:0|0:0,0:0:0:0:
290,293,134555,1,0,3:0:0:0:
232,375,134871,2,0,B|177:388|146:334|168:322|136:251|59:284,1,200,0|2,3:0|3:0,0:0:0:0:
0,342,135818,1,2,3:0:0:0:
0,342,136450,6,0,P|22:289|32:171,1,150,0|0,3:0|3:0,0:0:0:0:
3,157,137082,1,0,3:0:0:0:
76,89,137397,2,0,P|163:134|298:145,1,200,0|2,3:0|3:0,0:0:0:0:
327,225,138345,2,0,P|403:204|449:202,1,99.9999999999998,2|0,3:0|0:0,0:0:0:0:
499,136,138977,6,0,P|501:56|422:21,1,150,0|0,3:0|0:0,0:0:0:0:
405,46,139608,1,0,3:0:0:0:
312,22,139924,1,0,3:0:0:0:
312,22,140082,2,0,P|250:43|157:59,1,150,0|0,0:0|3:0,0:0:0:0:
67,46,140871,2,0,P|68:16|86:-8,2,49.9999999999999,0|0|0,3:0|3:0|3:0,0:0:0:0:
4,124,141503,6,0,P|23:163|26:186,1,49.9999999999999,0|0,3:0|3:0,0:0:0:0:
64,198,141819,2,0,P|45:237|42:260,1,49.9999999999999,0|0,3:0|3:0,0:0:0:0:
63,289,142134,2,0,P|93:280|130:277,2,49.9999999999999,0|0|0,3:0|3:0|3:0,0:0:0:0:
36,332,142608,1,0,3:0:0:0:
36,332,142766,1,0,0:0:0:0:
36,332,144029,6,0,B|56:328|56:328|70:333|70:333|118:323,1,49.9999999999999,4|0,1:0|0:0,0:0:0:0:
232,357,144661,2,0,B|218:341|218:341|215:327|215:327|183:290,1,49.9999999999999,12|0,1:2|0:0,0:0:0:0:
156,175,145293,2,0,B|149:194|149:194|138:203|138:203|122:250,1,49.9999999999999,4|0,1:0|0:0,0:0:0:0:
29,325,145924,1,12,1:2:0:0:
29,325,146082,2,0,B|35:344|35:344|46:353|46:353|62:400,2,49.9999999999999
2,282,146556,6,0,L|35:142,1,99.9999999999998,4|0,1:0|0:0,0:0:0:0:
0,147,147029,1,2,0:0:0:0:
0,147,147187,1,8,1:2:0:0:
55,65,147503,1,2,0:0:0:0:
55,65,147661,2,0,B|100:76|100:76|109:87|109:87|183:103,1,99.9999999999998,2|0,0:0|0:0,0:0:0:0:
185,128,148134,2,0,L|263:114,1,49.9999999999999,2|0,0:0|0:0,0:0:0:0:
274,88,148450,1,8,1:2:0:0:
274,88,148609,1,0,1:0:0:0:
407,17,149082,5,6,1:0:0:0:
407,17,149240,2,0,P|468:31|485:98,1,99.9999999999998,2|2,0:0|0:0,0:0:0:0:
512,108,149714,1,14,1:2:0:0:
512,108,149871,2,0,P|494:167|487:214,1,99.9999999999998,2|2,0:0|0:0,0:0:0:0:
503,252,150345,1,2,1:0:0:0:
436,326,150661,2,0,P|409:333|379:357,1,49.9999999999999,2|2,0:0|0:0,0:0:0:0:
355,380,150977,1,10,1:2:0:0:
355,380,151135,1,2,0:0:0:0:
223,320,151608,5,2,1:2:0:0:
223,320,151766,2,0,P|206:253|247:208,1,99.9999999999998,2|2,0:0|0:0,0:0:0:0:
260,199,152240,1,10,1:2:0:0:
260,199,152398,2,0,P|277:132|240:86,1,99.9999999999998,2|2,0:0|0:0,0:0:0:0:
236,65,152871,1,2,1:0:0:0:
163,4,153187,1,2,0:0:0:0:
163,4,153345,2,0,P|111:19|58:26,1,99.9999999999998,2|10,0:0|0:0,0:0:0:0:
12,15,153819,1,10,0:0:0:0:
2,114,154135,6,0,B|-3:144|-3:144|21:178,1,49.9999999999999,0|0,1:0|0:0,0:0:0:0:
157,142,154766,2,0,B|165:115|165:115|142:77,1,49.9999999999999,14|0,1:2|0:0,0:0:0:0:
173,52,155082,1,2,0:0:0:0:
173,52,155240,2,0,B|217:41|217:41|232:46|232:46|300:29,1,99.9999999999998,2|0,0:0|0:0,0:0:0:0:
322,51,155714,1,2,0:0:0:0:
322,51,155871,2,0,B|346:96|346:96|311:169,1,99.9999999999998,2|0,0:0|0:0,0:0:0:0:
290,176,156345,2,0,L|309:248,1,49.9999999999999,2|0,0:0|0:0,0:0:0:0:
333,264,156661,1,2,1:0:0:0:
156,357,157293,6,0,L|84:376,1,49.9999999999999,8|2,1:2|0:0,0:0:0:0:
63,359,157608,1,2,0:0:0:0:
63,359,157766,2,0,B|33:317|33:317|57:240,1,99.9999999999998,2|0,0:0|0:0,0:0:0:0:
80,233,158240,2,0,L|149:248,1,49.9999999999999,2|0,0:0|0:0,0:0:0:0:
181,261,158556,1,8,1:2:0:0:
181,261,158714,1,0,1:0:0:0:
303,356,159187,5,6,1:0:0:0:
303,356,159345,2,0,P|353:335|419:340,1,99.9999999999998,2|2,0:0|0:0,0:0:0:0:
447,316,159819,1,14,1:2:0:0:
447,316,159977,2,0,P|467:262|429:210,1,99.9999999999998,2|2,0:0|0:0,0:0:0:0:
407,199,160450,1,2,1:0:0:0:
308,179,160766,2,0,P|269:187|230:202,1,49.9999999999999,2|2,0:0|0:0,0:0:0:0:
219,219,161082,1,10,1:2:0:0:
219,219,161240,1,2,0:0:0:0:
75,174,161714,5,2,1:0:0:0:
75,174,161871,2,0,P|66:101|80:45,1,99.9999999999998,2|2,0:0|0:0,0:0:0:0:
108,43,162345,1,10,1:2:0:0:
108,43,162503,2,0,P|181:34|237:48,1,99.9999999999998,2|2,0:0|0:0,0:0:0:0:
251,61,162977,1,0,1:0:0:0:
251,61,164240,6,0,B|340:45,1,49.9999999999999,0|0,1:0|1:0,0:0:0:0:
349,41,164556,1,0,1:0:0:0:
485,103,165029,2,0,B|465:237,1,99.9999999999998,0|0,1:0|0:0,0:0:0:0:
426,227,165503,2,0,B|292:207,1,99.9999999999998,0|0,1:0|0:0,0:0:0:0:
277,204,165977,1,0,1:0:0:0:
177,189,166293,1,0,1:0:0:0:
38,246,166766,6,0,B|54:335,1,49.9999999999999,0|0,1:0|1:0,0:0:0:0:
59,343,167082,1,0,1:0:0:0:
204,379,167556,2,0,B|338:359,1,99.9999999999998,0|0,1:0|1:0,0:0:0:0:
340,331,168029,2,0,B|320:197,1,99.9999999999998,0|0,1:0|0:0,0:0:0:0:
287,198,168503,2,0,B|193:212,1,49.9999999999999,0|8,1:0|0:0,0:0:0:0:
188,214,168819,1,0,1:0:0:0:
51,151,169293,6,0,B|65:57,1,49.9999999999999,0|0,1:0|1:0,0:0:0:0:
67,52,169609,1,0,1:0:0:0:
209,5,170082,2,0,B|343:25,1,99.9999999999998,0|0,1:0|0:0,0:0:0:0:
345,53,170556,2,0,B|325:187,1,99.9999999999998,0|0,1:0|0:0,0:0:0:0:
321,201,171029,1,0,1:0:0:0:
305,299,171345,1,0,1:0:0:0:
433,376,171819,6,0,B|447:282,1,49.9999999999999,0|0,1:0|1:0,0:0:0:0:
449,276,172135,1,0,1:0:0:0:
341,172,172608,2,0,B|207:192,1,99.9999999999998,0|0,1:0|1:0,0:0:0:0:
202,156,173082,2,0,B|182:22,1,99.9999999999998,0|0,1:0|0:0,0:0:0:0:
149,24,173556,2,0,B|55:38,1,49.9999999999999,0|8,1:0|0:0,0:0:0:0:
49,40,173872,1,8,1:2:0:0:
5,183,174345,5,0,1:0:0:0:
12,232,174503,1,0,1:0:0:0:
19,281,174661,1,0,1:0:0:0:
147,358,175135,2,0,B|281:338,1,99.9999999999998,0|0,1:0|0:0,0:0:0:0:
285,312,175608,2,0,B|265:178,1,99.9999999999998,0|0,1:0|0:0,0:0:0:0:
259,164,176082,1,0,1:0:0:0:
241,65,176398,1,0,1:0:0:0:
375,0,176871,5,0,1:0:0:0:
424,7,177029,1,0,1:0:0:0:
473,14,177187,1,0,1:0:0:0:
512,159,177661,2,0,B|492:293,1,99.9999999999998,0|0,1:0|1:0,0:0:0:0:
451,279,178135,2,0,B|317:259,1,99.9999999999998,0|0,1:0|0:0,0:0:0:0:
304,279,178608,2,0,B|292:359,1,49.9999999999999,0|8,1:0|0:0,0:0:0:0:
285,377,178924,1,0,1:0:0:0:
136,355,179398,5,0,1:0:0:0:
87,348,179556,1,0,1:0:0:0:
38,341,179714,1,0,1:0:0:0:
0,196,180187,2,0,B|20:62,1,99.9999999999998,0|0,1:0|0:0,0:0:0:0:
58,72,180661,2,0,B|192:92,1,99.9999999999998,0|0,1:0|0:0,0:0:0:0:
206,97,181135,1,0,1:0:0:0:
304,114,181450,1,0,0:0:0:0:
396,231,181924,5,0,1:0:0:0:
389,280,182082,1,0,1:0:0:0:
382,329,182240,1,0,1:0:0:0:
238,373,182714,2,0,B|139:358,1,99.9999999999998,0|0,1:0|3:0,0:0:0:0:
89,351,183187,1,0,1:0:0:0:
81,262,194556,6,0,P|158:275|225:349,1,150,6|0,1:0|3:0,0:0:0:0:
238,362,195187,1,0,3:0:0:0:
333,330,195503,2,0,B|349:280|402:262|402:262|350:259|296:198,1,200,0|0,3:0|3:0,0:0:0:0:
240,151,196450,1,2,3:0:0:0:
240,151,197082,6,0,P|205:207|185:291,1,150,0|0,3:0|3:0,0:0:0:0:
146,319,197714,1,0,3:0:0:0:
58,271,198029,2,0,P|64:183|37:57,1,200,0|2,3:0|3:0,0:0:0:0:
122,11,198977,2,0,P|173:9|212:48,1,99.9999999999998,2|0,3:0|0:0,0:0:0:0:
286,101,199608,6,0,B|328:113|358:80|344:68|382:25|439:53,1,150,0|0,3:0|0:0,0:0:0:0:
457,15,200240,1,0,3:0:0:0:
512,106,200556,1,0,3:0:0:0:
512,106,200714,2,0,P|492:166|480:258,1,150,0|0,0:0|3:0,0:0:0:0:
405,318,201503,2,0,P|415:336|423:369,2,49.9999999999999,0|0|0,0:0|0:0|3:0,0:0:0:0:
311,280,202135,6,0,P|280:297|249:298,1,49.9999999999999,0|0,3:0|3:0,0:0:0:0:
223,326,202450,2,0,P|192:309|161:308,1,49.9999999999999,0|0,3:0|3:0,0:0:0:0:
142,271,202766,2,0,P|146:240|161:204,2,49.9999999999999,0|0|0,3:0|3:0|3:0,0:0:0:0:
100,297,203240,1,0,3:0:0:0:
100,297,203398,1,8,3:2:0:0:
14,245,203714,2,0,P|28:172|49:119,1,99.9999999999998,2|2,3:0|3:0,0:0:0:0:
0,56,204345,1,2,3:0:0:0:
98,17,204661,6,0,P|139:27|158:56,1,52.4999983978271,6|0,1:0|1:0,0:0:0:0:
188,64,204977,2,0,P|245:40|300:36,1,104.999996795654,8|0,0:0|1:0,0:0:0:0:
339,60,205450,1,0,1:0:0:0:
339,60,205608,2,0,P|372:58|402:31,1,52.4999983978271,8|0,0:0|0:0,0:0:0:0:
426,11,205924,2,0,P|459:13|489:40,1,52.4999983978271,0|0,1:0|0:0,0:0:0:0:
509,63,206240,2,0,P|489:118|484:190,1,104.999996795654,10|2,0:0|0:0,0:0:0:0:
402,230,206871,2,0,P|419:276|420:296,1,52.4999983978271,10|2,0:0|0:0,0:0:0:0:
447,323,207187,6,0,P|477:309|516:307,2,52.4999983978271,0|0|8,1:0|1:0|0:0,0:0:0:0:
423,372,207661,1,0,1:0:0:0:
423,372,207819,2,0,P|363:354|284:352,1,104.999996795654,0|8,1:0|0:0,0:0:0:0:
275,373,208293,1,0,0:0:0:0:
275,373,208450,1,0,1:0:0:0:
187,314,208766,2,0,P|147:325|123:338,1,52.4999983978271,10|0,0:0|1:0,0:0:0:0:
94,360,209082,1,2,0:0:0:0:
14,291,209398,2,0,P|3:251|-10:227,1,52.4999983978271,10|2,0:0|0:0,0:0:0:0:
18,192,209714,6,0,P|73:176|120:219,1,104.999996795654,0|10,1:0|0:0,0:0:0:0:
149,242,210187,1,2,1:0:0:0:
149,242,210345,2,0,P|204:258|251:215,1,104.999996795654,0|10,1:0|0:0,0:0:0:0:
277,195,210819,1,2,0:0:0:0:
277,195,210977,1,0,1:0:0:0:
376,242,211293,1,10,0:0:0:0:
376,242,211450,2,0,P|367:285|362:324,2,52.4999983978271,2|0|2,1:0|1:0|1:0,0:0:0:0:
415,206,211924,1,10,0:0:0:0:
491,134,212240,6,0,P|500:91|505:52,1,52.4999983978271,0|0,1:0|1:0,0:0:0:0:
472,38,212556,2,0,P|421:11|354:36,1,104.999996795654,8|0,0:0|1:0,0:0:0:0:
333,47,213029,1,0,1:0:0:0:
333,47,213187,2,0,P|324:90|319:129,1,52.4999983978271,8|0,0:0|0:0,0:0:0:0:
281,131,213503,2,0,P|290:174|295:213,2,52.4999983978271,0|0|10,1:0|0:0|0:0,0:0:0:0:
239,107,213977,1,0,3:0:0:0:
239,107,214135,2,0,B|193:80|180:111|132:75,1,104.999996795654,2|10,3:0|3:2,0:0:0:0:
35,98,214766,6,0,P|26:141|21:180,1,52.4999983978271,6|0,1:0|1:0,0:0:0:0:
0,196,215082,2,0,P|21:254|28:308,1,104.999996795654,8|0,0:0|1:0,0:0:0:0:
68,337,215555,1,0,1:0:0:0:
68,337,215713,2,0,P|101:333|131:308,1,52.4999983978271,8|0,0:0|0:0,0:0:0:0:
160,292,216029,2,0,P|193:294|223:321,1,52.4999983978271,0|0,1:0|0:0,0:0:0:0:
248,338,216345,2,0,P|303:318|375:313,1,104.999996795654,10|2,0:0|0:0,0:0:0:0:
432,248,216976,2,0,P|426:202|418:181,1,52.4999983978271,10|2,0:0|0:0,0:0:0:0:
445,148,217292,6,0,P|473:138|515:142,2,52.4999983978271,0|0|8,1:0|1:0|0:0,0:0:0:0:
407,118,217766,1,0,1:0:0:0:
407,118,217924,2,0,P|347:100|268:98,1,104.999996795654,0|8,1:0|0:0,0:0:0:0:
261,77,218398,1,0,0:0:0:0:
261,77,218555,1,0,1:0:0:0:
178,142,218871,2,0,P|186:182|189:205,1,52.4999983978271,10|0,0:0|1:0,0:0:0:0:
219,235,219187,1,2,0:0:0:0:
296,305,219503,2,0,P|288:345|285:368,1,52.4999983978271,10|2,0:0|0:0,0:0:0:0:
237,377,219819,6,0,P|185:361|113:359,1,104.999996795654,0|10,1:0|0:0,0:0:0:0:
94,332,220292,1,2,1:0:0:0:
94,332,220450,2,0,P|78:277|119:225,1,104.999996795654,0|10,1:0|0:0,0:0:0:0:
189,182,221082,2,0,P|228:194|246:199,1,52.4999983978271,0|0,1:0|0:0,0:0:0:0:
274,236,221398,2,0,P|344:219|390:219,1,104.999996795654,10|0,0:0|1:0,0:0:0:0:
427,244,221871,1,2,1:0:0:0:
427,244,222029,1,10,0:0:0:0:
502,170,222345,6,0,P|509:128|523:96,1,52.4999983978271,0|0,1:0|1:0,0:0:0:0:
491,70,222661,2,0,P|440:43|379:84,1,104.999996795654,8|0,0:0|1:0,0:0:0:0:
365,99,223134,1,0,1:0:0:0:
365,99,223292,2,0,P|329:86|283:85,1,52.4999983978271,10|0,0:0|3:0,0:0:0:0:
273,51,223608,2,0,P|282:8|287:-31,2,52.4999983978271,2|0|2,1:0|3:0|3:0,0:0:0:0:
225,74,224082,2,0,P|209:142|197:185,1,104.999996795654,2|2,3:0|3:0,0:0:0:0:
223,223,224556,1,2,3:0:0:0:
132,264,224871,1,4,1:0:0:0:
