osu file format v14

[General]
AudioFilename: audio.mp3
AudioLeadIn: 0
PreviewTime: 52183
Countdown: 0
SampleSet: None
StackLeniency: 1
Mode: 1
LetterboxInBreaks: 0
WidescreenStoryboard: 1

[Editor]
Bookmarks: 2699,7647,12596,17544,22493,27441,32390,37338,42286,47235,52183,57132,62080,67029,71977,76926,81874,86823,91771,96719,101668,182080
DistanceSpacing: 0.6
BeatDivisor: 12
GridSize: 32
TimelineZoom: 1.5

[Metadata]
Title:Ruki Roki * Lucky
TitleUnicode:ルキロキ☆ラッキー
Artist:Sasugano Ruki & Roki
ArtistUnicode:流石乃ルキ & 流石乃ロキ
Creator:jacky10186
Version:Black's Oni
Source:
Tags:2019 Vtuber RukiRoki 流石乃ルキ 流石乃ロキ Original song
BeatmapID:2800919
BeatmapSetID:952822

[Difficulty]
HPDrainRate:5
CircleSize:2
OverallDifficulty:5
ApproachRate:10
SliderMultiplier:1.4
SliderTickRate:1

[Events]
//Background and Video events
0,0,"maxresdefault.jpg",0,50
//Break Periods
//Storyboard Layer 0 (Background)
//Storyboard Layer 1 (Fail)
//Storyboard Layer 2 (Pass)
//Storyboard Layer 3 (Foreground)
//Storyboard Layer 4 (Overlay)
//Storyboard Sound Samples

[TimingPoints]
-1012,309.278350515464,4,1,0,90,1,0
2390,-66.6666666666667,4,1,0,90,0,0
2699,-100,4,1,0,90,0,0
4555,-66.6666666666667,4,1,0,90,0,0
5173,-100,4,1,0,90,0,0
7029,-66.6666666666667,4,1,0,90,0,0
7647,-100,4,1,0,90,0,0
9503,-66.6666666666667,4,1,0,90,0,0
10122,-100,4,1,0,90,0,0
12055,-101.010101010101,4,1,0,90,0,0
12132,-102.040816326531,4,1,0,90,0,0
12286,-103.092783505155,4,1,0,90,0,0
12441,-104.166666666667,4,1,0,90,0,0
12596,-105.263157894737,4,1,0,90,0,0
31694,-106.382978723404,4,1,0,90,0,0
32080,-107.52688172043,4,1,0,90,0,0
32158,-108.695652173913,4,1,0,90,0,0
32235,-109.89010989011,4,1,0,90,0,0
32390,-111.111111111111,4,1,0,90,0,0
40585,-109.89010989011,4,1,0,90,0,0
40740,-108.695652173913,4,1,0,90,0,0
41049,-107.52688172043,4,1,0,90,0,0
41359,-106.382978723404,4,1,0,90,0,0
41513,-105.263157894737,4,1,0,90,0,0
41668,-104.166666666667,4,1,0,90,0,0
41977,-103.092783505155,4,1,0,90,0,0
42055,-102.040816326531,4,1,0,90,0,0
42132,-101.010101010101,4,1,0,90,0,0
42286,-100,4,1,0,90,0,0
49709,-99.009900990099,4,1,0,90,0,0
49864,-98.0392156862745,4,1,0,90,0,0
49941,-97.0873786407767,4,1,0,90,0,0
50018,-96.1538461538461,4,1,0,90,0,0
50173,-95.2380952380952,4,1,0,90,0,0
50328,-94.3396226415094,4,1,0,90,0,0
50482,-93.4579439252336,4,1,0,90,0,0
50637,-92.5925925925926,4,1,0,90,0,0
50792,-91.743119266055,4,1,0,90,0,0
50946,-90.9090909090909,4,1,0,90,0,0
51565,-96.1538461538461,4,1,0,90,0,0
51642,-95.2380952380952,4,1,0,90,0,0
51719,-94.3396226415094,4,1,0,90,0,0
51874,-93.4579439252336,4,1,0,90,0,0
51951,-92.5925925925926,4,1,0,90,0,0
52029,-91.743119266055,4,1,0,90,0,0
52183,-90.9090909090909,4,1,0,95,0,1
70740,-83.3333333333333,4,1,0,95,0,1
71049,-76.9230769230769,4,1,0,95,0,1
71359,-71.4285714285714,4,1,0,95,0,1
71668,-97.0873786407767,4,1,0,95,0,1
71745,-98.0392156862745,4,1,0,95,0,1
71823,-99.009900990099,4,1,0,95,0,1
71977,-100,4,1,0,90,0,0
93627,-66.6666666666667,4,1,0,90,0,0
94245,-100,4,1,0,90,0,0
96101,-66.6666666666667,4,1,0,90,0,0
96719,-100,4,1,0,90,0,0
98575,-66.6666666666667,4,1,0,90,0,0
99194,-100,4,1,0,90,0,0
141256,-100,4,1,0,90,0,1
161049,-100,4,1,0,90,0,0

[HitObjects]
256,192,225,5,8,0:0:0:0:
256,192,457,1,0,0:0:0:0:
256,192,534,1,0,0:0:0:0:
256,192,689,1,0,0:0:0:0:
256,192,843,1,8,0:0:0:0:
256,192,998,1,0,0:0:0:0:
256,192,1152,1,0,0:0:0:0:
256,192,1307,1,0,0:0:0:0:
448,64,1462,1,12,0:0:0:0:
256,192,1616,1,0,0:0:0:0:
416,64,1771,1,12,0:0:0:0:
256,192,1926,1,0,0:0:0:0:
416,64,2080,1,4,0:0:0:0:
384,96,2390,1,12,0:0:0:0:
352,96,2699,1,4,0:0:0:0:
256,192,2853,1,8,0:0:0:0:
256,192,2931,1,0,0:0:0:0:
256,192,3008,1,8,0:0:0:0:
256,192,3163,1,0,0:0:0:0:
256,192,3317,1,8,0:0:0:0:
256,192,3627,1,0,0:0:0:0:
256,192,3781,1,8,0:0:0:0:
256,192,3859,1,0,0:0:0:0:
256,192,3936,1,8,0:0:0:0:
256,192,4091,1,0,0:0:0:0:
256,192,4245,1,8,0:0:0:0:
256,192,4555,1,8,0:0:0:0:
256,192,4864,1,8,0:0:0:0:
256,192,5173,1,0,0:0:0:0:
256,192,5327,1,0,0:0:0:0:
256,192,5405,1,0,0:0:0:0:
256,192,5482,1,8,0:0:0:0:
256,192,5637,1,0,0:0:0:0:
256,192,5791,1,8,0:0:0:0:
256,192,6101,1,0,0:0:0:0:
256,192,6255,1,0,0:0:0:0:
256,192,6333,1,0,0:0:0:0:
256,192,6410,1,8,0:0:0:0:
256,192,6565,1,8,0:0:0:0:
256,192,6719,1,0,0:0:0:0:
256,192,7029,1,8,0:0:0:0:
256,192,7338,1,8,0:0:0:0:
256,192,7647,1,0,0:0:0:0:
256,192,7801,1,8,0:0:0:0:
256,192,7879,1,0,0:0:0:0:
256,192,7956,1,8,0:0:0:0:
256,192,8111,1,0,0:0:0:0:
256,192,8265,1,8,0:0:0:0:
256,192,8575,1,0,0:0:0:0:
256,192,8729,1,8,0:0:0:0:
256,192,8807,1,0,0:0:0:0:
256,192,8884,1,8,0:0:0:0:
256,192,9039,1,0,0:0:0:0:
256,192,9193,1,8,0:0:0:0:
256,192,9503,1,8,0:0:0:0:
256,192,9812,1,8,0:0:0:0:
256,192,10122,1,0,0:0:0:0:
256,192,10276,1,8,0:0:0:0:
256,192,10354,1,0,0:0:0:0:
256,192,10431,1,8,0:0:0:0:
256,192,10586,1,0,0:0:0:0:
256,192,10740,1,8,0:0:0:0:
256,192,11049,1,8,0:0:0:0:
256,192,11204,1,0,0:0:0:0:
256,192,11281,1,0,0:0:0:0:
256,192,11359,1,8,0:0:0:0:
256,192,11513,1,0,0:0:0:0:
256,192,11668,1,8,0:0:0:0:
256,192,11823,1,0,0:0:0:0:
266,184,11977,1,8,0:0:0:0:
256,192,12055,1,8,0:0:0:0:
256,192,12132,1,0,0:0:0:0:
256,192,12286,1,8,0:0:0:0:
256,192,12441,1,0,0:0:0:0:
395,79,12596,5,4,0:0:0:0:
256,192,12828,1,0,0:0:0:0:
256,192,12905,1,8,0:0:0:0:
256,192,13060,1,0,0:0:0:0:
256,192,13214,1,8,0:0:0:0:
256,192,13369,1,0,0:0:0:0:
256,192,13524,1,0,0:0:0:0:
256,192,13678,1,8,0:0:0:0:
256,192,13988,1,8,0:0:0:0:
256,192,14142,1,0,0:0:0:0:
256,192,14297,1,8,0:0:0:0:
256,192,14451,1,0,0:0:0:0:
256,192,14606,1,0,0:0:0:0:
256,192,14683,1,0,0:0:0:0:
256,192,14761,1,8,0:0:0:0:
256,192,14915,1,0,0:0:0:0:
256,192,15070,1,8,0:0:0:0:
256,192,15379,1,8,0:0:0:0:
256,192,15457,1,8,0:0:0:0:
256,192,15534,1,8,0:0:0:0:
256,192,15689,1,0,0:0:0:0:
256,192,15998,1,8,0:0:0:0:
256,192,16307,1,0,0:0:0:0:
256,192,16616,1,8,0:0:0:0:
224,192,16694,1,8,0:0:0:0:
256,192,16771,1,8,0:0:0:0:
224,192,16926,1,0,0:0:0:0:
256,192,17080,1,0,0:0:0:0:
256,192,17235,1,0,0:0:0:0:
256,192,17312,1,0,0:0:0:0:
256,192,17390,1,0,0:0:0:0:
512,96,17544,1,12,0:0:0:0:
256,192,17699,1,0,0:0:0:0:
256,192,17853,1,8,0:0:0:0:
256,192,18008,1,0,0:0:0:0:
256,192,18163,1,8,0:0:0:0:
288,192,18472,1,0,0:0:0:0:
256,192,18627,1,8,0:0:0:0:
256,192,18936,1,0,0:0:0:0:
256,192,19091,1,8,0:0:0:0:
256,192,19245,1,8,0:0:0:0:
256,192,19323,1,8,0:0:0:0:
256,192,19400,1,0,0:0:0:0:
256,192,19555,1,0,0:0:0:0:
256,192,19709,1,8,0:0:0:0:
256,192,20018,1,0,0:0:0:0:
256,192,20328,1,8,0:0:0:0:
256,192,20405,1,8,0:0:0:0:
256,192,20482,1,8,0:0:0:0:
256,192,20637,1,0,0:0:0:0:
256,192,20946,1,8,0:0:0:0:
256,192,21256,1,0,0:0:0:0:
256,192,21565,1,8,0:0:0:0:
256,192,21642,1,8,0:0:0:0:
256,192,21719,1,8,0:0:0:0:
256,192,21874,1,0,0:0:0:0:
256,192,22029,1,8,0:0:0:0:
256,192,22183,1,0,0:0:0:0:
256,192,22261,1,0,0:0:0:0:
256,192,22338,1,0,0:0:0:0:
352,64,22493,1,12,0:0:0:0:
256,192,22647,1,8,0:0:0:0:
256,192,22725,1,0,0:0:0:0:
256,192,22802,1,8,0:0:0:0:
256,192,22957,1,8,0:0:0:0:
256,192,23111,1,0,0:0:0:0:
256,192,23266,1,8,0:0:0:0:
288,192,23343,1,8,0:0:0:0:
256,192,23420,1,0,0:0:0:0:
256,192,23575,1,0,0:0:0:0:
256,192,23730,1,8,0:0:0:0:
256,192,23884,1,8,0:0:0:0:
256,192,24039,1,0,0:0:0:0:
256,192,24194,1,0,0:0:0:0:
256,192,24348,1,8,0:0:0:0:
256,192,24658,1,8,0:0:0:0:
256,192,24735,1,8,0:0:0:0:
256,192,24812,1,8,0:0:0:0:
256,192,24967,1,0,0:0:0:0:
256,192,25276,1,8,0:0:0:0:
256,192,25585,1,0,0:0:0:0:
256,192,25895,1,8,0:0:0:0:
256,192,25972,1,0,0:0:0:0:
256,192,26049,1,8,0:0:0:0:
256,192,26204,1,0,0:0:0:0:
256,192,26513,1,8,0:0:0:0:
256,192,26823,1,0,0:0:0:0:
256,192,26977,1,8,0:0:0:0:
256,192,27132,1,8,0:0:0:0:
256,192,27209,1,8,0:0:0:0:
256,192,27286,1,8,0:0:0:0:
480,96,27441,1,4,0:0:0:0:
256,192,27596,1,8,0:0:0:0:
256,192,27750,1,8,0:0:0:0:
256,192,27828,1,8,0:0:0:0:
256,192,27905,1,8,0:0:0:0:
256,192,28060,1,0,0:0:0:0:
256,192,28214,1,0,0:0:0:0:
256,192,28369,1,0,0:0:0:0:
256,192,28524,1,8,0:0:0:0:
256,192,28833,1,0,0:0:0:0:
256,192,28988,1,8,0:0:0:0:
256,192,29142,1,0,0:0:0:0:
256,192,29297,1,0,0:0:0:0:
256,192,29374,1,0,0:0:0:0:
256,192,29451,1,0,0:0:0:0:
256,192,29606,1,8,0:0:0:0:
256,192,29761,1,0,0:0:0:0:
256,192,29915,1,8,0:0:0:0:
256,192,30225,1,8,0:0:0:0:
256,192,30379,1,8,0:0:0:0:
256,192,30534,1,0,0:0:0:0:
256,192,30843,1,8,0:0:0:0:
256,192,31152,1,0,0:0:0:0:
256,192,31462,1,8,0:0:0:0:
256,192,31616,1,0,0:0:0:0:
256,192,31771,1,8,0:0:0:0:
256,192,32080,1,0,0:0:0:0:
256,192,32158,1,0,0:0:0:0:
256,192,32235,1,0,0:0:0:0:
384,64,32390,5,12,0:0:0:0:
256,192,32853,1,8,0:0:0:0:
256,192,33008,1,0,0:0:0:0:
256,192,33317,1,0,0:0:0:0:
256,192,33627,1,8,0:0:0:0:
256,192,33781,1,0,0:0:0:0:
256,192,33936,1,8,0:0:0:0:
256,192,34091,1,0,0:0:0:0:
256,192,34245,1,0,0:0:0:0:
256,192,34555,1,8,0:0:0:0:
480,96,34864,1,12,0:0:0:0:
256,192,35018,1,8,0:0:0:0:
256,192,35173,1,0,0:0:0:0:
256,192,35328,1,0,0:0:0:0:
256,192,35482,1,8,0:0:0:0:
256,192,35792,1,0,0:0:0:0:
256,192,36101,1,8,0:0:0:0:
256,192,36256,1,0,0:0:0:0:
256,192,36410,1,8,0:0:0:0:
256,192,36719,1,0,0:0:0:0:
256,192,37029,1,8,0:0:0:0:
448,64,37338,1,4,0:0:0:0:
256,192,37802,1,0,0:0:0:0:
256,192,37957,1,8,0:0:0:0:
256,192,38266,1,0,0:0:0:0:
256,192,38575,1,0,0:0:0:0:
256,192,38730,1,8,0:0:0:0:
256,192,38884,1,8,0:0:0:0:
256,192,39039,1,0,0:0:0:0:
256,192,39194,1,0,0:0:0:0:
256,192,39503,1,8,0:0:0:0:
416,64,39812,1,4,0:0:0:0:
256,192,40122,1,8,0:0:0:0:
256,192,40431,1,0,0:0:0:0:
256,192,40585,1,0,0:0:0:0:
256,192,40740,1,8,0:0:0:0:
256,192,41049,1,0,0:0:0:0:
256,192,41359,1,8,0:0:0:0:
256,192,41513,1,8,0:0:0:0:
256,192,41668,1,0,0:0:0:0:
256,192,41977,1,0,0:0:0:0:
256,192,42055,1,0,0:0:0:0:
256,192,42132,1,0,0:0:0:0:
416,96,42286,5,12,0:0:0:0:
256,192,42441,1,8,0:0:0:0:
256,192,42596,1,8,0:0:0:0:
256,192,42750,1,0,0:0:0:0:
256,192,42905,1,8,0:0:0:0:
256,192,42982,1,8,0:0:0:0:
256,192,43060,1,0,0:0:0:0:
256,192,43214,1,8,0:0:0:0:
256,192,43369,1,0,0:0:0:0:
256,192,43524,1,0,0:0:0:0:
256,192,43678,1,8,0:0:0:0:
256,192,43833,1,0,0:0:0:0:
256,192,43988,1,0,0:0:0:0:
256,192,44142,1,0,0:0:0:0:
384,96,44451,1,8,0:0:0:0:
384,96,44761,1,4,0:0:0:0:
256,192,44915,1,8,0:0:0:0:
256,192,45070,1,8,0:0:0:0:
256,192,45225,1,0,0:0:0:0:
256,192,45379,1,0,0:0:0:0:
256,192,45457,1,0,0:0:0:0:
256,192,45534,1,0,0:0:0:0:
256,192,45689,1,8,0:0:0:0:
256,192,45843,1,0,0:0:0:0:
256,192,45998,1,0,0:0:0:0:
256,192,46307,1,8,0:0:0:0:
256,192,46616,1,8,0:0:0:0:
256,192,46771,1,0,0:0:0:0:
256,192,46926,1,8,0:0:0:0:
448,64,47235,1,12,0:0:0:0:
256,192,47390,1,8,0:0:0:0:
256,192,47544,1,8,0:0:0:0:
224,192,47699,1,0,0:0:0:0:
224,192,47853,1,8,0:0:0:0:
256,192,47931,1,8,0:0:0:0:
224,192,48008,1,0,0:0:0:0:
224,192,48163,1,8,0:0:0:0:
224,192,48317,1,0,0:0:0:0:
224,192,48472,1,0,0:0:0:0:
224,192,48549,1,0,0:0:0:0:
224,192,48627,1,8,0:0:0:0:
224,192,48781,1,8,0:0:0:0:
224,192,48936,1,0,0:0:0:0:
224,192,49091,1,8,0:0:0:0:
256,192,49400,1,8,0:0:0:0:
416,96,49709,1,4,0:0:0:0:
256,192,49864,1,0,0:0:0:0:
256,192,49941,1,0,0:0:0:0:
256,192,50018,1,8,0:0:0:0:
256,192,50173,1,0,0:0:0:0:
256,192,50328,1,8,0:0:0:0:
256,192,50482,1,8,0:0:0:0:
256,192,50637,1,8,0:0:0:0:
256,192,50792,1,8,0:0:0:0:
416,96,50946,1,4,0:0:0:0:
288,192,51565,1,8,0:0:0:0:
288,192,51642,1,8,0:0:0:0:
288,192,51719,1,0,0:0:0:0:
288,192,51874,1,0,0:0:0:0:
320,192,51951,1,0,0:0:0:0:
256,192,52029,1,8,0:0:0:0:
384,96,52183,5,12,0:0:0:0:
288,192,52338,1,8,0:0:0:0:
288,192,52493,1,0,0:0:0:0:
256,192,52570,1,0,0:0:0:0:
256,192,52647,1,8,0:0:0:0:
256,192,52802,1,0,0:0:0:0:
256,192,52957,1,0,0:0:0:0:
256,192,53111,1,8,0:0:0:0:
256,160,53266,1,0,0:0:0:0:
256,192,53420,1,8,0:0:0:0:
256,192,53498,1,8,0:0:0:0:
256,192,53575,1,0,0:0:0:0:
256,192,53730,1,8,0:0:0:0:
256,192,53884,1,8,0:0:0:0:
256,192,54039,1,0,0:0:0:0:
256,192,54348,1,0,0:0:0:0:
256,192,54503,1,0,0:0:0:0:
256,192,54658,1,8,0:0:0:0:
256,192,54735,1,8,0:0:0:0:
256,192,54812,1,0,0:0:0:0:
256,192,54967,1,0,0:0:0:0:
256,192,55276,1,0,0:0:0:0:
256,192,55431,1,0,0:0:0:0:
256,192,55585,1,8,0:0:0:0:
256,192,55663,1,8,0:0:0:0:
256,192,55740,1,8,0:0:0:0:
256,192,55895,1,0,0:0:0:0:
256,192,56049,1,8,0:0:0:0:
256,192,56204,1,0,0:0:0:0:
256,192,56359,1,8,0:0:0:0:
256,192,56513,1,0,0:0:0:0:
263,198,56823,1,0,0:0:0:0:
263,198,56900,1,0,0:0:0:0:
263,198,56977,1,0,0:0:0:0:
256,192,57132,1,8,0:0:0:0:
256,192,57286,1,0,0:0:0:0:
256,192,57441,1,0,0:0:0:0:
256,192,57518,1,0,0:0:0:0:
263,198,57596,1,8,0:0:0:0:
263,198,57750,1,8,0:0:0:0:
256,192,57905,1,0,0:0:0:0:
256,192,58060,1,8,0:0:0:0:
256,192,58214,1,0,0:0:0:0:
256,192,58369,1,8,0:0:0:0:
256,192,58446,1,8,0:0:0:0:
256,192,58524,1,0,0:0:0:0:
256,192,58678,1,0,0:0:0:0:
256,192,58833,1,0,0:0:0:0:
256,192,58988,1,8,0:0:0:0:
256,192,59297,1,0,0:0:0:0:
256,192,59451,1,8,0:0:0:0:
256,192,59606,1,8,0:0:0:0:
256,192,59683,1,8,0:0:0:0:
256,192,59761,1,0,0:0:0:0:
256,192,59915,1,8,0:0:0:0:
256,192,60070,1,0,0:0:0:0:
256,192,60225,1,8,0:0:0:0:
256,192,60534,1,8,0:0:0:0:
256,192,60689,1,0,0:0:0:0:
256,192,60843,1,8,0:0:0:0:
256,192,60998,1,0,0:0:0:0:
256,192,61152,1,0,0:0:0:0:
256,192,61307,1,0,0:0:0:0:
256,192,61462,1,8,0:0:0:0:
256,192,61539,1,8,0:0:0:0:
256,192,61616,1,0,0:0:0:0:
256,192,61771,1,0,0:0:0:0:
256,192,61848,1,0,0:0:0:0:
256,192,61926,1,8,0:0:0:0:
384,96,62080,5,4,0:0:0:0:
288,192,62235,1,8,0:0:0:0:
288,192,62390,1,0,0:0:0:0:
256,192,62467,1,0,0:0:0:0:
256,192,62544,1,8,0:0:0:0:
256,192,62699,1,0,0:0:0:0:
256,192,62854,1,0,0:0:0:0:
256,192,63008,1,8,0:0:0:0:
256,160,63163,1,0,0:0:0:0:
256,192,63317,1,8,0:0:0:0:
256,192,63395,1,8,0:0:0:0:
256,192,63472,1,0,0:0:0:0:
256,192,63627,1,8,0:0:0:0:
256,192,63781,1,8,0:0:0:0:
256,192,63936,1,0,0:0:0:0:
256,192,64245,1,0,0:0:0:0:
256,192,64400,1,8,0:0:0:0:
256,192,64555,1,0,0:0:0:0:
256,192,64632,1,0,0:0:0:0:
256,192,64709,1,8,0:0:0:0:
256,192,64864,1,0,0:0:0:0:
256,192,65018,1,0,0:0:0:0:
256,192,65173,1,8,0:0:0:0:
256,192,65328,1,0,0:0:0:0:
256,192,65482,1,8,0:0:0:0:
256,192,65560,1,8,0:0:0:0:
256,192,65637,1,8,0:0:0:0:
256,192,65792,1,0,0:0:0:0:
256,192,65946,1,8,0:0:0:0:
256,192,66101,1,0,0:0:0:0:
256,192,66256,1,8,0:0:0:0:
256,192,66410,1,0,0:0:0:0:
256,192,66565,1,8,0:0:0:0:
256,192,66719,1,8,0:0:0:0:
256,192,67029,1,8,0:0:0:0:
256,192,67183,1,0,0:0:0:0:
256,192,67338,1,0,0:0:0:0:
256,192,67415,1,0,0:0:0:0:
263,198,67493,1,8,0:0:0:0:
263,198,67647,1,8,0:0:0:0:
256,192,67802,1,0,0:0:0:0:
256,192,67957,1,8,0:0:0:0:
256,192,68111,1,0,0:0:0:0:
256,192,68266,1,8,0:0:0:0:
256,192,68343,1,8,0:0:0:0:
256,192,68421,1,0,0:0:0:0:
256,192,68575,1,0,0:0:0:0:
256,192,68730,1,0,0:0:0:0:
256,192,68885,1,8,0:0:0:0:
256,192,69194,1,0,0:0:0:0:
256,192,69348,1,0,0:0:0:0:
256,192,69503,1,8,0:0:0:0:
256,192,69580,1,8,0:0:0:0:
256,192,69658,1,0,0:0:0:0:
256,192,69812,1,8,0:0:0:0:
256,192,69967,1,8,0:0:0:0:
256,192,70122,1,0,0:0:0:0:
256,192,70199,1,0,0:0:0:0:
256,192,70276,1,8,0:0:0:0:
256,192,70431,1,0,0:0:0:0:
416,64,70740,1,4,0:0:0:0:
416,64,71049,1,12,0:0:0:0:
416,64,71359,1,12,0:0:0:0:
256,192,71668,1,0,0:0:0:0:
256,192,71745,1,0,0:0:0:0:
256,192,71823,1,0,0:0:0:0:
256,192,71977,1,8,0:0:0:0:
224,192,72132,1,0,0:0:0:0:
224,192,72286,1,8,0:0:0:0:
224,192,72596,1,8,0:0:0:0:
224,192,72750,1,0,0:0:0:0:
224,192,72905,1,0,0:0:0:0:
256,192,72982,1,0,0:0:0:0:
224,192,73060,1,8,0:0:0:0:
256,192,73214,1,8,0:0:0:0:
256,192,73369,1,0,0:0:0:0:
256,192,73524,1,8,0:0:0:0:
256,192,73601,1,8,0:0:0:0:
256,192,73678,1,0,0:0:0:0:
256,192,73833,1,8,0:0:0:0:
256,192,74142,1,8,0:0:0:0:
256,192,74297,1,0,0:0:0:0:
256,192,74374,1,0,0:0:0:0:
256,192,74451,1,8,0:0:0:0:
256,192,74606,1,8,0:0:0:0:
256,192,74915,1,0,0:0:0:0:
256,192,75070,1,0,0:0:0:0:
256,192,75225,1,8,0:0:0:0:
256,192,75534,1,8,0:0:0:0:
256,192,75611,1,0,0:0:0:0:
256,192,75689,1,8,0:0:0:0:
256,192,75843,1,0,0:0:0:0:
256,192,75998,1,8,0:0:0:0:
256,192,76307,1,0,0:0:0:0:
256,192,76462,1,0,0:0:0:0:
256,192,76616,1,8,0:0:0:0:
256,192,76694,1,8,0:0:0:0:
256,192,76771,1,0,0:0:0:0:
256,160,76926,1,0,0:0:0:0:
224,192,77081,1,8,0:0:0:0:
224,192,77235,1,0,0:0:0:0:
224,192,77545,1,8,0:0:0:0:
224,192,77699,1,0,0:0:0:0:
224,192,77854,1,0,0:0:0:0:
256,192,77931,1,0,0:0:0:0:
224,192,78009,1,8,0:0:0:0:
256,192,78163,1,8,0:0:0:0:
256,192,78318,1,0,0:0:0:0:
256,192,78473,1,8,0:0:0:0:
256,192,78550,1,8,0:0:0:0:
256,192,78627,1,0,0:0:0:0:
256,192,78782,1,8,0:0:0:0:
256,192,79091,1,8,0:0:0:0:
256,192,79245,1,0,0:0:0:0:
256,192,79323,1,0,0:0:0:0:
256,192,79400,1,8,0:0:0:0:
256,192,79555,1,0,0:0:0:0:
256,192,79864,1,0,0:0:0:0:
256,192,80018,1,8,0:0:0:0:
256,192,80173,1,0,0:0:0:0:
256,192,80482,1,8,0:0:0:0:
256,192,80637,1,8,0:0:0:0:
256,192,80792,1,0,0:0:0:0:
256,192,80946,1,0,0:0:0:0:
256,192,81101,1,0,0:0:0:0:
256,192,81256,1,8,0:0:0:0:
256,192,81333,1,8,0:0:0:0:
256,192,81410,1,0,0:0:0:0:
256,192,81565,1,0,0:0:0:0:
256,192,81642,1,0,0:0:0:0:
256,192,81719,1,8,0:0:0:0:
416,64,81874,1,12,0:0:0:0:
224,192,82029,1,0,0:0:0:0:
224,192,82183,1,8,0:0:0:0:
224,192,82493,1,8,0:0:0:0:
224,192,82647,1,0,0:0:0:0:
224,192,82802,1,0,0:0:0:0:
256,192,82879,1,0,0:0:0:0:
224,192,82957,1,8,0:0:0:0:
256,192,83111,1,8,0:0:0:0:
256,192,83266,1,0,0:0:0:0:
256,192,83421,1,8,0:0:0:0:
256,192,83498,1,8,0:0:0:0:
256,192,83575,1,0,0:0:0:0:
256,192,83730,1,8,0:0:0:0:
256,192,84039,1,8,0:0:0:0:
256,192,84194,1,8,0:0:0:0:
256,192,84271,1,0,0:0:0:0:
256,192,84348,1,8,0:0:0:0:
256,192,84503,1,8,0:0:0:0:
256,192,84812,1,8,0:0:0:0:
256,192,84967,1,0,0:0:0:0:
256,192,85122,1,8,0:0:0:0:
256,192,85431,1,8,0:0:0:0:
256,192,85508,1,0,0:0:0:0:
256,192,85586,1,8,0:0:0:0:
256,192,85740,1,0,0:0:0:0:
256,192,85895,1,8,0:0:0:0:
256,192,86204,1,0,0:0:0:0:
256,224,86359,1,0,0:0:0:0:
256,192,86513,1,8,0:0:0:0:
256,192,86591,1,8,0:0:0:0:
256,192,86668,1,0,0:0:0:0:
256,224,86823,1,8,0:0:0:0:
256,192,86977,1,0,0:0:0:0:
256,192,87132,1,8,0:0:0:0:
256,192,87441,1,8,0:0:0:0:
256,192,87596,1,0,0:0:0:0:
256,192,87750,1,8,0:0:0:0:
256,192,87905,1,8,0:0:0:0:
224,160,87982,1,8,0:0:0:0:
256,192,88060,1,0,0:0:0:0:
256,160,88214,1,8,0:0:0:0:
256,160,88369,1,0,0:0:0:0:
256,160,88524,1,0,0:0:0:0:
256,160,88678,1,8,0:0:0:0:
256,192,88988,1,8,0:0:0:0:
256,192,89142,1,0,0:0:0:0:
256,192,89219,1,8,0:0:0:0:
256,192,89297,1,0,0:0:0:0:
256,192,89451,1,8,0:0:0:0:
256,192,89761,1,0,0:0:0:0:
256,192,89838,1,8,0:0:0:0:
256,192,89915,1,0,0:0:0:0:
256,192,90070,1,8,0:0:0:0:
256,192,90379,1,0,0:0:0:0:
256,192,90534,1,8,0:0:0:0:
256,192,90689,1,8,0:0:0:0:
256,192,90843,1,0,0:0:0:0:
256,192,90998,1,0,0:0:0:0:
256,192,91152,1,8,0:0:0:0:
256,192,91230,1,8,0:0:0:0:
256,192,91307,1,0,0:0:0:0:
256,192,91462,1,0,0:0:0:0:
256,192,91539,1,0,0:0:0:0:
256,192,91616,1,8,0:0:0:0:
384,96,91771,1,4,0:0:0:0:
256,192,91926,1,8,0:0:0:0:
256,192,92004,1,0,0:0:0:0:
256,192,92081,1,8,0:0:0:0:
256,192,92236,1,0,0:0:0:0:
256,192,92390,1,8,0:0:0:0:
256,192,92700,1,0,0:0:0:0:
256,192,92854,1,8,0:0:0:0:
256,192,92932,1,0,0:0:0:0:
256,192,93009,1,8,0:0:0:0:
256,192,93164,1,0,0:0:0:0:
256,192,93318,1,8,0:0:0:0:
256,192,93628,1,8,0:0:0:0:
256,192,93937,1,8,0:0:0:0:
256,192,94246,1,0,0:0:0:0:
256,192,94400,1,0,0:0:0:0:
256,192,94478,1,0,0:0:0:0:
256,192,94555,1,8,0:0:0:0:
256,192,94710,1,0,0:0:0:0:
256,192,94864,1,8,0:0:0:0:
256,192,95174,1,0,0:0:0:0:
256,192,95328,1,0,0:0:0:0:
256,192,95406,1,0,0:0:0:0:
256,192,95483,1,8,0:0:0:0:
256,192,95638,1,8,0:0:0:0:
256,192,95792,1,0,0:0:0:0:
256,192,96102,1,8,0:0:0:0:
256,192,96411,1,8,0:0:0:0:
256,192,96720,1,0,0:0:0:0:
256,192,96874,1,8,0:0:0:0:
256,192,96952,1,0,0:0:0:0:
256,192,97029,1,8,0:0:0:0:
256,192,97184,1,0,0:0:0:0:
256,192,97338,1,8,0:0:0:0:
256,192,97648,1,0,0:0:0:0:
256,192,97802,1,8,0:0:0:0:
256,192,97880,1,0,0:0:0:0:
256,192,97957,1,8,0:0:0:0:
256,192,98112,1,0,0:0:0:0:
256,192,98266,1,8,0:0:0:0:
256,192,98576,1,8,0:0:0:0:
256,192,98885,1,8,0:0:0:0:
256,192,99195,1,0,0:0:0:0:
256,192,99349,1,8,0:0:0:0:
256,192,99427,1,0,0:0:0:0:
256,192,99504,1,8,0:0:0:0:
256,192,99659,1,0,0:0:0:0:
256,192,99813,1,8,0:0:0:0:
256,192,100122,1,8,0:0:0:0:
256,192,100277,1,0,0:0:0:0:
256,192,100354,1,0,0:0:0:0:
256,192,100432,1,8,0:0:0:0:
256,192,100586,1,0,0:0:0:0:
256,192,100741,1,8,0:0:0:0:
256,192,100896,1,0,0:0:0:0:
266,184,101050,1,8,0:0:0:0:
256,192,101128,1,8,0:0:0:0:
256,192,101205,1,0,0:0:0:0:
256,192,101359,1,8,0:0:0:0:
256,192,101514,1,0,0:0:0:0:
395,79,101669,5,4,0:0:0:0:
