osu file format v14

[General]
AudioFilename: audio.mp3
AudioLeadIn: 0
PreviewTime: 81586
Countdown: 1
SampleSet: Soft
StackLeniency: 0.4
Mode: 0
LetterboxInBreaks: 0
WidescreenStoryboard: 1

[Editor]
DistanceSpacing: 0.7
BeatDivisor: 4
GridSize: 8
TimelineZoom: 1.6

[Metadata]
Title:Yozakura Kaidou
TitleUnicode:夜桜街道
Artist:Sasha Asuka
ArtistUnicode:沙紗飛鳥
Creator:Uberzolik
Version:c
Source:
Tags:MAIKAZE touhou
BeatmapID:1866738
BeatmapSetID:893155

[Difficulty]
HPDrainRate:5
CircleSize:4
OverallDifficulty:8
ApproachRate:9
SliderMultiplier:2.4
SliderTickRate:1

[Events]
//Background and Video events
0,0,"66194388_p0.jpg",0,0
//Break Periods
//Storyboard Layer 0 (Background)
//Storyboard Layer 1 (Fail)
//Storyboard Layer 2 (Pass)
//Storyboard Layer 3 (Foreground)
//Storyboard Sound Samples

[TimingPoints]
-14,600,4,2,0,20,1,0
2386,-125,4,2,0,20,0,0
21586,-100,4,2,0,20,0,0
40786,-111.111111111111,4,2,0,20,0,0
59986,-100,4,2,0,20,0,0
81586,-86.9565217391304,4,2,0,20,0,1
100786,-83.3333333333333,4,2,0,20,0,0

[Colours]
Combo1 : 243,180,239
Combo2 : 158,188,237

[HitObjects]
59,117,2086,6,0,L|44:26,1,60
118,0,2386,2,0,L|97:212,1,192
30,384,3586,2,0,L|11:192,1,192
159,325,4486,1,0,0:0:0:0:
159,325,4786,6,0,L|277:313,1,96
278,338,5236,2,0,L|442:359,1,144
488,263,5986,1,0,0:0:0:0:
488,263,6436,1,0,0:0:0:0:
437,204,6586,2,0,L|441:177,2,24
360,177,6886,1,0,0:0:0:0:
284,17,7186,6,0,L|298:132,1,96
249,95,7636,2,0,L|337:29,1,96
189,44,8086,1,0,0:0:0:0:
263,269,8386,6,0,L|251:173,1,96
263,199,8836,2,0,L|252:295,1,96
267,331,9286,1,0,0:0:0:0:
267,331,9586,6,0,L|447:364,1,144
132,349,10486,1,0,0:0:0:0:
132,349,10786,2,0,L|106:263,1,48
2,363,11086,2,0,L|56:349,2,48
202,302,11686,1,0,0:0:0:0:
255,0,11986,6,0,P|312:79|317:143,1,144
294,161,12586,2,0,P|302:112|326:51,1,96
206,173,13186,2,0,P|103:189|16:208,1,192
133,151,14086,2,0,L|145:67,1,48
96,221,14386,6,0,P|105:267|117:315,1,96
93,384,14836,1,0,0:0:0:0:
474,108,15286,2,0,L|460:34,1,48
346,34,15586,2,0,P|365:47|384:62,1,48
511,73,15886,2,0,P|492:60|473:45,1,48
384,0,16186,2,0,L|392:47,1,48
419,159,16486,1,0,0:0:0:0:
419,159,16636,1,0,0:0:0:0:
419,159,16786,6,0,L|401:340,1,144
422,357,17386,2,0,L|436:213,1,144
482,291,17986,1,0,0:0:0:0:
320,351,18436,1,0,0:0:0:0:
153,303,18886,2,0,L|123:372,1,48
152,377,19186,6,0,L|129:244,1,96
161,230,19636,2,0,L|174:137,1,48
40,10,20086,6,0,L|52:66,1,48
144,64,20386,2,0,L|212:55,1,48
206,74,20686,2,0,L|152:43,1,48
84,139,20986,2,0,L|127:80,1,48
246,164,21286,2,0,L|233:115,1,48
54,215,21586,6,0,P|47:158|7:90,1,120
41,245,22036,2,0,P|13:297|5:356,1,120
111,384,22486,2,0,P|152:380|166:318,1,60
278,384,22786,1,0,0:0:0:0:
278,384,22936,1,0,0:0:0:0:
278,384,23086,1,0,0:0:0:0:
278,384,23236,1,0,0:0:0:0:
278,384,23386,2,0,L|266:277,1,60
253,183,23686,2,0,L|260:243,1,60
403,268,23986,5,0,0:0:0:0:
403,268,24286,1,0,0:0:0:0:
392,168,24436,1,0,0:0:0:0:
381,68,24886,1,0,0:0:0:0:
381,68,25186,2,0,L|373:-6,1,60
412,39,25486,2,0,L|474:62,1,60
338,97,25786,2,0,L|281:117,1,60
438,160,26086,2,0,L|494:180,1,60
336,256,26386,6,0,L|152:221,1,180
213,308,27136,1,0,0:0:0:0:
105,188,27286,2,0,L|211:209,1,60
255,174,27586,2,0,L|71:139,2,180
182,49,28786,5,0,0:0:0:0:
158,112,28936,2,0,L|150:38,1,60
198,2,29236,2,0,L|182:144,1,120
271,75,29686,1,0,0:0:0:0:
271,75,29761,1,0,0:0:0:0:
121,173,29986,2,0,L|0:141,1,120
74,121,30436,1,0,0:0:0:0:
44,235,30586,1,0,0:0:0:0:
44,235,30886,2,0,L|32:163,1,60
97,317,31186,6,0,P|159:309|238:377,1,120
319,368,31636,2,0,P|260:359|206:384,1,120
252,277,32086,1,0,0:0:0:0:
252,277,32161,1,0,0:0:0:0:
252,277,32386,2,0,L|232:136,1,120
457,31,32986,1,0,0:0:0:0:
445,75,33136,1,0,0:0:0:0:
461,109,33436,1,0,0:0:0:0:
440,1,33586,5,0,0:0:0:0:
467,201,34036,1,0,0:0:0:0:
421,382,34486,1,0,0:0:0:0:
421,382,34786,2,0,L|411:286,1,60
489,384,35086,2,0,L|461:330,1,60
333,350,35386,2,0,L|384:291,1,60
508,283,35686,2,0,L|437:298,1,60
312,384,35986,6,0,L|327:213,1,120
287,182,36436,2,0,L|302:318,1,120
217,271,36886,1,0,0:0:0:0:
217,271,37036,1,0,0:0:0:0:
217,271,37186,2,0,L|112:290,1,60
79,244,37486,1,0,0:0:0:0:
79,244,37561,1,0,0:0:0:0:
79,244,37786,2,0,L|67:159,1,60
153,107,38086,2,0,L|144:166,1,60
25,104,38386,6,0,L|170:80,1,120
27,0,38986,1,0,0:0:0:0:
46,130,39136,2,0,L|-4:11,1,120
0,216,39586,1,0,0:0:0:0:
100,384,40036,1,0,0:0:0:0:
124,304,40186,2,0,L|116:384,1,60
136,353,40411,1,0,0:0:0:0:
138,332,40486,1,0,0:0:0:0:
140,311,40561,1,0,0:0:0:0:
142,290,40636,1,0,0:0:0:0:
144,269,40711,1,0,0:0:0:0:
146,248,40786,6,0,P|202:278|217:239,1,107.999996704102
292,333,41236,2,0,P|342:325|391:278,1,107.999996704102
490,292,41686,2,0,P|505:261|519:212,1,53.9999983520508
484,384,41986,1,0,0:0:0:0:
401,4,42436,1,0,0:0:0:0:
419,57,42586,2,0,L|432:-2,1,53.9999983520508
383,91,42886,2,0,L|371:38,1,53.9999983520508
466,121,43186,6,0,P|423:149|364:119,1,107.999996704102
262,94,43636,1,0,0:0:0:0:
247,109,43786,2,0,P|300:103|325:112,1,53.9999983520508
160,124,44086,2,0,P|158:75|199:12,1,107.999996704102
255,274,44686,1,0,0:0:0:0:
255,274,45286,2,0,L|243:341,1,53.9999983520508
238,367,45586,6,0,L|225:211,1,107.999996704102
328,313,46036,2,0,L|457:338,1,107.999996704102
181,169,46786,2,0,L|-17:194,1,161.999995056153
131,125,47386,2,0,L|107:40,1,53.9999983520508
160,141,47686,2,0,L|154:196,1,53.9999983520508
236,255,47986,6,0,L|271:115,1,107.999996704102
168,177,48436,1,0,0:0:0:0:
295,217,48586,1,0,0:0:0:0:
226,371,48886,1,0,0:0:0:0:
226,371,49186,2,0,L|216:248,1,107.999996704102
294,263,49636,2,0,L|286:371,1,107.999996704102
172,319,50086,1,0,0:0:0:0:
91,371,50236,1,0,0:0:0:0:
91,371,50311,1,0,0:0:0:0:
91,371,50386,6,0,P|86:314|50:263,1,107.999996704102
94,199,50836,2,0,P|102:147|128:92,1,107.999996704102
165,30,51286,2,0,P|147:12|108:-3,1,53.9999983520508
242,5,51586,1,0,0:0:0:0:
24,129,52036,2,0,L|16:62,1,53.9999983520508
31,212,52486,1,0,0:0:0:0:
79,286,52786,6,0,L|52:407,1,107.999996704102
158,321,53236,2,0,L|145:171,1,107.999996704102
236,350,53686,1,0,0:0:0:0:
415,362,53986,2,0,P|458:359|517:321,1,107.999996704102
394,384,54436,2,0,P|371:362|342:311,1,53.9999983520508
453,11,54886,1,0,0:0:0:0:
453,11,55036,1,0,0:0:0:0:
453,11,55186,6,0,L|476:118,1,107.999996704102
343,79,55636,1,0,0:0:0:0:
343,79,55936,2,0,P|390:95|480:93,1,107.999996704102
281,12,56386,2,0,P|336:118|334:188,1,161.999995056153
284,231,56986,1,0,0:0:0:0:
3,101,57286,1,0,0:0:0:0:
53,3,57586,6,0,L|142:100,1,107.999996704102
165,6,58186,1,0,0:0:0:0:
165,6,58336,2,0,L|149:85,1,53.9999983520508
271,107,58786,2,0,L|136:163,1,107.999996704102
216,219,59236,2,0,L|87:160,1,107.999996704102
91,252,59686,2,0,L|71:147,1,53.9999983520508
0,288,59986,6,0,P|73:293|133:323,1,120
249,383,60436,1,0,0:0:0:0:
331,340,60586,2,0,P|372:326|441:327,2,80
315,217,61186,2,0,P|336:159|347:77,1,120
195,270,61636,1,0,0:0:0:0:
195,270,61786,2,0,L|170:160,1,60
260,14,62086,2,0,L|237:108,1,60
231,126,62386,6,0,L|212:-28,1,120
147,58,62836,1,0,0:0:0:0:
40,54,62986,2,0,L|104:69,1,60
0,0,63286,2,0,L|20:86,1,60
89,266,63586,2,0,L|116:129,1,120
15,188,64036,1,0,0:0:0:0:
149,218,64186,1,0,0:0:0:0:
15,188,64486,1,0,0:0:0:0:
257,0,64786,6,0,P|307:70|321:156,1,120
241,115,65236,1,0,0:0:0:0:
241,115,65386,2,0,P|262:59|300:13,1,120
190,42,65836,1,0,0:0:0:0:
217,136,65986,6,0,L|244:280,1,120
344,346,66436,2,0,L|321:228,1,120
139,211,66886,1,0,0:0:0:0:
139,211,67186,6,0,L|243:375,1,180
294,248,67786,2,0,L|335:381,1,120
401,284,68236,1,0,0:0:0:0:
401,284,68386,2,0,L|411:355,1,60
492,310,68686,2,0,L|480:368,1,60
345,235,68986,2,0,L|416:261,1,60
512,156,69286,2,0,L|441:182,1,60
290,101,69586,6,0,P|293:48|370:-8,1,120
215,26,70036,2,0,P|184:33|128:43,1,60
79,10,70336,2,0,P|108:14|152:24,1,60
122,244,70786,6,0,L|-43:264,1,120
70,330,71236,1,0,0:0:0:0:
70,330,71386,2,0,L|145:360,1,60
260,270,71686,2,0,L|200:276,1,60
347,384,71986,6,0,P|369:326|376:217,1,120
470,223,72436,2,0,P|460:161|411:63,1,120
319,22,72886,2,0,P|343:43|379:64,1,60
422,14,73186,6,0,P|364:40|266:47,1,120
221,81,73636,2,0,P|163:55|65:48,1,120
189,0,74086,2,0,P|198:31|215:70,1,60
238,148,74386,2,0,L|261:-12,1,120
302,97,74836,1,0,0:0:0:0:
196,78,74986,1,0,0:0:0:0:
464,384,75286,1,0,0:0:0:0:
511,318,75586,6,0,L|482:215,1,60
415,270,75886,2,0,L|418:170,1,60
490,174,76186,2,0,L|415:197,1,60
296,91,76486,2,0,L|353:108,1,60
512,1,76786,6,0,P|431:33|416:94,1,120
474,141,77236,1,0,0:0:0:0:
497,52,77386,2,0,P|428:-2|368:15,1,120
162,205,77986,1,0,0:0:0:0:
84,272,78136,2,0,P|32:254|12:237,1,60
88,169,78436,1,0,0:0:0:0:
49,291,78586,1,0,0:0:0:0:
6,22,78886,1,0,0:0:0:0:
73,65,79186,6,0,L|143:5,1,60
389,151,80086,2,0,L|400:209,1,60
366,293,80386,2,0,L|376:239,8,40
295,366,81286,1,0,0:0:0:0:
267,249,81436,1,0,0:0:0:0:
295,366,81586,6,0,P|223:353|159:309,1,138.000002632141
112,238,82036,1,0,0:0:0:0:
28,317,82186,2,0,L|7:191,1,69.0000013160706
123,169,82486,2,0,L|111:237,1,69.0000013160706
13,140,82786,2,0,P|23:70|31:3,1,138.000002632141
185,41,83236,2,0,L|38:77,1,138.000002632141
297,115,83686,2,0,L|305:33,1,69.0000013160706
291,9,83986,6,0,L|308:186,1,138.000002632141
499,184,84436,1,0,0:0:0:0:
499,184,84586,2,0,P|503:150|508:68,1,69.0000013160706
395,253,84886,2,0,P|364:239|288:199,1,69.0000013160706
227,303,85186,2,0,P|202:325|135:397,1,69.0000013160706
146,274,85486,1,0,0:0:0:0:
257,383,85636,1,0,0:0:0:0:
341,343,85786,1,0,0:0:0:0:
341,343,85861,1,0,0:0:0:0:
341,343,85936,1,0,0:0:0:0:
489,363,86086,2,0,L|389:351,1,69.0000013160706
94,367,86386,6,0,L|256:388,1,138.000002632141
244,264,86836,2,0,L|107:246,1,138.000002632141
0,218,87286,2,0,L|123:255,1,69.0000013160706
333,142,87586,2,0,L|181:156,1,138.000002632141
184,34,88036,2,0,L|321:21,1,138.000002632141
473,70,88486,1,0,0:0:0:0:
286,24,88786,6,0,P|327:35|371:68,1,69.0000013160706
411,2,89086,1,0,0:0:0:0:
377,194,89236,2,0,P|351:128|389:71,1,138.000002632141
298,50,89686,2,0,P|271:38|209:31,1,69.0000013160706
110,65,89986,2,0,L|82:-5,1,69.0000013160706
197,117,90286,2,0,L|222:52,1,69.0000013160706
33,120,90586,2,0,L|97:54,1,69.0000013160706
243,187,90886,2,0,L|194:137,1,69.0000013160706
98,254,91186,6,0,L|156:386,1,138.000002632141
202,275,91636,1,0,0:0:0:0:
72,334,91786,2,0,L|188:353,1,69.0000013160706
343,373,92086,2,0,L|274:384,1,69.0000013160706
36,384,92386,2,0,P|8:321|45:244,1,138.000002632141
0,176,92836,2,0,P|6:243|56:287,1,138.000002632141
111,229,93286,2,0,P|161:185|196:181,1,69.0000013160706
198,17,93586,6,0,P|236:71|212:184,1,138.000002632141
371,38,94036,2,0,L|439:-7,1,69.0000013160706
108,384,94486,2,0,P|66:369|17:325,1,69.0000013160706
66,165,94786,2,0,P|74:198|89:229,1,69.0000013160706
292,384,95086,2,0,P|317:360|347:344,1,69.0000013160706
184,249,95386,2,0,L|181:188,2,34.5000006580353
186,272,95611,1,0,0:0:0:0:
187,296,95686,1,0,0:0:0:0:
187,296,95986,6,0,L|203:148,1,138.000002632141
223,0,96436,1,0,0:0:0:0:
290,163,96586,2,0,L|278:85,1,69.0000013160706
384,0,96886,2,0,L|373:68,1,69.0000013160706
223,0,97186,2,0,L|419:40,1,138.000002632141
161,65,97636,2,0,L|54:70,1,69.0000013160706
402,187,98086,2,0,L|496:211,1,69.0000013160706
391,289,98386,6,0,L|359:110,1,138.000002632141
286,212,98836,2,0,L|310:347,1,138.000002632141
224,305,99286,2,0,L|309:321,1,69.0000013160706
131,351,99586,1,0,0:0:0:0:
61,378,99736,1,0,0:0:0:0:
8,312,99886,2,0,L|92:366,1,69.0000013160706
95,208,100186,2,0,L|63:301,1,69.0000013160706
2,71,100486,2,0,L|36:166,1,69.0000013160706
157,2,100786,1,0,0:0:0:0:
