osu file format v14

[General]
AudioFilename: sasara yuuna - dnabgib kaerB.mp3
AudioLeadIn: 0
PreviewTime: 36
Countdown: 0
SampleSet: Normal
StackLeniency: 0.7
Mode: 1
LetterboxInBreaks: 0
WidescreenStoryboard: 1

[Editor]
Bookmarks: 18036,23308,36399,47035,61580,67399,79126,90671,121777,150334,161899,173627,208061,232879,238333,245969,249969,256788
DistanceSpacing: 0.8
BeatDivisor: 8
GridSize: 32
TimelineZoom: 1.5

[Metadata]
Title:dnabgib kaerB
TitleUnicode:dnabgib kaerB
Artist:Sasara Yuuna
ArtistUnicode:篠螺悠那
Creator:Firce777
Version:Firce Force (TWC ver.)
Source:
Tags:bigband break touhou Septette for a Dead Princess
BeatmapID:1255618
BeatmapSetID:593107

[Difficulty]
HPDrainRate:5
CircleSize:5
OverallDifficulty:7
ApproachRate:5
SliderMultiplier:1.4
SliderTickRate:1

[Events]
//Background and Video events
0,0,"1.jpg",0,100
//Break Periods
//Storyboard Layer 0 (Background)
//Storyboard Layer 1 (Fail)
//Storyboard Layer 2 (Pass)
//Storyboard Layer 3 (Foreground)
//Storyboard Sound Samples

[TimingPoints]
36,363.636363636364,4,1,0,70,1,0
10217,363.636363636364,5,1,0,70,1,0
11307,-100,5,1,0,50,0,0
11535,-100,5,1,0,30,0,0
11763,363.636363636364,4,1,0,75,1,0
33581,363.636363636364,5,1,0,75,1,0
35399,363.636363636364,4,1,0,90,1,0
58671,-100,4,1,0,60,0,0
59399,-100,4,1,0,50,0,0
60717,-100,4,1,0,60,0,0
61080,-100,4,1,0,70,0,0
61217,-100,4,1,0,80,0,0
61580,-100,4,1,0,90,0,0
62853,-75.187969924812,4,1,0,90,0,0
64489,-60.2409638554217,4,1,0,90,0,0
65944,-50,4,1,0,90,0,0
67399,-100,4,1,0,90,0,0
90671,392.156862745098,4,1,0,30,1,0
104832,352.941176470588,6,1,0,30,1,0
134517,363.636363636364,6,1,0,30,1,0
138698,363.636363636364,4,1,0,50,1,0
141970,-100,4,1,0,40,0,0
142334,-100,4,1,0,30,0,0
142698,-100,4,1,0,20,0,0
143061,-100,4,1,0,10,0,0
143425,-100,4,1,0,5,0,0
143788,-100,4,1,0,15,0,0
144152,-100,4,1,0,25,0,0
144516,-100,4,1,0,85,0,1
149970,-100,4,1,0,75,0,0
150334,-60.2409638554217,4,1,0,85,0,1
173698,-100,4,1,0,75,0,0
174698,363.636363636364,4,1,0,70,1,0
208516,-100,4,1,0,60,0,0
219425,-100,4,1,0,40,0,0
219607,-100,4,1,0,20,0,0
219970,-100,4,1,0,40,0,0
220152,-100,4,1,0,60,0,0
233243,363.636363636364,4,1,0,70,1,1
233243,-50,4,1,0,70,0,1
234333,363.636363636364,4,1,0,70,1,1
234333,-50,4,1,0,70,0,1

[HitObjects]
256,192,126,5,0,0:0:0:0:
256,192,308,1,2,0:0:0:0:
256,192,399,1,2,0:0:0:0:
256,192,490,1,0,0:0:0:0:
256,192,672,1,2,0:0:0:0:
256,192,763,1,0,0:0:0:0:
256,192,1036,1,0,0:0:0:0:
256,192,1126,1,2,0:0:0:0:
256,192,1308,1,0,0:0:0:0:
256,192,1490,1,0,0:0:0:0:
256,192,1581,1,2,0:0:0:0:
256,192,1672,1,0,0:0:0:0:
256,192,1763,1,2,0:0:0:0:
256,192,1854,1,2,0:0:0:0:
256,192,1945,1,0,0:0:0:0:
256,192,2036,1,2,0:0:0:0:
256,192,2217,1,0,0:0:0:0:
256,192,2490,1,2,0:0:0:0:
256,192,2581,1,0,0:0:0:0:
256,192,2763,1,0,0:0:0:0:
256,192,2945,1,0,0:0:0:0:
256,192,3036,1,2,0:0:0:0:
256,192,3127,1,0,0:0:0:0:
256,192,3218,1,2,0:0:0:0:
256,192,3309,1,2,0:0:0:0:
256,192,3400,1,0,0:0:0:0:
256,192,3491,1,2,0:0:0:0:
256,192,3672,1,0,0:0:0:0:
256,192,3945,1,2,0:0:0:0:
256,192,4036,1,0,0:0:0:0:
256,192,4218,1,0,0:0:0:0:
256,192,4400,1,0,0:0:0:0:
256,192,4490,1,2,0:0:0:0:
256,192,4581,1,0,0:0:0:0:
256,192,4672,1,2,0:0:0:0:
256,192,4763,1,2,0:0:0:0:
256,192,4854,1,0,0:0:0:0:
256,192,4945,1,2,0:0:0:0:
256,192,5126,1,0,0:0:0:0:
256,192,5399,1,2,0:0:0:0:
256,192,5490,1,0,0:0:0:0:
256,192,5672,1,0,0:0:0:0:
256,192,5854,1,0,0:0:0:0:
256,192,5945,1,2,0:0:0:0:
256,192,6036,1,0,0:0:0:0:
256,192,6127,1,2,0:0:0:0:
256,192,6218,1,2,0:0:0:0:
256,192,6309,1,0,0:0:0:0:
256,192,6400,1,2,0:0:0:0:
256,192,6581,1,0,0:0:0:0:
256,192,6854,1,2,0:0:0:0:
256,192,6945,1,0,0:0:0:0:
256,192,7127,1,0,0:0:0:0:
256,192,7309,1,0,0:0:0:0:
256,192,7399,1,2,0:0:0:0:
256,192,7490,1,0,0:0:0:0:
256,192,7581,1,2,0:0:0:0:
256,192,7672,1,2,0:0:0:0:
256,192,7763,1,0,0:0:0:0:
256,192,7854,1,2,0:0:0:0:
256,192,8035,1,0,0:0:0:0:
256,192,8308,1,2,0:0:0:0:
256,192,8399,1,0,0:0:0:0:
256,192,8581,1,0,0:0:0:0:
256,192,8763,1,0,0:0:0:0:
256,192,8854,1,2,0:0:0:0:
256,192,8945,1,0,0:0:0:0:
256,192,9036,1,2,0:0:0:0:
256,192,9127,1,2,0:0:0:0:
256,192,9218,1,0,0:0:0:0:
256,192,9309,1,2,0:0:0:0:
256,192,9490,1,0,0:0:0:0:
256,192,9763,1,2,0:0:0:0:
256,192,9854,1,0,0:0:0:0:
256,192,10036,1,0,0:0:0:0:
256,192,10218,1,0,0:0:0:0:
256,192,10308,1,2,0:0:0:0:
256,192,10399,1,0,0:0:0:0:
256,192,10490,1,2,0:0:0:0:
256,192,10581,1,2,0:0:0:0:
256,192,10672,1,0,0:0:0:0:
256,192,10763,1,2,0:0:0:0:
256,192,10944,1,0,0:0:0:0:
256,192,11217,1,2,0:0:0:0:
256,192,11308,1,0,0:0:0:0:
256,192,11354,1,0,0:0:0:0:
256,192,11399,1,0,0:0:0:0:
256,192,11445,1,0,0:0:0:0:
256,192,11490,1,0,0:0:0:0:
256,192,11551,1,0,0:0:0:0:
256,192,11611,1,0,0:0:0:0:
256,192,11672,1,0,0:0:0:0:
256,192,11732,1,0,0:0:0:0:
256,192,11793,1,0,0:0:0:0:
256,192,11854,1,0,0:0:0:0:
256,192,11899,1,0,0:0:0:0:
256,192,11945,1,0,0:0:0:0:
256,192,11990,1,0,0:0:0:0:
256,192,12036,1,0,0:0:0:0:
256,192,12126,1,2,0:0:0:0:
256,192,12217,1,2,0:0:0:0:
256,192,12399,1,2,0:0:0:0:
256,192,12490,1,2,0:0:0:0:
256,192,12672,1,2,0:0:0:0:
256,192,12763,1,2,0:0:0:0:
256,192,12945,1,2,0:0:0:0:
256,192,13126,1,2,0:0:0:0:
256,192,13217,1,2,0:0:0:0:
256,192,13308,1,0,0:0:0:0:
256,192,13399,1,2,0:0:0:0:
256,192,13490,1,2,0:0:0:0:
256,192,13581,1,0,0:0:0:0:
256,192,13672,1,2,0:0:0:0:
256,192,13854,1,0,0:0:0:0:
256,192,13945,1,2,0:0:0:0:
256,192,14126,1,2,0:0:0:0:
256,192,14217,1,0,0:0:0:0:
256,192,14308,1,2,0:0:0:0:
256,192,14399,1,0,0:0:0:0:
256,192,14490,1,2,0:0:0:0:
256,192,14581,1,2,0:0:0:0:
256,192,14672,1,2,0:0:0:0:
256,192,14763,1,0,0:0:0:0:
256,192,14854,1,2,0:0:0:0:
256,192,14945,1,2,0:0:0:0:
256,192,15036,1,0,0:0:0:0:
256,192,15127,1,2,0:0:0:0:
256,192,15309,1,0,0:0:0:0:
256,192,15400,1,2,0:0:0:0:
256,192,15581,1,2,0:0:0:0:
256,192,15672,1,0,0:0:0:0:
256,192,15763,1,2,0:0:0:0:
256,192,15854,1,0,0:0:0:0:
256,192,15945,1,2,0:0:0:0:
256,192,16036,1,2,0:0:0:0:
256,192,16126,1,2,0:0:0:0:
256,192,16217,1,0,0:0:0:0:
256,192,16308,1,2,0:0:0:0:
256,192,16399,1,2,0:0:0:0:
256,192,16490,1,0,0:0:0:0:
256,192,16581,1,2,0:0:0:0:
256,192,16763,1,0,0:0:0:0:
256,192,16854,1,2,0:0:0:0:
256,192,17035,1,2,0:0:0:0:
256,192,17126,1,0,0:0:0:0:
256,192,17217,1,2,0:0:0:0:
256,192,17308,1,0,0:0:0:0:
256,192,17399,1,2,0:0:0:0:
256,192,17490,1,2,0:0:0:0:
256,192,17581,1,2,0:0:0:0:
256,192,17672,1,0,0:0:0:0:
256,192,17763,1,2,0:0:0:0:
256,192,17854,1,2,0:0:0:0:
256,192,17945,1,0,0:0:0:0:
256,192,18036,1,2,0:0:0:0:
256,192,18218,1,0,0:0:0:0:
256,192,18309,1,2,0:0:0:0:
256,192,18490,1,2,0:0:0:0:
256,192,18581,1,0,0:0:0:0:
256,192,18672,1,2,0:0:0:0:
256,192,18763,1,0,0:0:0:0:
256,192,18854,1,2,0:0:0:0:
256,192,18945,1,2,0:0:0:0:
256,192,19036,1,2,0:0:0:0:
256,192,19127,1,0,0:0:0:0:
256,192,19218,1,2,0:0:0:0:
256,192,19309,1,2,0:0:0:0:
256,192,19400,1,0,0:0:0:0:
256,192,19491,1,2,0:0:0:0:
256,192,19673,1,0,0:0:0:0:
256,192,19764,1,2,0:0:0:0:
256,192,19945,1,2,0:0:0:0:
256,192,20036,1,0,0:0:0:0:
256,192,20127,1,2,0:0:0:0:
256,192,20218,1,0,0:0:0:0:
256,192,20309,1,2,0:0:0:0:
256,192,20400,1,2,0:0:0:0:
256,192,20490,1,2,0:0:0:0:
256,192,20581,1,0,0:0:0:0:
256,192,20672,1,2,0:0:0:0:
256,192,20763,1,2,0:0:0:0:
256,192,20854,1,0,0:0:0:0:
256,192,20945,1,2,0:0:0:0:
256,192,21127,1,0,0:0:0:0:
256,192,21218,1,2,0:0:0:0:
256,192,21399,1,2,0:0:0:0:
256,192,21490,1,0,0:0:0:0:
256,192,21581,1,2,0:0:0:0:
256,192,21672,1,0,0:0:0:0:
256,192,21763,1,2,0:0:0:0:
256,192,21854,1,2,0:0:0:0:
256,192,21945,1,2,0:0:0:0:
256,192,22036,1,0,0:0:0:0:
256,192,22127,1,2,0:0:0:0:
256,192,22218,1,2,0:0:0:0:
256,192,22309,1,0,0:0:0:0:
256,192,22400,1,2,0:0:0:0:
256,192,22582,1,0,0:0:0:0:
256,192,22673,1,2,0:0:0:0:
256,192,22854,1,2,0:0:0:0:
256,192,22945,1,0,0:0:0:0:
256,192,23126,1,0,0:0:0:0:
256,192,23217,1,0,0:0:0:0:
256,192,23308,1,2,0:0:0:0:
256,192,23399,1,2,0:0:0:0:
256,192,23581,1,0,0:0:0:0:
256,192,23672,1,2,0:0:0:0:
256,192,23854,1,0,0:0:0:0:
256,192,23945,1,0,0:0:0:0:
256,192,24036,1,2,0:0:0:0:
256,192,24126,1,2,0:0:0:0:
256,192,24217,1,0,0:0:0:0:
256,192,24308,1,0,0:0:0:0:
256,192,24490,1,2,0:0:0:0:
256,192,24672,1,0,0:0:0:0:
256,192,24854,1,2,0:0:0:0:
256,192,24945,1,0,0:0:0:0:
256,192,25036,1,0,0:0:0:0:
256,192,25126,1,2,0:0:0:0:
256,192,25217,1,2,0:0:0:0:
256,192,25308,1,2,0:0:0:0:
256,192,25399,1,0,0:0:0:0:
256,192,25490,1,2,0:0:0:0:
256,192,25672,1,2,0:0:0:0:
256,192,25763,1,0,0:0:0:0:
256,192,25945,1,2,0:0:0:0:
256,192,26126,1,0,0:0:0:0:
256,192,26308,1,2,0:0:0:0:
256,192,26399,1,0,0:0:0:0:
256,192,26490,1,0,0:0:0:0:
256,192,26580,1,2,0:0:0:0:
256,192,26671,1,2,0:0:0:0:
256,192,26762,1,2,0:0:0:0:
256,192,26853,1,0,0:0:0:0:
256,192,26944,1,2,0:0:0:0:
256,192,27126,1,2,0:0:0:0:
256,192,27217,1,0,0:0:0:0:
256,192,27399,1,2,0:0:0:0:
256,192,27580,1,0,0:0:0:0:
256,192,27763,1,2,0:0:0:0:
256,192,27854,1,0,0:0:0:0:
256,192,27945,1,0,0:0:0:0:
256,192,28035,1,2,0:0:0:0:
256,192,28126,1,2,0:0:0:0:
256,192,28217,1,2,0:0:0:0:
256,192,28308,1,0,0:0:0:0:
256,192,28399,1,2,0:0:0:0:
256,192,28581,1,2,0:0:0:0:
256,192,28672,1,0,0:0:0:0:
256,192,28854,1,2,0:0:0:0:
256,192,29035,1,0,0:0:0:0:
256,192,29217,1,2,0:0:0:0:
256,192,29308,1,0,0:0:0:0:
256,192,29399,1,0,0:0:0:0:
256,192,29489,1,2,0:0:0:0:
256,192,29580,1,2,0:0:0:0:
256,192,29671,1,2,0:0:0:0:
256,192,29762,1,0,0:0:0:0:
256,192,29853,1,2,0:0:0:0:
256,192,30035,1,2,0:0:0:0:
256,192,30126,1,0,0:0:0:0:
256,192,30308,1,2,0:0:0:0:
256,192,30489,1,0,0:0:0:0:
256,192,30672,1,2,0:0:0:0:
256,192,30763,1,0,0:0:0:0:
256,192,30854,1,0,0:0:0:0:
256,192,30944,1,2,0:0:0:0:
256,192,31035,1,2,0:0:0:0:
256,192,31126,1,2,0:0:0:0:
256,192,31217,1,0,0:0:0:0:
256,192,31308,1,2,0:0:0:0:
256,192,31490,1,2,0:0:0:0:
256,192,31581,1,0,0:0:0:0:
256,192,31763,1,2,0:0:0:0:
256,192,31944,1,0,0:0:0:0:
256,192,32126,1,2,0:0:0:0:
256,192,32217,1,0,0:0:0:0:
256,192,32308,1,0,0:0:0:0:
256,192,32398,1,2,0:0:0:0:
256,192,32489,1,2,0:0:0:0:
256,192,32580,1,2,0:0:0:0:
256,192,32671,1,0,0:0:0:0:
256,192,32762,1,2,0:0:0:0:
256,192,32944,1,2,0:0:0:0:
256,192,33035,1,0,0:0:0:0:
256,192,33217,1,2,0:0:0:0:
256,192,33398,1,0,0:0:0:0:
256,192,33581,1,2,0:0:0:0:
256,192,33672,1,0,0:0:0:0:
256,192,33763,1,0,0:0:0:0:
256,192,33853,1,2,0:0:0:0:
256,192,33945,1,0,0:0:0:0:
256,192,34036,1,0,0:0:0:0:
256,192,34217,1,0,0:0:0:0:
256,192,34308,1,0,0:0:0:0:
256,192,34490,1,0,0:0:0:0:
256,192,34581,1,0,0:0:0:0:
256,192,34672,1,2,0:0:0:0:
256,192,34763,1,2,0:0:0:0:
256,192,34854,1,2,0:0:0:0:
256,192,35036,1,2,0:0:0:0:
256,192,35126,1,2,0:0:0:0:
256,192,35308,1,0,0:0:0:0:
256,192,35399,1,2,0:0:0:0:
256,192,35490,1,0,0:0:0:0:
256,192,35581,1,2,0:0:0:0:
256,192,35672,1,2,0:0:0:0:
256,192,35763,1,0,0:0:0:0:
256,192,35854,1,2,0:0:0:0:
256,192,35945,1,0,0:0:0:0:
256,192,35990,1,0,0:0:0:0:
256,192,36036,1,0,0:0:0:0:
256,192,36126,1,2,0:0:0:0:
256,192,36217,1,2,0:0:0:0:
256,192,36308,1,0,0:0:0:0:
256,192,36399,1,0,0:0:0:0:
256,192,36490,1,2,0:0:0:0:
256,192,36672,1,0,0:0:0:0:
256,192,36763,1,2,0:0:0:0:
256,192,36854,1,0,0:0:0:0:
256,192,36945,1,0,0:0:0:0:
256,192,37036,1,2,0:0:0:0:
256,192,37126,1,2,0:0:0:0:
256,192,37217,1,2,0:0:0:0:
256,192,37308,1,2,0:0:0:0:
256,192,37399,1,2,0:0:0:0:
256,192,37490,1,0,0:0:0:0:
256,192,37581,1,0,0:0:0:0:
256,192,37672,1,2,0:0:0:0:
256,192,37763,1,2,0:0:0:0:
256,192,37854,1,0,0:0:0:0:
256,192,37945,1,2,0:0:0:0:
256,192,38036,1,2,0:0:0:0:
256,192,38126,1,0,0:0:0:0:
256,192,38217,1,0,0:0:0:0:
256,192,38308,1,0,0:0:0:0:
256,192,38354,1,0,0:0:0:0:
256,192,38399,1,0,0:0:0:0:
256,192,38445,1,0,0:0:0:0:
256,192,38490,1,0,0:0:0:0:
256,192,38581,1,0,0:0:0:0:
256,192,38672,1,0,0:0:0:0:
256,192,38717,1,0,0:0:0:0:
256,192,38763,1,2,0:0:0:0:
256,192,38854,1,0,0:0:0:0:
256,192,38945,1,2,0:0:0:0:
256,192,39036,1,0,0:0:0:0:
256,192,39126,1,0,0:0:0:0:
256,192,39217,1,2,0:0:0:0:
256,192,39262,1,2,0:0:0:0:
256,192,39308,1,2,0:0:0:0:
256,192,39353,1,2,0:0:0:0:
256,192,39399,1,0,0:0:0:0:
256,192,39490,1,2,0:0:0:0:
256,192,39580,1,0,0:0:0:0:
256,192,39671,1,2,0:0:0:0:
256,192,39762,1,0,0:0:0:0:
256,192,39853,1,0,0:0:0:0:
256,192,39944,1,0,0:0:0:0:
256,192,40035,1,0,0:0:0:0:
256,192,40126,1,2,0:0:0:0:
256,192,40308,1,2,0:0:0:0:
256,192,40399,1,0,0:0:0:0:
256,192,40489,1,0,0:0:0:0:
256,192,40535,1,0,0:0:0:0:
256,192,40580,1,0,0:0:0:0:
256,192,40626,1,0,0:0:0:0:
256,192,40671,1,0,0:0:0:0:
256,192,40732,1,0,0:0:0:0:
256,192,40792,1,0,0:0:0:0:
256,192,40853,1,0,0:0:0:0:
256,192,40914,1,0,0:0:0:0:
256,192,40974,1,0,0:0:0:0:
256,192,41035,1,0,0:0:0:0:
256,192,41080,1,0,0:0:0:0:
256,192,41126,1,0,0:0:0:0:
256,192,41171,1,0,0:0:0:0:
256,192,41217,1,0,0:0:0:0:
256,192,41308,1,2,0:0:0:0:
256,192,41489,1,0,0:0:0:0:
256,192,41580,1,2,0:0:0:0:
256,192,41762,1,0,0:0:0:0:
256,192,41853,1,2,0:0:0:0:
256,192,42035,1,0,0:0:0:0:
256,192,42126,1,2,0:0:0:0:
256,192,42217,1,0,0:0:0:0:
256,192,42308,1,0,0:0:0:0:
256,192,42399,1,2,0:0:0:0:
256,192,42489,1,2,0:0:0:0:
256,192,42580,1,2,0:0:0:0:
256,192,42671,1,0,0:0:0:0:
256,192,42762,1,2,0:0:0:0:
256,192,42853,1,0,0:0:0:0:
256,192,43035,1,2,0:0:0:0:
256,192,43126,1,2,0:0:0:0:
256,192,43217,1,0,0:0:0:0:
256,192,43308,1,0,0:0:0:0:
256,192,43399,1,2,0:0:0:0:
256,192,43489,1,2,0:0:0:0:
256,192,43580,1,0,0:0:0:0:
256,192,43762,1,0,0:0:0:0:
256,192,43853,1,2,0:0:0:0:
256,192,43944,1,2,0:0:0:0:
256,192,44035,1,0,0:0:0:0:
256,192,44126,1,2,0:0:0:0:
256,192,44217,1,2,0:0:0:0:
256,192,44308,1,0,0:0:0:0:
256,192,44353,1,2,0:0:0:0:
256,192,44399,1,2,0:0:0:0:
256,192,44444,1,2,0:0:0:0:
256,192,44489,1,0,0:0:0:0:
256,192,44580,1,2,0:0:0:0:
256,192,44671,1,0,0:0:0:0:
256,192,44717,1,2,0:0:0:0:
256,192,44762,1,2,0:0:0:0:
256,192,44808,1,2,0:0:0:0:
256,192,44853,1,0,0:0:0:0:
256,192,44944,1,0,0:0:0:0:
256,192,45035,1,2,0:0:0:0:
256,192,45126,1,0,0:0:0:0:
256,192,45217,1,2,0:0:0:0:
256,192,45399,1,0,0:0:0:0:
256,192,45489,1,0,0:0:0:0:
256,192,45580,1,2,0:0:0:0:
256,192,45671,1,2,0:0:0:0:
256,192,45762,1,0,0:0:0:0:
256,192,45853,1,0,0:0:0:0:
256,192,45944,1,2,0:0:0:0:
256,192,46035,1,2,0:0:0:0:
256,192,46126,1,0,0:0:0:0:
256,192,46217,1,0,0:0:0:0:
256,192,46308,1,2,0:0:0:0:
256,192,46399,1,2,0:0:0:0:
256,192,46489,1,2,0:0:0:0:
256,192,46580,1,2,0:0:0:0:
256,192,46671,1,2,0:0:0:0:
256,192,46853,1,0,0:0:0:0:
256,192,46944,1,2,0:0:0:0:
256,192,47035,1,0,0:0:0:0:
256,192,47126,1,2,0:0:0:0:
256,192,47217,1,2,0:0:0:0:
256,192,47308,1,0,0:0:0:0:
256,192,47399,1,2,0:0:0:0:
256,192,47489,1,2,0:0:0:0:
256,192,47580,1,2,0:0:0:0:
256,192,47762,1,2,0:0:0:0:
256,192,47853,1,0,0:0:0:0:
256,192,47899,1,0,0:0:0:0:
256,192,47944,1,0,0:0:0:0:
256,192,48035,1,0,0:0:0:0:
256,192,48126,1,0,0:0:0:0:
256,192,48308,1,0,0:0:0:0:
256,192,48489,1,0,0:0:0:0:
256,192,48580,1,2,0:0:0:0:
256,192,48671,1,2,0:0:0:0:
256,192,48762,1,0,0:0:0:0:
256,192,48853,1,2,0:0:0:0:
256,192,48943,1,2,0:0:0:0:
256,192,49034,1,2,0:0:0:0:
256,192,49216,1,2,0:0:0:0:
256,192,49307,1,0,0:0:0:0:
256,192,49353,1,0,0:0:0:0:
256,192,49398,1,0,0:0:0:0:
256,192,49489,1,0,0:0:0:0:
256,192,49580,1,0,0:0:0:0:
256,192,49762,1,0,0:0:0:0:
256,192,49944,1,0,0:0:0:0:
256,192,50035,1,2,0:0:0:0:
256,192,50126,1,2,0:0:0:0:
256,192,50217,1,0,0:0:0:0:
256,192,50308,1,2,0:0:0:0:
256,192,50398,1,2,0:0:0:0:
256,192,50489,1,2,0:0:0:0:
256,192,50671,1,2,0:0:0:0:
256,192,50762,1,0,0:0:0:0:
256,192,50808,1,0,0:0:0:0:
256,192,50853,1,0,0:0:0:0:
256,192,50944,1,0,0:0:0:0:
256,192,51035,1,0,0:0:0:0:
256,192,51217,1,0,0:0:0:0:
256,192,51399,1,0,0:0:0:0:
256,192,51489,1,2,0:0:0:0:
256,192,51580,1,0,0:0:0:0:
256,192,51671,1,0,0:0:0:0:
256,192,51762,1,2,0:0:0:0:
256,192,51853,1,2,0:0:0:0:
256,192,51944,1,0,0:0:0:0:
256,192,52035,1,0,0:0:0:0:
256,192,52126,1,2,0:0:0:0:
256,192,52217,1,0,0:0:0:0:
256,192,52308,1,0,0:0:0:0:
256,192,52399,1,2,0:0:0:0:
256,192,52489,1,0,0:0:0:0:
256,192,52671,1,2,0:0:0:0:
256,192,52762,1,2,0:0:0:0:
256,192,52853,1,0,0:0:0:0:
256,192,52944,1,2,0:0:0:0:
256,192,53035,1,2,0:0:0:0:
256,192,53126,1,0,0:0:0:0:
256,192,53217,1,2,0:0:0:0:
256,192,53307,1,2,0:0:0:0:
256,192,53398,1,2,0:0:0:0:
256,192,53580,1,2,0:0:0:0:
256,192,53671,1,0,0:0:0:0:
256,192,53717,1,0,0:0:0:0:
256,192,53762,1,0,0:0:0:0:
256,192,53853,1,0,0:0:0:0:
256,192,53944,1,0,0:0:0:0:
256,192,54126,1,0,0:0:0:0:
256,192,54308,1,0,0:0:0:0:
256,192,54399,1,2,0:0:0:0:
256,192,54490,1,2,0:0:0:0:
256,192,54581,1,0,0:0:0:0:
256,192,54672,1,2,0:0:0:0:
256,192,54762,1,2,0:0:0:0:
256,192,54853,1,2,0:0:0:0:
256,192,55035,1,2,0:0:0:0:
256,192,55126,1,0,0:0:0:0:
256,192,55172,1,0,0:0:0:0:
256,192,55217,1,0,0:0:0:0:
256,192,55308,1,0,0:0:0:0:
256,192,55399,1,0,0:0:0:0:
256,192,55581,1,0,0:0:0:0:
256,192,55762,1,0,0:0:0:0:
256,192,55853,1,2,0:0:0:0:
256,192,55944,1,2,0:0:0:0:
256,192,56035,1,0,0:0:0:0:
256,192,56126,1,2,0:0:0:0:
256,192,56216,1,2,0:0:0:0:
256,192,56307,1,2,0:0:0:0:
256,192,56489,1,2,0:0:0:0:
256,192,56580,1,0,0:0:0:0:
256,192,56626,1,0,0:0:0:0:
256,192,56671,1,0,0:0:0:0:
256,192,56762,1,0,0:0:0:0:
256,192,56853,1,0,0:0:0:0:
256,192,57035,1,2,0:0:0:0:
256,192,57126,1,2,0:0:0:0:
256,192,57217,1,0,0:0:0:0:
256,192,57308,1,2,0:0:0:0:
256,192,57399,1,0,0:0:0:0:
256,192,57489,1,0,0:0:0:0:
256,192,57580,1,2,0:0:0:0:
256,192,57671,1,2,0:0:0:0:
256,192,57762,1,0,0:0:0:0:
256,192,57853,1,2,0:0:0:0:
256,192,57944,1,2,0:0:0:0:
256,192,58035,1,0,0:0:0:0:
256,192,58126,1,2,0:0:0:0:
256,192,58217,1,0,0:0:0:0:
256,192,58308,1,0,0:0:0:0:
256,192,58399,1,2,0:0:0:0:
256,192,58489,1,2,0:0:0:0:
256,192,58580,1,0,0:0:0:0:
256,192,58671,1,2,0:0:0:0:
256,192,58717,1,2,0:0:0:0:
256,192,58762,1,2,0:0:0:0:
256,192,58808,1,2,0:0:0:0:
256,192,58853,1,2,0:0:0:0:
256,192,58899,1,2,0:0:0:0:
256,192,58944,1,2,0:0:0:0:
256,192,58989,1,2,0:0:0:0:
256,192,59035,1,2,0:0:0:0:
256,192,59095,1,2,0:0:0:0:
256,192,59156,1,2,0:0:0:0:
256,192,59217,1,2,0:0:0:0:
256,192,59277,1,2,0:0:0:0:
256,192,59338,1,2,0:0:0:0:
256,192,59399,1,2,0:0:0:0:
256,192,59489,1,2,0:0:0:0:
256,192,59580,1,2,0:0:0:0:
256,192,59671,1,2,0:0:0:0:
256,192,59762,1,2,0:0:0:0:
256,192,59853,1,2,0:0:0:0:
256,192,59944,1,2,0:0:0:0:
256,192,60035,1,2,0:0:0:0:
256,192,60126,1,0,0:0:0:0:
256,192,60217,1,0,0:0:0:0:
256,192,60308,1,0,0:0:0:0:
256,192,60399,1,0,0:0:0:0:
256,192,60489,1,0,0:0:0:0:
256,192,60550,1,0,0:0:0:0:
256,192,60611,1,0,0:0:0:0:
256,192,60671,1,0,0:0:0:0:
256,192,60732,1,0,0:0:0:0:
256,192,60792,1,0,0:0:0:0:
256,192,60853,1,0,0:0:0:0:
256,192,60899,1,0,0:0:0:0:
256,192,60944,1,0,0:0:0:0:
256,192,60989,1,0,0:0:0:0:
256,192,61035,1,0,0:0:0:0:
256,192,61080,1,0,0:0:0:0:
256,192,61126,1,0,0:0:0:0:
256,192,61171,1,0,0:0:0:0:
256,192,61217,1,2,0:0:0:0:
256,192,61262,1,2,0:0:0:0:
256,192,61308,1,2,0:0:0:0:
256,192,61353,1,2,0:0:0:0:
256,192,61399,1,0,0:0:0:0:
256,192,61459,1,0,0:0:0:0:
256,192,61520,1,0,0:0:0:0:
256,192,61580,1,0,0:0:0:0:
256,192,61762,1,2,0:0:0:0:
256,192,61853,1,0,0:0:0:0:
256,192,62035,1,2,0:0:0:0:
256,192,62126,1,0,0:0:0:0:
256,192,62308,1,2,0:0:0:0:
256,192,62399,1,0,0:0:0:0:
256,192,62580,1,2,0:0:0:0:
256,192,62671,1,0,0:0:0:0:
256,192,62853,1,2,0:0:0:0:
256,192,62944,1,0,0:0:0:0:
256,192,63126,1,2,0:0:0:0:
256,192,63217,1,0,0:0:0:0:
256,192,63399,1,2,0:0:0:0:
256,192,63489,1,0,0:0:0:0:
256,192,63671,1,2,0:0:0:0:
256,192,63762,1,0,0:0:0:0:
256,192,63944,1,2,0:0:0:0:
256,192,64035,1,0,0:0:0:0:
256,192,64217,1,2,0:0:0:0:
256,192,64308,1,0,0:0:0:0:
256,192,64489,1,2,0:0:0:0:
256,192,64580,1,0,0:0:0:0:
256,192,64671,1,2,0:0:0:0:
256,192,64732,1,2,0:0:0:0:
256,192,64853,1,0,0:0:0:0:
256,192,64944,1,2,0:0:0:0:
256,192,65004,1,2,0:0:0:0:
256,192,65126,1,0,0:0:0:0:
256,192,65217,1,2,0:0:0:0:
256,192,65277,1,2,0:0:0:0:
256,192,65399,1,0,0:0:0:0:
256,192,65490,1,2,0:0:0:0:
256,192,65580,1,0,0:0:0:0:
256,192,65671,1,0,0:0:0:0:
256,192,65762,1,2,0:0:0:0:
256,192,65944,1,2,0:0:0:0:
256,192,66035,1,2,0:0:0:0:
256,192,66126,1,2,0:0:0:0:
256,192,66217,1,2,0:0:0:0:
256,192,66308,1,2,0:0:0:0:
256,192,66353,1,2,0:0:0:0:
256,192,66399,1,2,0:0:0:0:
256,192,66444,1,2,0:0:0:0:
256,192,66489,1,2,0:0:0:0:
256,192,66580,1,2,0:0:0:0:
256,192,66671,1,0,0:0:0:0:
256,192,66762,1,2,0:0:0:0:
256,192,66853,1,2,0:0:0:0:
256,192,66914,1,2,0:0:0:0:
256,192,66974,1,2,0:0:0:0:
256,192,67035,1,0,0:0:0:0:
256,192,67095,1,0,0:0:0:0:
256,192,67156,1,0,0:0:0:0:
256,192,67217,1,0,0:0:0:0:
256,192,67399,1,0,0:0:0:0:
256,192,67489,1,2,0:0:0:0:
256,192,67580,1,0,0:0:0:0:
256,192,67671,1,2,0:0:0:0:
256,192,67762,1,2,0:0:0:0:
256,192,67854,1,2,0:0:0:0:
256,192,67945,1,0,0:0:0:0:
256,192,68127,1,2,0:0:0:0:
256,192,68308,1,0,0:0:0:0:
256,192,68490,1,2,0:0:0:0:
256,192,68581,1,0,0:0:0:0:
256,192,68672,1,0,0:0:0:0:
256,192,68762,1,2,0:0:0:0:
256,192,68853,1,2,0:0:0:0:
256,192,68944,1,2,0:0:0:0:
256,192,69035,1,0,0:0:0:0:
256,192,69126,1,2,0:0:0:0:
256,192,69308,1,2,0:0:0:0:
256,192,69399,1,0,0:0:0:0:
256,192,69581,1,2,0:0:0:0:
256,192,69762,1,0,0:0:0:0:
256,192,69944,1,2,0:0:0:0:
256,192,70035,1,0,0:0:0:0:
256,192,70126,1,0,0:0:0:0:
256,192,70216,1,2,0:0:0:0:
256,192,70307,1,2,0:0:0:0:
256,192,70398,1,2,0:0:0:0:
256,192,70489,1,0,0:0:0:0:
256,192,70580,1,2,0:0:0:0:
256,192,70762,1,2,0:0:0:0:
256,192,70853,1,0,0:0:0:0:
256,192,71035,1,2,0:0:0:0:
256,192,71216,1,0,0:0:0:0:
256,192,71398,1,2,0:0:0:0:
256,192,71489,1,0,0:0:0:0:
256,192,71580,1,0,0:0:0:0:
256,192,71670,1,2,0:0:0:0:
256,192,71761,1,2,0:0:0:0:
256,192,71852,1,2,0:0:0:0:
256,192,71943,1,0,0:0:0:0:
256,192,72034,1,2,0:0:0:0:
256,192,72217,1,2,0:0:0:0:
256,192,72308,1,0,0:0:0:0:
256,192,72490,1,2,0:0:0:0:
256,192,72671,1,0,0:0:0:0:
256,192,72853,1,2,0:0:0:0:
256,192,72944,1,0,0:0:0:0:
256,192,73035,1,0,0:0:0:0:
256,192,73125,1,2,0:0:0:0:
256,192,73216,1,2,0:0:0:0:
256,192,73307,1,2,0:0:0:0:
256,192,73398,1,0,0:0:0:0:
256,192,73489,1,2,0:0:0:0:
256,192,73671,1,2,0:0:0:0:
256,192,73762,1,0,0:0:0:0:
256,192,73944,1,2,0:0:0:0:
256,192,74125,1,0,0:0:0:0:
256,192,74307,1,2,0:0:0:0:
256,192,74398,1,0,0:0:0:0:
256,192,74489,1,0,0:0:0:0:
256,192,74579,1,2,0:0:0:0:
256,192,74670,1,2,0:0:0:0:
256,192,74761,1,2,0:0:0:0:
256,192,74852,1,0,0:0:0:0:
256,192,74943,1,2,0:0:0:0:
256,192,75126,1,2,0:0:0:0:
256,192,75217,1,0,0:0:0:0:
256,192,75399,1,2,0:0:0:0:
256,192,75580,1,0,0:0:0:0:
256,192,75762,1,2,0:0:0:0:
256,192,75853,1,0,0:0:0:0:
256,192,75944,1,0,0:0:0:0:
256,192,76034,1,2,0:0:0:0:
256,192,76125,1,2,0:0:0:0:
256,192,76216,1,2,0:0:0:0:
256,192,76307,1,0,0:0:0:0:
256,192,76398,1,2,0:0:0:0:
256,192,76580,1,2,0:0:0:0:
256,192,76671,1,0,0:0:0:0:
256,192,76853,1,2,0:0:0:0:
256,192,77034,1,0,0:0:0:0:
256,192,77216,1,2,0:0:0:0:
256,192,77307,1,0,0:0:0:0:
256,192,77398,1,0,0:0:0:0:
256,192,77488,1,2,0:0:0:0:
256,192,77579,1,2,0:0:0:0:
256,192,77670,1,2,0:0:0:0:
256,192,77761,1,0,0:0:0:0:
256,192,77852,1,2,0:0:0:0:
256,192,77944,1,2,0:0:0:0:
256,192,78126,1,2,0:0:0:0:
256,192,78217,1,0,0:0:0:0:
256,192,78308,1,0,0:0:0:0:
256,192,78399,1,2,0:0:0:0:
256,192,78489,1,0,0:0:0:0:
256,192,78580,1,2,0:0:0:0:
256,192,78671,1,2,0:0:0:0:
256,192,78853,1,0,0:0:0:0:
256,192,78944,1,2,0:0:0:0:
256,192,79035,1,2,0:0:0:0:
256,192,79126,1,2,0:0:0:0:
256,192,79217,1,0,0:0:0:0:
256,192,79308,1,2,0:0:0:0:
256,192,79399,1,2,0:0:0:0:
256,192,79489,1,2,0:0:0:0:
256,192,79580,1,0,0:0:0:0:
256,192,79762,1,2,0:0:0:0:
256,192,79944,1,0,0:0:0:0:
256,192,80126,1,2,0:0:0:0:
256,192,80217,1,0,0:0:0:0:
256,192,80308,1,0,0:0:0:0:
256,192,80398,1,2,0:0:0:0:
256,192,80489,1,2,0:0:0:0:
256,192,80580,1,2,0:0:0:0:
256,192,80671,1,0,0:0:0:0:
256,192,80762,1,2,0:0:0:0:
256,192,80944,1,2,0:0:0:0:
256,192,81035,1,0,0:0:0:0:
256,192,81217,1,2,0:0:0:0:
256,192,81398,1,0,0:0:0:0:
256,192,81580,1,2,0:0:0:0:
256,192,81671,1,0,0:0:0:0:
256,192,81762,1,0,0:0:0:0:
256,192,81852,1,2,0:0:0:0:
256,192,81943,1,2,0:0:0:0:
256,192,82034,1,2,0:0:0:0:
256,192,82125,1,0,0:0:0:0:
256,192,82216,1,2,0:0:0:0:
256,192,82398,1,2,0:0:0:0:
256,192,82489,1,0,0:0:0:0:
256,192,82671,1,2,0:0:0:0:
256,192,82852,1,0,0:0:0:0:
256,192,83035,1,2,0:0:0:0:
256,192,83126,1,0,0:0:0:0:
256,192,83217,1,0,0:0:0:0:
256,192,83307,1,2,0:0:0:0:
256,192,83398,1,2,0:0:0:0:
256,192,83489,1,2,0:0:0:0:
256,192,83580,1,0,0:0:0:0:
256,192,83671,1,2,0:0:0:0:
256,192,83853,1,2,0:0:0:0:
256,192,83944,1,0,0:0:0:0:
256,192,84126,1,2,0:0:0:0:
256,192,84307,1,0,0:0:0:0:
256,192,84489,1,2,0:0:0:0:
256,192,84580,1,0,0:0:0:0:
256,192,84671,1,0,0:0:0:0:
256,192,84761,1,2,0:0:0:0:
256,192,84852,1,2,0:0:0:0:
256,192,84943,1,2,0:0:0:0:
256,192,85034,1,0,0:0:0:0:
256,192,85125,1,2,0:0:0:0:
256,192,85307,1,2,0:0:0:0:
256,192,85398,1,0,0:0:0:0:
256,192,85580,1,2,0:0:0:0:
256,192,85761,1,0,0:0:0:0:
256,192,85944,1,2,0:0:0:0:
256,192,86035,1,0,0:0:0:0:
256,192,86126,1,0,0:0:0:0:
256,192,86216,1,2,0:0:0:0:
256,192,86307,1,2,0:0:0:0:
256,192,86398,1,2,0:0:0:0:
256,192,86489,1,0,0:0:0:0:
256,192,86580,1,2,0:0:0:0:
256,192,86762,1,2,0:0:0:0:
256,192,86853,1,0,0:0:0:0:
256,192,87035,1,2,0:0:0:0:
256,192,87216,1,0,0:0:0:0:
256,192,87399,1,2,0:0:0:0:
256,192,87490,1,0,0:0:0:0:
256,192,87581,1,0,0:0:0:0:
256,192,87671,1,2,0:0:0:0:
256,192,87762,1,2,0:0:0:0:
256,192,87853,1,2,0:0:0:0:
256,192,87944,1,0,0:0:0:0:
256,192,88035,1,2,0:0:0:0:
256,192,88217,1,2,0:0:0:0:
256,192,88308,1,0,0:0:0:0:
256,192,88490,1,2,0:0:0:0:
256,192,88671,1,0,0:0:0:0:
256,192,88853,1,2,0:0:0:0:
256,192,88944,1,0,0:0:0:0:
256,192,89035,1,0,0:0:0:0:
256,192,89125,1,2,0:0:0:0:
256,192,89217,1,2,0:0:0:0:
256,192,89308,1,2,0:0:0:0:
256,192,89399,1,0,0:0:0:0:
256,192,89489,1,2,0:0:0:0:
256,192,89580,1,2,0:0:0:0:
256,192,89671,1,0,0:0:0:0:
256,192,89762,1,2,0:0:0:0:
256,192,89853,1,2,0:0:0:0:
256,192,89944,1,2,0:0:0:0:
256,192,90035,1,0,0:0:0:0:
256,192,90126,1,2,0:0:0:0:
256,192,90217,1,0,0:0:0:0:
256,192,90308,1,0,0:0:0:0:
256,192,90353,1,0,0:0:0:0:
256,192,90399,1,0,0:0:0:0:
256,192,90444,1,0,0:0:0:0:
256,192,90489,1,2,0:0:0:0:
256,192,90580,1,0,0:0:0:0:
256,192,90671,12,0,93710,0:0:0:0:
256,192,93808,5,2,0:0:0:0:
256,192,93906,1,2,0:0:0:0:
256,192,94004,1,2,0:0:0:0:
256,192,94102,1,0,0:0:0:0:
256,192,94200,5,0,0:0:0:0:
256,192,94396,1,2,0:0:0:0:
256,192,94494,1,2,0:0:0:0:
256,192,94592,1,2,0:0:0:0:
256,192,94657,1,2,0:0:0:0:
256,192,94723,1,2,0:0:0:0:
256,192,94788,1,2,0:0:0:0:
256,192,94854,1,2,0:0:0:0:
256,192,94919,1,0,0:0:0:0:
256,192,95033,1,0,0:0:0:0:
256,192,95131,1,0,0:0:0:0:
256,192,95229,1,0,0:0:0:0:
256,192,95327,1,0,0:0:0:0:
256,192,95425,1,0,0:0:0:0:
256,192,95523,1,2,0:0:0:0:
256,192,95621,1,2,0:0:0:0:
256,192,95720,1,2,0:0:0:0:
256,192,95818,1,0,0:0:0:0:
256,192,95965,1,0,0:0:0:0:
256,192,96030,1,2,0:0:0:0:
256,192,96095,1,0,0:0:0:0:
256,192,96161,1,2,0:0:0:0:
256,192,96259,1,2,0:0:0:0:
256,192,96357,1,2,0:0:0:0:
256,192,96422,1,2,0:0:0:0:
256,192,96487,1,2,0:0:0:0:
256,192,96553,1,2,0:0:0:0:
256,192,96618,1,2,0:0:0:0:
256,192,96684,1,0,0:0:0:0:
256,192,96749,1,0,0:0:0:0:
256,192,96798,1,0,0:0:0:0:
256,192,96847,1,0,0:0:0:0:
256,192,96896,1,0,0:0:0:0:
256,192,96945,1,0,0:0:0:0:
256,192,97010,1,0,0:0:0:0:
256,192,97076,1,0,0:0:0:0:
256,192,97141,1,0,0:0:0:0:
256,192,97239,1,0,0:0:0:0:
256,192,97337,1,0,0:0:0:0:
256,192,97403,1,0,0:0:0:0:
256,192,97468,1,2,0:0:0:0:
256,192,97729,1,2,0:0:0:0:
256,192,97925,1,2,0:0:0:0:
256,192,98121,1,0,0:0:0:0:
256,192,98187,1,0,0:0:0:0:
256,192,98252,1,0,0:0:0:0:
256,192,98318,1,0,0:0:0:0:
256,192,98383,1,0,0:0:0:0:
256,192,98448,1,0,0:0:0:0:
256,192,98514,1,2,0:0:0:0:
256,192,98710,1,0,0:0:0:0:
256,192,98775,1,0,0:0:0:0:
256,192,98840,1,0,0:0:0:0:
256,192,98906,1,0,0:0:0:0:
256,192,98955,1,0,0:0:0:0:
256,192,99004,1,0,0:0:0:0:
256,192,99053,1,0,0:0:0:0:
256,192,99102,1,0,0:0:0:0:
256,192,99151,1,0,0:0:0:0:
256,192,99200,1,0,0:0:0:0:
256,192,99249,1,0,0:0:0:0:
256,192,99298,1,2,0:0:0:0:
256,192,99592,1,2,0:0:0:0:
256,192,99739,1,2,0:0:0:0:
256,192,99837,1,2,0:0:0:0:
256,192,99935,1,2,0:0:0:0:
256,192,100017,1,2,0:0:0:0:
256,192,100082,1,2,0:0:0:0:
256,192,100131,1,2,0:0:0:0:
256,192,100180,1,2,0:0:0:0:
256,192,100229,1,2,0:0:0:0:
256,192,100278,1,2,0:0:0:0:
256,192,100327,1,0,0:0:0:0:
256,192,100671,1,2,0:0:0:0:
256,192,100867,1,2,0:0:0:0:
256,192,100965,1,2,0:0:0:0:
256,192,101063,1,2,0:0:0:0:
256,192,101161,1,2,0:0:0:0:
256,192,101259,1,0,0:0:0:0:
256,192,101357,1,2,0:0:0:0:
256,192,101504,1,2,0:0:0:0:
256,192,101651,1,2,0:0:0:0:
256,192,101749,1,0,0:0:0:0:
256,192,101912,1,0,0:0:0:0:
256,192,102043,1,0,0:0:0:0:
256,192,102108,1,2,0:0:0:0:
256,192,102174,1,2,0:0:0:0:
256,192,102239,1,2,0:0:0:0:
256,192,102304,1,2,0:0:0:0:
256,192,102370,1,2,0:0:0:0:
256,192,102435,1,2,0:0:0:0:
256,192,102484,1,2,0:0:0:0:
256,192,102533,1,2,0:0:0:0:
256,192,102582,1,2,0:0:0:0:
256,192,102631,1,2,0:0:0:0:
256,192,102680,1,2,0:0:0:0:
256,192,102729,1,2,0:0:0:0:
256,192,102778,1,0,0:0:0:0:
256,192,102827,1,0,0:0:0:0:
256,192,102876,1,0,0:0:0:0:
256,192,102925,1,0,0:0:0:0:
256,192,102974,1,0,0:0:0:0:
256,192,103023,1,0,0:0:0:0:
256,192,103089,1,0,0:0:0:0:
256,192,103154,1,0,0:0:0:0:
256,192,103220,1,0,0:0:0:0:
256,192,103285,1,2,0:0:0:0:
256,192,103416,1,0,0:0:0:0:
256,192,103481,1,2,0:0:0:0:
256,192,103546,1,0,0:0:0:0:
256,192,103612,1,0,0:0:0:0:
256,192,103677,1,0,0:0:0:0:
256,192,103742,1,0,0:0:0:0:
256,192,103808,1,2,0:0:0:0:
256,192,103873,1,2,0:0:0:0:
256,192,103938,1,2,0:0:0:0:
256,192,104004,1,2,0:0:0:0:
256,192,104053,1,2,0:0:0:0:
256,160,104102,1,2,0:0:0:0:
256,192,104151,1,2,0:0:0:0:
256,192,104200,1,2,0:0:0:0:
256,192,104249,1,0,0:0:0:0:
256,192,104298,1,0,0:0:0:0:
256,192,104347,1,0,0:0:0:0:
256,192,104396,1,2,0:0:0:0:
256,192,104461,1,2,0:0:0:0:
256,192,104543,1,2,0:0:0:0:
256,192,104641,1,2,0:0:0:0:
256,192,104739,1,2,0:0:0:0:
256,192,104832,1,0,0:0:0:0:
256,192,105184,1,0,0:0:0:0:
256,192,105449,1,2,0:0:0:0:
256,192,105802,1,2,0:0:0:0:
256,192,105890,1,0,0:0:0:0:
256,192,106243,1,2,0:0:0:0:
256,192,106508,1,2,0:0:0:0:
256,192,106861,1,2,0:0:0:0:
256,192,106949,1,0,0:0:0:0:
256,192,107302,1,0,0:0:0:0:
256,192,107567,1,2,0:0:0:0:
256,192,107920,1,2,0:0:0:0:
256,192,108008,1,0,0:0:0:0:
256,192,108361,1,2,0:0:0:0:
256,192,108626,1,2,0:0:0:0:
256,192,108714,1,0,0:0:0:0:
256,192,109067,1,2,0:0:0:0:
256,192,109420,1,0,0:0:0:0:
256,192,109685,1,2,0:0:0:0:
256,192,110038,1,2,0:0:0:0:
256,192,110126,1,0,0:0:0:0:
256,192,110479,1,2,0:0:0:0:
256,192,110832,1,2,0:0:0:0:
256,192,111097,1,2,0:0:0:0:
256,192,111185,1,0,0:0:0:0:
256,192,111538,1,0,0:0:0:0:
256,192,111832,1,2,0:0:0:0:
256,192,112156,1,2,0:0:0:0:
256,192,112244,1,0,0:0:0:0:
256,192,112597,1,2,0:0:0:0:
256,192,112862,1,2,0:0:0:0:
256,192,112950,1,0,0:0:0:0:
256,192,113303,1,2,0:0:0:0:
256,192,113655,1,0,0:0:0:0:
256,192,113920,1,2,0:0:0:0:
256,192,114273,1,2,0:0:0:0:
256,192,114361,1,0,0:0:0:0:
256,192,114714,1,2,0:0:0:0:
256,192,114979,1,2,0:0:0:0:
256,192,115067,1,0,0:0:0:0:
256,192,115332,1,2,0:0:0:0:
256,192,115420,1,0,0:0:0:0:
256,192,115773,1,0,0:0:0:0:
256,192,116038,1,2,0:0:0:0:
256,192,116391,1,2,0:0:0:0:
256,192,116479,1,0,0:0:0:0:
256,192,116832,1,2,0:0:0:0:
256,192,117097,1,2,0:0:0:0:
256,192,117185,1,0,0:0:0:0:
256,192,117538,1,2,0:0:0:0:
256,192,117890,1,0,0:0:0:0:
256,192,118155,1,2,0:0:0:0:
256,192,118213,1,0,0:0:0:0:
256,192,118508,1,0,0:0:0:0:
256,192,118596,1,2,0:0:0:0:
256,192,118861,1,0,0:0:0:0:
256,192,118949,1,0,0:0:0:0:
256,192,119214,1,2,0:0:0:0:
256,192,119302,1,0,0:0:0:0:
256,192,119655,1,2,0:0:0:0:
256,192,119920,1,0,0:0:0:0:
256,192,120008,1,0,0:0:0:0:
256,192,120243,1,2,0:0:0:0:
256,192,120626,1,2,0:0:0:0:
256,192,120714,1,2,0:0:0:0:
256,192,121067,1,0,0:0:0:0:
256,192,121302,1,2,0:0:0:0:
256,192,121773,1,6,0:0:0:0:
256,192,122126,1,2,0:0:0:0:
256,192,122390,1,2,0:0:0:0:
256,192,122479,1,0,0:0:0:0:
256,192,122743,1,0,0:0:0:0:
256,192,122831,1,2,0:0:0:0:
256,192,122920,1,2,0:0:0:0:
256,192,123067,1,0,0:0:0:0:
256,192,123155,1,0,0:0:0:0:
256,192,123479,1,0,0:0:0:0:
256,192,123596,1,2,0:0:0:0:
256,192,123890,1,0,0:0:0:0:
256,192,123949,1,0,0:0:0:0:
256,192,124008,1,0,0:0:0:0:
256,192,124243,1,2,0:0:0:0:
256,192,124302,1,2,0:0:0:0:
256,192,124361,1,2,0:0:0:0:
256,192,124596,1,2,0:0:0:0:
256,192,124773,1,0,0:0:0:0:
256,192,125037,1,0,0:0:0:0:
256,192,125302,1,2,0:0:0:0:
256,192,125346,1,2,0:0:0:0:
256,192,125390,1,2,0:0:0:0:
256,192,125434,1,2,0:0:0:0:
256,192,125655,1,0,0:0:0:0:
256,192,126096,1,0,0:0:0:0:
256,192,126184,1,0,0:0:0:0:
256,192,126273,1,0,0:0:0:0:
256,192,126361,1,0,0:0:0:0:
256,192,126449,1,2,0:0:0:0:
256,192,126537,1,0,0:0:0:0:
256,192,126626,1,0,0:0:0:0:
256,192,126714,1,0,0:0:0:0:
256,192,126802,1,2,0:0:0:0:
256,192,126890,1,0,0:0:0:0:
256,192,126979,1,0,0:0:0:0:
256,192,127067,1,0,0:0:0:0:
256,192,127155,1,2,0:0:0:0:
256,192,127243,1,0,0:0:0:0:
256,192,127331,1,0,0:0:0:0:
256,192,127420,1,0,0:0:0:0:
256,192,127486,1,2,0:0:0:0:
256,192,127552,1,0,0:0:0:0:
256,192,127618,1,0,0:0:0:0:
256,192,127684,1,0,0:0:0:0:
256,192,127751,1,2,0:0:0:0:
256,192,127817,1,0,0:0:0:0:
256,192,127883,1,0,0:0:0:0:
256,192,127949,1,0,0:0:0:0:
256,192,128008,1,2,0:0:0:0:
256,192,128067,1,0,0:0:0:0:
256,192,128126,1,2,0:0:0:0:
256,192,128184,1,2,0:0:0:0:
256,192,128243,1,2,0:0:0:0:
256,192,128280,1,0,0:0:0:0:
256,192,128331,1,0,0:0:0:0:
256,192,128390,1,0,0:0:0:0:
256,192,128449,1,2,0:0:0:0:
256,192,128501,1,2,0:0:0:0:
256,192,128545,1,2,0:0:0:0:
256,192,128589,1,2,0:0:0:0:
256,192,128633,1,2,0:0:0:0:
256,192,128677,1,0,0:0:0:0:
256,192,128714,1,2,0:0:0:0:
256,192,128773,1,0,0:0:0:0:
256,192,128831,1,2,0:0:0:0:
256,192,128876,1,2,0:0:0:0:
256,192,128920,1,0,0:0:0:0:
256,192,128964,1,0,0:0:0:0:
256,192,129008,1,2,0:0:0:0:
256,192,129052,1,2,0:0:0:0:
256,192,129096,1,2,0:0:0:0:
256,192,129140,1,2,0:0:0:0:
256,192,129184,1,2,0:0:0:0:
256,192,129229,1,2,0:0:0:0:
256,192,129273,1,2,0:0:0:0:
256,192,129317,1,2,0:0:0:0:
256,192,129361,1,2,0:0:0:0:
256,192,129405,1,2,0:0:0:0:
256,192,129449,1,2,0:0:0:0:
256,192,129493,1,2,0:0:0:0:
256,192,129537,1,2,0:0:0:0:
256,192,129581,1,2,0:0:0:0:
256,192,129626,1,2,0:0:0:0:
256,192,129655,1,2,0:0:0:0:
256,192,129684,1,2,0:0:0:0:
256,192,129714,12,0,133508,0:0:0:0:
256,192,133861,5,2,0:0:0:0:
256,192,134037,1,2,0:0:0:0:
256,192,134126,1,0,0:0:0:0:
256,192,134517,1,0,0:0:0:0:
256,192,134880,1,2,0:0:0:0:
256,192,135153,1,2,0:0:0:0:
256,192,135244,1,0,0:0:0:0:
256,192,135547,1,2,0:0:0:0:
256,192,135607,1,2,0:0:0:0:
256,192,135789,1,0,0:0:0:0:
256,192,135849,1,0,0:0:0:0:
256,192,135971,1,0,0:0:0:0:
256,192,136244,1,0,0:0:0:0:
256,192,136335,1,0,0:0:0:0:
256,192,136607,1,2,0:0:0:0:
256,192,136697,1,2,0:0:0:0:
256,192,137062,1,0,0:0:0:0:
256,192,137183,1,0,0:0:0:0:
256,192,137304,1,2,0:0:0:0:
256,192,137547,1,0,0:0:0:0:
256,192,137668,1,0,0:0:0:0:
256,192,137789,1,2,0:0:0:0:
256,192,137880,1,0,0:0:0:0:
256,192,137971,1,2,0:0:0:0:
256,192,138244,1,2,0:0:0:0:
256,192,138335,1,0,0:0:0:0:
256,192,138517,1,2,0:0:0:0:
256,192,138607,1,2,0:0:0:0:
256,192,138698,1,4,0:0:0:0:
256,192,139061,1,2,0:0:0:0:
256,192,139425,1,2,0:0:0:0:
256,192,139516,1,2,0:0:0:0:
256,192,139607,1,2,0:0:0:0:
256,192,139788,1,2,0:0:0:0:
256,192,140152,1,2,0:0:0:0:
256,192,140243,1,2,0:0:0:0:
256,192,140334,1,2,0:0:0:0:
256,192,140516,1,2,0:0:0:0:
256,192,140607,1,2,0:0:0:0:
256,192,140698,1,2,0:0:0:0:
256,192,140758,1,0,0:0:0:0:
256,192,140819,1,0,0:0:0:0:
256,192,140879,1,2,0:0:0:0:
256,192,141061,1,2,0:0:0:0:
256,192,141152,1,2,0:0:0:0:
256,192,141243,1,0,0:0:0:0:
256,192,141334,1,0,0:0:0:0:
256,192,141425,1,2,0:0:0:0:
256,192,141470,1,2,0:0:0:0:
256,192,141516,1,2,0:0:0:0:
256,192,141561,1,2,0:0:0:0:
256,192,141607,1,0,0:0:0:0:
256,192,141698,1,0,0:0:0:0:
256,192,141788,1,2,0:0:0:0:
256,192,141970,1,0,0:0:0:0:
256,192,142061,1,0,0:0:0:0:
256,192,142151,1,2,0:0:0:0:
256,192,142334,1,0,0:0:0:0:
256,192,142425,1,0,0:0:0:0:
256,192,142515,1,2,0:0:0:0:
256,192,142698,1,0,0:0:0:0:
256,192,142789,1,0,0:0:0:0:
256,192,142879,1,2,0:0:0:0:
256,192,143061,1,0,0:0:0:0:
256,192,143152,1,0,0:0:0:0:
256,192,143242,1,2,0:0:0:0:
256,192,143425,1,0,0:0:0:0:
256,192,143516,1,0,0:0:0:0:
256,192,143606,1,2,0:0:0:0:
256,192,143788,1,0,0:0:0:0:
256,192,143879,1,2,0:0:0:0:
256,192,143970,1,0,0:0:0:0:
256,192,144061,1,2,0:0:0:0:
256,192,144152,1,0,0:0:0:0:
256,192,144243,1,2,0:0:0:0:
256,192,144334,1,0,0:0:0:0:
256,192,144425,1,2,0:0:0:0:
256,192,144516,1,0,0:0:0:0:
256,192,144698,1,2,0:0:0:0:
256,192,144879,1,0,0:0:0:0:
256,192,144970,1,0,0:0:0:0:
256,192,145061,1,0,0:0:0:0:
256,192,145152,1,2,0:0:0:0:
256,192,145243,1,2,0:0:0:0:
256,192,145334,1,0,0:0:0:0:
256,192,145425,1,0,0:0:0:0:
256,192,145516,1,0,0:0:0:0:
256,192,145607,1,0,0:0:0:0:
256,192,145698,1,2,0:0:0:0:
256,192,145788,1,0,0:0:0:0:
256,192,145879,1,0,0:0:0:0:
256,192,145970,1,0,0:0:0:0:
256,192,146152,1,2,0:0:0:0:
256,192,146333,1,0,0:0:0:0:
256,192,146424,1,0,0:0:0:0:
256,192,146515,1,0,0:0:0:0:
256,192,146606,1,2,0:0:0:0:
256,192,146697,1,2,0:0:0:0:
256,192,146788,1,0,0:0:0:0:
256,192,146879,1,0,0:0:0:0:
256,192,146970,1,0,0:0:0:0:
256,192,147061,1,0,0:0:0:0:
256,192,147152,1,2,0:0:0:0:
256,192,147242,1,0,0:0:0:0:
256,192,147333,1,0,0:0:0:0:
256,192,147425,1,0,0:0:0:0:
256,192,147607,1,2,0:0:0:0:
256,192,147788,1,2,0:0:0:0:
256,192,147879,1,0,0:0:0:0:
256,192,147970,1,0,0:0:0:0:
256,192,148061,1,0,0:0:0:0:
256,192,148152,1,0,0:0:0:0:
256,192,148334,1,2,0:0:0:0:
256,192,148516,1,2,0:0:0:0:
256,192,148607,1,0,0:0:0:0:
256,192,148698,1,0,0:0:0:0:
256,192,148788,1,0,0:0:0:0:
256,192,148879,1,0,0:0:0:0:
256,192,149061,1,0,0:0:0:0:
256,192,149243,1,0,0:0:0:0:
256,192,149425,1,0,0:0:0:0:
256,192,149607,1,0,0:0:0:0:
256,192,149698,1,0,0:0:0:0:
256,192,149788,1,0,0:0:0:0:
256,192,149879,1,0,0:0:0:0:
256,192,149970,1,2,0:0:0:0:
256,192,150334,1,4,0:0:0:0:
256,192,150425,1,0,0:0:0:0:
256,192,150516,1,2,0:0:0:0:
256,192,150607,1,2,0:0:0:0:
256,192,150698,1,0,0:0:0:0:
256,192,150788,1,2,0:0:0:0:
256,192,150879,1,0,0:0:0:0:
256,192,150970,1,0,0:0:0:0:
256,192,151016,1,0,0:0:0:0:
256,192,151061,1,2,0:0:0:0:
256,192,151152,1,2,0:0:0:0:
256,192,151198,1,2,0:0:0:0:
256,192,151243,1,0,0:0:0:0:
256,192,151334,1,0,0:0:0:0:
256,192,151425,1,0,0:0:0:0:
256,192,151516,1,2,0:0:0:0:
256,192,151607,1,0,0:0:0:0:
256,192,151652,1,0,0:0:0:0:
256,192,151698,1,0,0:0:0:0:
256,192,151788,1,0,0:0:0:0:
256,192,151879,1,0,0:0:0:0:
256,192,151924,1,0,0:0:0:0:
256,192,151970,1,2,0:0:0:0:
256,192,152061,1,2,0:0:0:0:
256,192,152152,1,0,0:0:0:0:
256,192,152242,1,2,0:0:0:0:
256,192,152333,1,0,0:0:0:0:
256,192,152379,1,0,0:0:0:0:
256,192,152424,1,0,0:0:0:0:
256,192,152470,1,0,0:0:0:0:
256,192,152515,1,2,0:0:0:0:
256,192,152606,1,2,0:0:0:0:
256,192,152652,1,2,0:0:0:0:
256,192,152697,1,0,0:0:0:0:
256,192,152788,1,0,0:0:0:0:
256,192,152879,1,2,0:0:0:0:
256,192,152925,1,2,0:0:0:0:
256,192,152970,1,2,0:0:0:0:
256,192,153016,1,2,0:0:0:0:
256,192,153061,1,2,0:0:0:0:
256,192,153107,1,2,0:0:0:0:
256,192,153152,1,2,0:0:0:0:
256,192,153198,1,2,0:0:0:0:
256,192,153243,1,0,0:0:0:0:
256,192,153304,1,0,0:0:0:0:
256,192,153516,1,0,0:0:0:0:
256,192,153561,1,0,0:0:0:0:
256,192,153728,1,0,0:0:0:0:
256,192,153788,1,2,0:0:0:0:
256,192,153849,1,2,0:0:0:0:
256,192,153970,1,0,0:0:0:0:
256,192,154031,1,0,0:0:0:0:
256,192,154152,1,2,0:0:0:0:
256,192,154243,1,0,0:0:0:0:
256,192,154288,1,0,0:0:0:0:
256,192,154425,1,0,0:0:0:0:
256,192,154515,1,2,0:0:0:0:
256,192,154576,1,2,0:0:0:0:
256,192,154698,1,2,0:0:0:0:
256,192,154788,1,2,0:0:0:0:
256,192,154879,1,0,0:0:0:0:
256,192,154970,1,2,0:0:0:0:
256,192,155016,1,2,0:0:0:0:
256,192,155061,1,0,0:0:0:0:
256,192,155152,1,0,0:0:0:0:
256,192,155243,1,0,0:0:0:0:
256,192,155334,1,0,0:0:0:0:
256,192,155379,1,0,0:0:0:0:
256,192,155425,1,0,0:0:0:0:
256,192,155516,1,2,0:0:0:0:
256,192,155607,1,0,0:0:0:0:
256,192,155652,1,2,0:0:0:0:
256,192,155698,1,2,0:0:0:0:
256,192,155743,1,2,0:0:0:0:
256,192,155788,1,0,0:0:0:0:
256,192,155879,1,0,0:0:0:0:
256,192,155925,1,0,0:0:0:0:
256,192,155970,1,2,0:0:0:0:
256,192,156016,1,2,0:0:0:0:
256,192,156061,1,0,0:0:0:0:
256,192,156107,1,2,0:0:0:0:
256,192,156152,1,0,0:0:0:0:
256,192,156243,1,0,0:0:0:0:
256,192,156334,1,2,0:0:0:0:
256,192,156425,1,2,0:0:0:0:
256,192,156516,1,0,0:0:0:0:
256,192,156606,1,2,0:0:0:0:
256,192,156697,1,0,0:0:0:0:
256,192,156788,1,0,0:0:0:0:
256,192,156834,1,0,0:0:0:0:
256,192,156879,1,2,0:0:0:0:
256,192,156970,1,2,0:0:0:0:
256,192,157016,1,2,0:0:0:0:
256,192,157061,1,0,0:0:0:0:
256,192,157152,1,0,0:0:0:0:
256,192,157243,1,0,0:0:0:0:
256,192,157334,1,2,0:0:0:0:
256,192,157425,1,0,0:0:0:0:
256,192,157470,1,0,0:0:0:0:
256,192,157516,1,0,0:0:0:0:
256,192,157606,1,0,0:0:0:0:
256,192,157697,1,0,0:0:0:0:
256,192,157742,1,0,0:0:0:0:
256,192,157788,1,2,0:0:0:0:
256,192,157879,1,2,0:0:0:0:
256,192,157970,1,0,0:0:0:0:
256,192,158060,1,2,0:0:0:0:
256,192,158151,1,0,0:0:0:0:
256,192,158242,1,0,0:0:0:0:
256,192,158288,1,0,0:0:0:0:
256,192,158333,1,2,0:0:0:0:
256,192,158424,1,2,0:0:0:0:
256,192,158470,1,2,0:0:0:0:
256,192,158515,1,0,0:0:0:0:
256,192,158606,1,0,0:0:0:0:
256,192,158697,1,2,0:0:0:0:
256,192,158743,1,2,0:0:0:0:
256,192,158788,1,2,0:0:0:0:
256,192,158834,1,2,0:0:0:0:
256,192,158879,1,2,0:0:0:0:
256,192,158925,1,2,0:0:0:0:
256,192,158970,1,2,0:0:0:0:
256,192,159016,1,2,0:0:0:0:
256,192,159061,1,0,0:0:0:0:
256,192,159152,1,0,0:0:0:0:
256,192,159243,1,2,0:0:0:0:
256,192,159334,1,0,0:0:0:0:
256,192,159425,1,0,0:0:0:0:
256,192,159516,1,2,0:0:0:0:
256,192,159607,1,2,0:0:0:0:
256,192,159652,1,2,0:0:0:0:
256,192,159698,1,0,0:0:0:0:
256,192,159788,1,0,0:0:0:0:
256,192,159879,1,2,0:0:0:0:
256,192,159970,1,2,0:0:0:0:
256,192,160061,1,0,0:0:0:0:
256,192,160152,1,2,0:0:0:0:
256,192,160243,1,2,0:0:0:0:
256,192,160334,1,0,0:0:0:0:
256,192,160379,1,2,0:0:0:0:
256,192,160425,1,2,0:0:0:0:
256,192,160470,1,2,0:0:0:0:
256,192,160516,1,0,0:0:0:0:
256,192,160607,1,2,0:0:0:0:
256,192,160652,1,2,0:0:0:0:
256,192,160698,1,2,0:0:0:0:
256,192,160788,1,2,0:0:0:0:
256,192,160879,1,0,0:0:0:0:
256,192,160970,1,2,0:0:0:0:
256,192,161061,1,0,0:0:0:0:
256,192,161152,1,2,0:0:0:0:
256,192,161198,1,0,0:0:0:0:
256,192,161288,1,0,0:0:0:0:
256,192,161334,1,2,0:0:0:0:
256,192,161425,1,0,0:0:0:0:
256,192,161516,1,2,0:0:0:0:
256,192,161607,1,2,0:0:0:0:
256,192,161652,1,2,0:0:0:0:
256,192,161698,1,2,0:0:0:0:
256,192,161743,1,2,0:0:0:0:
256,192,161788,1,0,0:0:0:0:
256,192,161834,1,2,0:0:0:0:
256,192,161879,1,2,0:0:0:0:
256,192,161925,1,2,0:0:0:0:
256,192,161970,1,0,0:0:0:0:
256,192,162062,1,0,0:0:0:0:
256,192,162153,1,2,0:0:0:0:
256,192,162244,1,2,0:0:0:0:
256,192,162335,1,0,0:0:0:0:
256,192,162379,1,0,0:0:0:0:
256,192,162425,1,2,0:0:0:0:
256,192,162516,1,0,0:0:0:0:
256,192,162607,1,0,0:0:0:0:
256,192,162653,1,0,0:0:0:0:
256,192,162698,1,2,0:0:0:0:
256,192,162789,1,2,0:0:0:0:
256,192,162835,1,2,0:0:0:0:
256,192,162880,1,0,0:0:0:0:
256,192,162971,1,0,0:0:0:0:
256,192,163062,1,0,0:0:0:0:
256,192,163153,1,2,0:0:0:0:
256,192,163244,1,0,0:0:0:0:
256,192,163289,1,0,0:0:0:0:
256,192,163335,1,0,0:0:0:0:
256,192,163425,1,0,0:0:0:0:
256,192,163516,1,0,0:0:0:0:
256,192,163561,1,0,0:0:0:0:
256,192,163607,1,2,0:0:0:0:
256,192,163698,1,2,0:0:0:0:
256,192,163789,1,0,0:0:0:0:
256,192,163879,1,2,0:0:0:0:
256,192,163970,1,0,0:0:0:0:
256,192,164061,1,0,0:0:0:0:
256,192,164107,1,0,0:0:0:0:
256,192,164152,1,2,0:0:0:0:
256,192,164243,1,2,0:0:0:0:
256,192,164289,1,2,0:0:0:0:
256,192,164334,1,0,0:0:0:0:
256,192,164425,1,0,0:0:0:0:
256,192,164516,1,2,0:0:0:0:
256,192,164562,1,2,0:0:0:0:
256,192,164607,1,2,0:0:0:0:
256,192,164653,1,2,0:0:0:0:
256,192,164698,1,2,0:0:0:0:
256,192,164743,1,2,0:0:0:0:
256,192,164789,1,2,0:0:0:0:
256,192,164834,1,2,0:0:0:0:
256,192,164880,1,0,0:0:0:0:
256,192,164941,1,0,0:0:0:0:
256,192,165153,1,0,0:0:0:0:
256,192,165198,1,0,0:0:0:0:
256,192,165365,1,0,0:0:0:0:
256,192,165425,1,2,0:0:0:0:
256,192,165486,1,2,0:0:0:0:
256,192,165607,1,0,0:0:0:0:
256,192,165667,1,0,0:0:0:0:
256,192,165789,1,2,0:0:0:0:
256,192,165880,1,0,0:0:0:0:
256,192,165925,1,0,0:0:0:0:
256,192,166062,1,0,0:0:0:0:
256,192,166152,1,2,0:0:0:0:
256,192,166213,1,2,0:0:0:0:
256,192,166335,1,2,0:0:0:0:
256,192,166425,1,2,0:0:0:0:
256,192,166516,1,0,0:0:0:0:
256,192,166607,1,2,0:0:0:0:
256,192,166653,1,2,0:0:0:0:
256,192,166698,1,0,0:0:0:0:
256,192,166789,1,0,0:0:0:0:
256,192,166880,1,0,0:0:0:0:
256,192,166971,1,0,0:0:0:0:
256,192,167016,1,0,0:0:0:0:
256,192,167062,1,0,0:0:0:0:
256,192,167153,1,2,0:0:0:0:
256,192,167244,1,0,0:0:0:0:
256,192,167289,1,2,0:0:0:0:
256,192,167335,1,2,0:0:0:0:
256,192,167380,1,2,0:0:0:0:
256,192,167425,1,0,0:0:0:0:
256,192,167516,1,0,0:0:0:0:
256,192,167562,1,0,0:0:0:0:
256,192,167607,1,2,0:0:0:0:
256,192,167653,1,2,0:0:0:0:
256,192,167698,1,0,0:0:0:0:
256,192,167744,1,2,0:0:0:0:
256,192,167789,1,0,0:0:0:0:
256,192,167880,1,0,0:0:0:0:
256,192,167971,1,2,0:0:0:0:
256,192,168062,1,2,0:0:0:0:
256,192,168153,1,0,0:0:0:0:
256,192,168243,1,2,0:0:0:0:
256,192,168334,1,0,0:0:0:0:
256,192,168425,1,0,0:0:0:0:
256,192,168471,1,0,0:0:0:0:
256,192,168516,1,2,0:0:0:0:
256,192,168607,1,2,0:0:0:0:
256,192,168653,1,2,0:0:0:0:
256,192,168698,1,0,0:0:0:0:
256,192,168789,1,0,0:0:0:0:
256,192,168880,1,0,0:0:0:0:
256,192,168971,1,2,0:0:0:0:
256,192,169062,1,0,0:0:0:0:
256,192,169107,1,0,0:0:0:0:
256,192,169153,1,0,0:0:0:0:
256,192,169243,1,0,0:0:0:0:
256,192,169334,1,0,0:0:0:0:
256,192,169379,1,0,0:0:0:0:
256,192,169425,1,2,0:0:0:0:
256,192,169516,1,2,0:0:0:0:
256,192,169607,1,0,0:0:0:0:
256,192,169697,1,2,0:0:0:0:
256,192,169788,1,0,0:0:0:0:
256,192,169834,1,0,0:0:0:0:
256,192,169879,1,0,0:0:0:0:
256,192,169925,1,0,0:0:0:0:
256,192,169970,1,2,0:0:0:0:
256,192,170061,1,2,0:0:0:0:
256,192,170107,1,2,0:0:0:0:
256,192,170152,1,0,0:0:0:0:
256,192,170243,1,0,0:0:0:0:
256,192,170334,1,2,0:0:0:0:
256,192,170380,1,2,0:0:0:0:
256,192,170425,1,2,0:0:0:0:
256,192,170471,1,2,0:0:0:0:
256,192,170516,1,2,0:0:0:0:
256,192,170561,1,2,0:0:0:0:
256,192,170607,1,2,0:0:0:0:
256,192,170652,1,2,0:0:0:0:
256,192,170698,1,0,0:0:0:0:
256,192,170789,1,0,0:0:0:0:
256,192,170880,1,2,0:0:0:0:
256,192,170971,1,0,0:0:0:0:
256,192,171062,1,0,0:0:0:0:
256,192,171153,1,2,0:0:0:0:
256,192,171244,1,2,0:0:0:0:
256,192,171288,1,2,0:0:0:0:
256,192,171335,1,0,0:0:0:0:
256,192,171425,1,0,0:0:0:0:
256,192,171516,1,2,0:0:0:0:
256,192,171607,1,2,0:0:0:0:
256,192,171698,1,0,0:0:0:0:
256,192,171789,1,2,0:0:0:0:
256,192,171880,1,2,0:0:0:0:
256,192,171971,1,0,0:0:0:0:
256,192,172016,1,2,0:0:0:0:
256,192,172062,1,2,0:0:0:0:
256,192,172107,1,2,0:0:0:0:
256,192,172153,1,0,0:0:0:0:
256,192,172244,1,2,0:0:0:0:
256,192,172289,1,2,0:0:0:0:
256,192,172335,1,2,0:0:0:0:
256,192,172425,1,2,0:0:0:0:
256,192,172516,1,0,0:0:0:0:
256,192,172607,1,2,0:0:0:0:
256,192,172698,1,0,0:0:0:0:
256,192,172789,1,2,0:0:0:0:
256,192,172835,1,0,0:0:0:0:
256,192,172925,1,0,0:0:0:0:
256,192,172971,1,2,0:0:0:0:
256,192,173062,1,0,0:0:0:0:
256,192,173153,1,2,0:0:0:0:
256,192,173244,1,2,0:0:0:0:
256,192,173289,1,2,0:0:0:0:
256,192,173335,1,2,0:0:0:0:
256,192,173380,1,2,0:0:0:0:
256,192,173425,1,0,0:0:0:0:
256,192,173471,1,2,0:0:0:0:
256,192,173516,1,2,0:0:0:0:
256,192,173562,1,2,0:0:0:0:
256,192,173607,1,0,0:0:0:0:
256,192,173789,1,2,0:0:0:0:
256,192,173834,1,2,0:0:0:0:
256,192,173880,1,2,0:0:0:0:
256,192,173971,1,0,0:0:0:0:
256,192,174062,1,2,0:0:0:0:
256,192,174153,1,0,0:0:0:0:
256,192,174198,1,0,0:0:0:0:
256,192,174244,1,0,0:0:0:0:
256,192,174334,1,2,0:0:0:0:
256,192,174425,1,2,0:0:0:0:
256,192,174516,1,0,0:0:0:0:
256,192,174607,1,0,0:0:0:0:
256,192,174698,1,2,0:0:0:0:
256,192,174788,1,0,0:0:0:0:
256,192,174879,1,2,0:0:0:0:
256,192,174970,1,0,0:0:0:0:
256,192,175061,1,0,0:0:0:0:
256,192,175152,1,2,0:0:0:0:
256,192,175242,1,2,0:0:0:0:
256,192,175333,1,2,0:0:0:0:
256,192,175424,1,2,0:0:0:0:
256,192,175515,1,2,0:0:0:0:
256,192,175607,1,2,0:0:0:0:
256,192,175698,1,0,0:0:0:0:
256,192,175788,1,0,0:0:0:0:
256,192,175879,1,2,0:0:0:0:
256,192,175970,1,2,0:0:0:0:
256,192,176061,1,0,0:0:0:0:
256,192,176152,1,2,0:0:0:0:
256,192,176243,1,2,0:0:0:0:
256,192,176333,1,0,0:0:0:0:
256,192,176424,1,0,0:0:0:0:
256,192,176515,1,0,0:0:0:0:
256,192,176561,1,0,0:0:0:0:
256,192,176606,1,0,0:0:0:0:
256,192,176652,1,0,0:0:0:0:
256,192,176697,1,0,0:0:0:0:
256,192,176788,1,0,0:0:0:0:
256,192,176879,1,0,0:0:0:0:
256,192,176924,1,0,0:0:0:0:
256,192,176970,1,2,0:0:0:0:
256,192,177061,1,0,0:0:0:0:
256,192,177152,1,2,0:0:0:0:
256,192,177243,1,0,0:0:0:0:
256,192,177333,1,0,0:0:0:0:
256,192,177424,1,2,0:0:0:0:
256,192,177469,1,2,0:0:0:0:
256,192,177515,1,2,0:0:0:0:
256,192,177560,1,2,0:0:0:0:
256,192,177606,1,0,0:0:0:0:
256,192,177697,1,2,0:0:0:0:
256,192,177787,1,0,0:0:0:0:
256,192,177878,1,2,0:0:0:0:
256,192,177969,1,0,0:0:0:0:
256,192,178060,1,0,0:0:0:0:
256,192,178151,1,0,0:0:0:0:
256,192,178242,1,0,0:0:0:0:
256,192,178333,1,2,0:0:0:0:
256,192,178515,1,2,0:0:0:0:
256,192,178606,1,0,0:0:0:0:
256,192,178696,1,0,0:0:0:0:
256,192,178742,1,0,0:0:0:0:
256,192,178787,1,0,0:0:0:0:
256,192,178833,1,0,0:0:0:0:
256,192,178878,1,0,0:0:0:0:
256,192,178939,1,0,0:0:0:0:
256,192,178999,1,0,0:0:0:0:
256,192,179060,1,0,0:0:0:0:
256,192,179121,1,0,0:0:0:0:
256,192,179181,1,0,0:0:0:0:
256,192,179242,1,0,0:0:0:0:
256,192,179287,1,0,0:0:0:0:
256,192,179333,1,0,0:0:0:0:
256,192,179378,1,0,0:0:0:0:
256,192,179424,1,0,0:0:0:0:
256,192,179515,1,2,0:0:0:0:
256,192,179696,1,0,0:0:0:0:
256,192,179787,1,2,0:0:0:0:
256,192,179969,1,0,0:0:0:0:
256,192,180060,1,2,0:0:0:0:
256,192,180242,1,0,0:0:0:0:
256,192,180333,1,2,0:0:0:0:
256,192,180424,1,0,0:0:0:0:
256,192,180515,1,0,0:0:0:0:
256,192,180606,1,2,0:0:0:0:
256,192,180696,1,2,0:0:0:0:
256,192,180787,1,2,0:0:0:0:
256,192,180878,1,0,0:0:0:0:
256,192,180969,1,2,0:0:0:0:
256,192,181060,1,0,0:0:0:0:
256,192,181242,1,2,0:0:0:0:
256,192,181333,1,2,0:0:0:0:
256,192,181424,1,0,0:0:0:0:
256,192,181515,1,0,0:0:0:0:
256,192,181606,1,2,0:0:0:0:
256,192,181696,1,2,0:0:0:0:
256,192,181787,1,0,0:0:0:0:
256,192,181969,1,0,0:0:0:0:
256,192,182060,1,2,0:0:0:0:
256,192,182151,1,2,0:0:0:0:
256,192,182242,1,0,0:0:0:0:
256,192,182333,1,2,0:0:0:0:
256,192,182424,1,2,0:0:0:0:
256,192,182515,1,0,0:0:0:0:
256,192,182561,1,2,0:0:0:0:
256,192,182606,1,2,0:0:0:0:
256,192,182652,1,2,0:0:0:0:
256,192,182698,1,0,0:0:0:0:
256,192,182787,1,2,0:0:0:0:
256,192,182878,1,0,0:0:0:0:
256,192,182925,1,2,0:0:0:0:
256,192,182970,1,2,0:0:0:0:
256,192,183016,1,2,0:0:0:0:
256,192,183060,1,0,0:0:0:0:
256,192,183151,1,0,0:0:0:0:
256,192,183242,1,2,0:0:0:0:
256,192,183333,1,0,0:0:0:0:
256,192,183424,1,2,0:0:0:0:
256,192,183606,1,0,0:0:0:0:
256,192,183696,1,0,0:0:0:0:
256,192,183787,1,2,0:0:0:0:
256,192,183878,1,2,0:0:0:0:
256,192,183969,1,0,0:0:0:0:
256,192,184060,1,0,0:0:0:0:
256,192,184151,1,2,0:0:0:0:
256,192,184242,1,2,0:0:0:0:
256,192,184333,1,0,0:0:0:0:
256,192,184424,1,0,0:0:0:0:
256,192,184515,1,0,0:0:0:0:
256,192,184606,1,0,0:0:0:0:
256,192,184696,1,2,0:0:0:0:
256,192,184787,1,2,0:0:0:0:
256,192,184878,1,2,0:0:0:0:
256,192,184970,1,0,0:0:0:0:
256,192,185061,1,2,0:0:0:0:
256,192,185152,1,2,0:0:0:0:
256,192,185243,1,2,0:0:0:0:
256,192,185334,1,2,0:0:0:0:
256,192,185425,1,0,0:0:0:0:
256,192,185516,1,0,0:0:0:0:
256,192,185607,1,2,0:0:0:0:
256,192,185698,1,2,0:0:0:0:
256,192,185788,1,0,0:0:0:0:
256,192,185879,1,0,0:0:0:0:
256,192,185970,1,2,0:0:0:0:
256,192,186061,1,0,0:0:0:0:
256,192,186152,1,2,0:0:0:0:
256,192,186243,1,0,0:0:0:0:
256,192,186334,1,2,0:0:0:0:
256,192,186425,1,0,0:0:0:0:
256,192,186516,1,2,0:0:0:0:
256,192,186607,1,2,0:0:0:0:
256,192,186698,1,2,0:0:0:0:
256,192,186743,1,0,0:0:0:0:
256,192,187061,1,2,0:0:0:0:
256,192,187091,1,2,0:0:0:0:
256,192,187243,1,2,0:0:0:0:
256,192,187273,1,2,0:0:0:0:
256,192,187425,1,0,0:0:0:0:
256,192,187516,1,2,0:0:0:0:
256,192,187607,1,2,0:0:0:0:
256,192,187698,1,0,0:0:0:0:
256,192,187788,1,2,0:0:0:0:
256,192,187834,1,0,0:0:0:0:
256,192,188152,1,0,0:0:0:0:
256,192,188198,1,0,0:0:0:0:
256,192,188243,1,0,0:0:0:0:
256,192,188288,1,0,0:0:0:0:
256,192,188334,1,0,0:0:0:0:
256,192,188425,1,0,0:0:0:0:
256,192,188516,1,0,0:0:0:0:
256,192,188607,1,2,0:0:0:0:
256,192,188698,1,0,0:0:0:0:
256,192,188788,1,2,0:0:0:0:
256,192,188879,1,2,0:0:0:0:
256,192,189061,1,0,0:0:0:0:
256,192,189107,1,0,0:0:0:0:
256,192,189152,1,0,0:0:0:0:
256,192,189243,1,2,0:0:0:0:
256,192,189334,1,2,0:0:0:0:
256,192,189425,1,0,0:0:0:0:
256,192,189516,1,2,0:0:0:0:
256,192,189607,1,0,0:0:0:0:
256,192,189667,1,0,0:0:0:0:
256,192,189728,1,0,0:0:0:0:
256,192,189788,1,0,0:0:0:0:
256,192,189849,1,0,0:0:0:0:
256,192,189910,1,0,0:0:0:0:
256,192,189970,1,2,0:0:0:0:
256,192,190152,1,0,0:0:0:0:
256,192,190334,1,2,0:0:0:0:
256,192,190379,1,2,0:0:0:0:
256,192,190425,1,0,0:0:0:0:
256,192,190470,1,0,0:0:0:0:
256,192,190516,1,0,0:0:0:0:
256,192,190561,1,0,0:0:0:0:
256,192,190607,1,2,0:0:0:0:
256,192,190698,1,2,0:0:0:0:
256,192,190788,1,2,0:0:0:0:
256,192,190879,1,2,0:0:0:0:
256,192,190970,1,2,0:0:0:0:
256,192,191016,1,2,0:0:0:0:
256,192,191061,1,0,0:0:0:0:
256,192,191152,1,2,0:0:0:0:
256,192,191243,1,0,0:0:0:0:
256,192,191334,1,0,0:0:0:0:
256,192,191425,1,2,0:0:0:0:
256,192,191516,1,0,0:0:0:0:
256,192,191607,1,0,0:0:0:0:
256,192,191698,1,2,0:0:0:0:
256,192,191788,1,2,0:0:0:0:
256,192,191879,1,2,0:0:0:0:
256,192,191970,1,0,0:0:0:0:
256,192,192152,1,0,0:0:0:0:
256,192,192243,1,2,0:0:0:0:
256,192,192334,1,0,0:0:0:0:
256,192,192425,1,0,0:0:0:0:
256,192,192516,1,2,0:0:0:0:
256,192,192607,1,2,0:0:0:0:
256,192,192698,1,0,0:0:0:0:
256,192,192788,1,2,0:0:0:0:
256,192,192879,1,2,0:0:0:0:
256,192,192970,1,2,0:0:0:0:
256,192,193061,1,2,0:0:0:0:
256,192,193152,1,2,0:0:0:0:
256,192,193243,1,0,0:0:0:0:
256,192,193288,1,0,0:0:0:0:
256,192,193334,1,0,0:0:0:0:
256,192,193379,1,0,0:0:0:0:
256,192,193425,1,0,0:0:0:0:
256,192,193470,1,0,0:0:0:0:
256,192,193516,1,0,0:0:0:0:
256,192,193561,1,0,0:0:0:0:
256,192,193607,1,2,0:0:0:0:
256,192,193652,1,0,0:0:0:0:
256,192,193970,1,0,0:0:0:0:
256,192,194061,1,0,0:0:0:0:
256,192,194152,1,2,0:0:0:0:
256,192,194243,1,2,0:0:0:0:
256,192,194334,1,2,0:0:0:0:
256,192,194394,1,2,0:0:0:0:
256,192,194455,1,2,0:0:0:0:
256,192,194516,1,2,0:0:0:0:
256,192,194576,1,2,0:0:0:0:
256,192,194637,1,2,0:0:0:0:
256,192,194698,1,0,0:0:0:0:
256,192,194879,1,0,0:0:0:0:
256,192,195061,1,2,0:0:0:0:
256,192,195152,1,2,0:0:0:0:
256,192,195243,1,0,0:0:0:0:
256,192,195334,1,2,0:0:0:0:
256,192,195425,1,0,0:0:0:0:
256,192,195516,1,0,0:0:0:0:
256,192,195607,1,0,0:0:0:0:
256,192,195698,1,0,0:0:0:0:
256,192,195788,1,0,0:0:0:0:
256,192,195879,1,2,0:0:0:0:
256,192,195970,1,0,0:0:0:0:
256,192,196016,1,0,0:0:0:0:
256,192,196061,1,0,0:0:0:0:
256,192,196152,1,2,0:0:0:0:
256,192,196243,1,2,0:0:0:0:
256,192,196394,1,0,0:0:0:0:
256,192,196455,1,2,0:0:0:0:
256,192,196516,1,2,0:0:0:0:
256,192,196561,1,2,0:0:0:0:
256,192,196607,1,2,0:0:0:0:
256,192,196652,1,2,0:0:0:0:
256,192,196698,1,2,0:0:0:0:
256,192,196743,1,2,0:0:0:0:
256,192,196788,1,2,0:0:0:0:
256,192,196834,1,2,0:0:0:0:
256,192,196879,1,0,0:0:0:0:
256,192,196970,1,0,0:0:0:0:
256,192,197152,1,0,0:0:0:0:
256,192,197334,1,2,0:0:0:0:
256,192,197425,1,0,0:0:0:0:
256,192,197607,1,2,0:0:0:0:
256,192,197788,1,0,0:0:0:0:
256,192,197970,1,2,0:0:0:0:
256,192,198061,1,0,0:0:0:0:
256,192,198152,1,0,0:0:0:0:
256,192,198242,1,2,0:0:0:0:
256,192,198333,1,2,0:0:0:0:
256,192,198424,1,2,0:0:0:0:
256,192,198515,1,0,0:0:0:0:
256,192,198606,1,2,0:0:0:0:
256,192,198788,1,2,0:0:0:0:
256,192,198879,1,0,0:0:0:0:
256,192,199061,1,2,0:0:0:0:
256,192,199242,1,0,0:0:0:0:
256,192,199424,1,2,0:0:0:0:
256,192,199515,1,0,0:0:0:0:
256,192,199606,1,0,0:0:0:0:
256,192,199696,1,2,0:0:0:0:
256,192,199787,1,2,0:0:0:0:
256,192,199878,1,2,0:0:0:0:
256,192,199969,1,0,0:0:0:0:
256,192,200060,1,2,0:0:0:0:
256,192,200243,1,2,0:0:0:0:
256,192,200334,1,0,0:0:0:0:
256,192,200516,1,2,0:0:0:0:
256,192,200697,1,0,0:0:0:0:
256,192,200879,1,2,0:0:0:0:
256,192,200970,1,0,0:0:0:0:
256,192,201061,1,0,0:0:0:0:
256,192,201151,1,2,0:0:0:0:
256,192,201242,1,2,0:0:0:0:
256,192,201333,1,2,0:0:0:0:
256,192,201424,1,0,0:0:0:0:
256,192,201515,1,2,0:0:0:0:
256,192,201698,1,2,0:0:0:0:
256,192,201788,1,0,0:0:0:0:
256,192,201970,1,2,0:0:0:0:
256,192,202151,1,0,0:0:0:0:
256,192,202333,1,2,0:0:0:0:
256,192,202424,1,0,0:0:0:0:
256,192,202515,1,0,0:0:0:0:
256,192,202605,1,2,0:0:0:0:
256,192,202696,1,2,0:0:0:0:
256,192,202787,1,2,0:0:0:0:
256,192,202878,1,0,0:0:0:0:
256,192,202969,1,2,0:0:0:0:
256,192,203152,1,2,0:0:0:0:
256,192,203243,1,0,0:0:0:0:
256,192,203425,1,2,0:0:0:0:
256,192,203606,1,0,0:0:0:0:
256,192,203788,1,2,0:0:0:0:
256,192,203879,1,0,0:0:0:0:
256,192,203970,1,0,0:0:0:0:
256,192,204060,1,2,0:0:0:0:
256,192,204151,1,2,0:0:0:0:
256,192,204242,1,2,0:0:0:0:
256,192,204333,1,0,0:0:0:0:
256,192,204424,1,2,0:0:0:0:
256,192,204607,1,2,0:0:0:0:
256,192,204698,1,0,0:0:0:0:
256,192,204880,1,2,0:0:0:0:
256,192,205061,1,0,0:0:0:0:
256,192,205243,1,2,0:0:0:0:
256,192,205334,1,0,0:0:0:0:
256,192,205425,1,0,0:0:0:0:
256,192,205515,1,2,0:0:0:0:
256,192,205606,1,2,0:0:0:0:
256,192,205697,1,2,0:0:0:0:
256,192,205788,1,0,0:0:0:0:
256,192,205879,1,2,0:0:0:0:
256,192,206062,1,2,0:0:0:0:
256,192,206152,1,0,0:0:0:0:
256,192,206334,1,2,0:0:0:0:
256,192,206515,1,0,0:0:0:0:
256,192,206698,1,2,0:0:0:0:
256,192,206789,1,0,0:0:0:0:
256,192,206880,1,0,0:0:0:0:
256,192,206970,1,2,0:0:0:0:
256,192,207061,1,2,0:0:0:0:
256,192,207152,1,2,0:0:0:0:
256,192,207243,1,0,0:0:0:0:
256,192,207334,1,2,0:0:0:0:
256,192,207425,1,2,0:0:0:0:
256,192,207516,1,0,0:0:0:0:
256,192,207607,1,2,0:0:0:0:
256,192,207667,1,2,0:0:0:0:
256,192,207728,1,2,0:0:0:0:
256,192,207788,1,2,0:0:0:0:
256,192,207879,1,2,0:0:0:0:
256,192,207970,1,0,0:0:0:0:
256,192,208061,1,2,0:0:0:0:
256,192,208152,1,2,0:0:0:0:
256,192,208243,1,0,0:0:0:0:
256,192,208334,1,2,0:0:0:0:
256,192,208394,1,2,0:0:0:0:
256,192,208516,1,2,0:0:0:0:
256,192,208576,1,0,0:0:0:0:
256,192,208788,1,2,0:0:0:0:
256,192,209062,1,2,0:0:0:0:
256,192,209153,1,0,0:0:0:0:
256,192,209335,1,0,0:0:0:0:
256,192,209517,1,0,0:0:0:0:
256,192,209607,1,2,0:0:0:0:
256,192,209698,1,0,0:0:0:0:
256,192,209789,1,2,0:0:0:0:
256,192,209880,1,2,0:0:0:0:
256,192,209971,1,0,0:0:0:0:
256,192,210062,1,2,0:0:0:0:
256,192,210243,1,0,0:0:0:0:
256,192,210515,1,2,0:0:0:0:
256,192,210606,1,0,0:0:0:0:
256,192,210788,1,0,0:0:0:0:
256,192,210970,1,0,0:0:0:0:
256,192,211060,1,2,0:0:0:0:
256,192,211151,1,0,0:0:0:0:
256,192,211242,1,2,0:0:0:0:
256,192,211333,1,2,0:0:0:0:
256,192,211424,1,0,0:0:0:0:
256,192,211515,1,2,0:0:0:0:
256,192,211696,1,0,0:0:0:0:
256,192,211970,1,2,0:0:0:0:
256,192,212061,1,0,0:0:0:0:
256,192,212243,1,0,0:0:0:0:
256,192,212425,1,0,0:0:0:0:
256,192,212515,1,2,0:0:0:0:
256,192,212606,1,0,0:0:0:0:
256,192,212697,1,2,0:0:0:0:
256,192,212788,1,2,0:0:0:0:
256,192,212879,1,0,0:0:0:0:
256,192,212970,1,2,0:0:0:0:
256,192,213151,1,0,0:0:0:0:
256,192,213425,1,2,0:0:0:0:
256,192,213516,1,0,0:0:0:0:
256,192,213698,1,0,0:0:0:0:
256,192,213880,1,0,0:0:0:0:
256,192,213970,1,2,0:0:0:0:
256,192,214061,1,0,0:0:0:0:
256,192,214152,1,2,0:0:0:0:
256,192,214243,1,2,0:0:0:0:
256,192,214334,1,0,0:0:0:0:
256,192,214425,1,2,0:0:0:0:
256,192,214606,1,0,0:0:0:0:
256,192,214879,1,2,0:0:0:0:
256,192,214970,1,0,0:0:0:0:
256,192,215152,1,0,0:0:0:0:
256,192,215334,1,0,0:0:0:0:
256,192,215424,1,2,0:0:0:0:
256,192,215515,1,0,0:0:0:0:
256,192,215606,1,2,0:0:0:0:
256,192,215697,1,2,0:0:0:0:
256,192,215788,1,0,0:0:0:0:
256,192,215879,1,2,0:0:0:0:
256,192,216060,1,0,0:0:0:0:
256,192,216334,1,2,0:0:0:0:
256,192,216425,1,0,0:0:0:0:
256,192,216607,1,0,0:0:0:0:
256,192,216789,1,0,0:0:0:0:
256,192,216879,1,2,0:0:0:0:
256,192,216970,1,0,0:0:0:0:
256,192,217061,1,2,0:0:0:0:
256,192,217152,1,2,0:0:0:0:
256,192,217243,1,0,0:0:0:0:
256,192,217334,1,2,0:0:0:0:
256,192,217515,1,0,0:0:0:0:
256,192,217788,1,2,0:0:0:0:
256,192,217879,1,0,0:0:0:0:
256,192,218061,1,0,0:0:0:0:
256,192,218243,1,0,0:0:0:0:
256,192,218333,1,2,0:0:0:0:
256,192,218424,1,0,0:0:0:0:
256,192,218515,1,2,0:0:0:0:
256,192,218606,1,2,0:0:0:0:
256,192,218697,1,0,0:0:0:0:
256,192,218788,1,2,0:0:0:0:
256,192,218969,1,0,0:0:0:0:
256,192,219243,1,0,0:0:0:0:
256,192,219334,1,2,0:0:0:0:
256,192,219425,1,0,0:0:0:0:
256,192,219471,1,0,0:0:0:0:
256,192,219516,1,0,0:0:0:0:
256,192,219562,1,0,0:0:0:0:
256,192,219607,1,0,0:0:0:0:
256,192,219668,1,0,0:0:0:0:
256,192,219728,1,0,0:0:0:0:
256,192,219789,1,0,0:0:0:0:
256,192,219849,1,0,0:0:0:0:
256,192,219910,1,0,0:0:0:0:
256,192,219971,1,0,0:0:0:0:
256,192,220016,1,0,0:0:0:0:
256,192,220062,1,0,0:0:0:0:
256,192,220107,1,0,0:0:0:0:
256,192,220153,1,0,0:0:0:0:
256,192,220243,1,2,0:0:0:0:
256,192,220424,1,0,0:0:0:0:
256,192,220697,1,2,0:0:0:0:
256,192,220788,1,0,0:0:0:0:
256,192,220970,1,0,0:0:0:0:
256,192,221152,1,0,0:0:0:0:
256,192,221242,1,2,0:0:0:0:
256,192,221333,1,0,0:0:0:0:
256,192,221424,1,2,0:0:0:0:
256,192,221515,1,2,0:0:0:0:
256,192,221606,1,0,0:0:0:0:
256,192,221697,1,2,0:0:0:0:
256,192,221878,1,0,0:0:0:0:
256,192,222152,1,2,0:0:0:0:
256,192,222243,1,0,0:0:0:0:
256,192,222425,1,0,0:0:0:0:
256,192,222607,1,0,0:0:0:0:
256,192,222697,1,2,0:0:0:0:
256,192,222788,1,0,0:0:0:0:
256,192,222879,1,2,0:0:0:0:
256,192,222970,1,2,0:0:0:0:
256,192,223333,1,0,0:0:0:0:
256,192,223607,1,2,0:0:0:0:
256,192,223698,1,0,0:0:0:0:
256,192,223880,1,0,0:0:0:0:
256,192,224062,1,0,0:0:0:0:
256,192,224152,1,2,0:0:0:0:
256,192,224334,1,2,0:0:0:0:
256,192,224425,1,2,0:0:0:0:
256,192,224516,1,0,0:0:0:0:
256,192,224561,1,0,0:0:0:0:
256,192,224607,1,0,0:0:0:0:
256,192,224652,1,0,0:0:0:0:
256,192,224698,1,0,0:0:0:0:
256,192,224743,1,0,0:0:0:0:
256,192,224788,1,0,0:0:0:0:
256,192,224834,1,0,0:0:0:0:
256,192,225243,1,2,0:0:0:0:
256,192,225516,1,0,0:0:0:0:
256,192,225607,1,2,0:0:0:0:
256,192,225698,1,0,0:0:0:0:
256,192,226334,1,2,0:0:0:0:
256,192,226394,1,2,0:0:0:0:
256,192,226455,1,2,0:0:0:0:
256,192,226698,1,0,0:0:0:0:
256,192,226879,1,2,0:0:0:0:
256,192,226970,1,2,0:0:0:0:
256,192,227698,1,2,0:0:0:0:
256,192,227758,1,2,0:0:0:0:
256,192,227819,1,2,0:0:0:0:
256,192,227879,1,2,0:0:0:0:
256,192,228152,1,0,0:0:0:0:
256,192,228698,1,2,0:0:0:0:
256,192,228788,1,0,0:0:0:0:
256,192,229152,1,0,0:0:0:0:
256,192,229243,1,2,0:0:0:0:
256,192,230516,1,2,0:0:0:0:
256,192,231970,12,0,233061,0:0:0:0:
256,192,233243,5,0,0:0:0:0:
256,192,233303,1,0,0:0:0:0:
256,192,233364,1,0,0:0:0:0:
256,192,233424,1,2,0:0:0:0:
256,192,233485,1,2,0:0:0:0:
256,192,233546,1,2,0:0:0:0:
256,192,233606,1,0,0:0:0:0:
256,192,233697,1,0,0:0:0:0:
256,192,233788,1,2,0:0:0:0:
256,192,233849,1,2,0:0:0:0:
256,192,233909,1,2,0:0:0:0:
256,192,233970,1,0,0:0:0:0:
256,192,234061,1,0,0:0:0:0:
256,192,234152,1,2,0:0:0:0:
256,192,234243,1,0,0:0:0:0:
256,192,234333,1,0,0:0:0:0:
256,192,234423,1,2,0:0:0:0:
256,192,234514,1,0,0:0:0:0:
256,192,234560,1,0,0:0:0:0:
256,192,234605,1,0,0:0:0:0:
256,192,234696,1,0,0:0:0:0:
256,192,234787,1,2,0:0:0:0:
256,192,234878,1,0,0:0:0:0:
256,192,234969,1,2,0:0:0:0:
256,192,235060,1,2,0:0:0:0:
256,192,235151,1,2,0:0:0:0:
256,192,235242,1,2,0:0:0:0:
256,192,235302,1,2,0:0:0:0:
256,192,235363,1,2,0:0:0:0:
256,192,235423,1,0,0:0:0:0:
256,192,235514,1,2,0:0:0:0:
256,192,235605,1,2,0:0:0:0:
256,192,235696,1,0,0:0:0:0:
256,192,235787,1,2,0:0:0:0:
256,192,235878,1,2,0:0:0:0:
256,192,235969,1,0,0:0:0:0:
256,192,236029,1,0,0:0:0:0:
256,192,236090,1,0,0:0:0:0:
256,192,236151,1,2,0:0:0:0:
256,192,236196,1,2,0:0:0:0:
256,192,236242,1,2,0:0:0:0:
256,192,236287,1,2,0:0:0:0:
256,192,236333,1,0,0:0:0:0:
256,192,236423,1,2,0:0:0:0:
256,192,236514,1,2,0:0:0:0:
256,192,236605,1,0,0:0:0:0:
256,192,236696,1,0,0:0:0:0:
256,192,236742,1,0,0:0:0:0:
256,192,236787,1,2,0:0:0:0:
256,192,236878,1,0,0:0:0:0:
256,192,236969,1,0,0:0:0:0:
256,192,237060,1,2,0:0:0:0:
256,192,237105,1,2,0:0:0:0:
256,192,237151,1,2,0:0:0:0:
256,192,237196,1,2,0:0:0:0:
256,192,237242,1,0,0:0:0:0:
256,192,237333,1,2,0:0:0:0:
256,192,237423,1,0,0:0:0:0:
256,192,237514,1,2,0:0:0:0:
256,192,237605,1,0,0:0:0:0:
256,192,237666,1,2,0:0:0:0:
256,192,237726,1,2,0:0:0:0:
256,192,237787,1,0,0:0:0:0:
256,192,237878,1,0,0:0:0:0:
256,192,237969,1,2,0:0:0:0:
256,192,238060,1,0,0:0:0:0:
256,192,238151,1,2,0:0:0:0:
256,192,238242,1,0,0:0:0:0:
256,192,238333,1,0,0:0:0:0:
256,192,238379,1,0,0:0:0:0:
256,192,238424,1,0,0:0:0:0:
256,192,238470,1,0,0:0:0:0:
256,192,238515,1,0,0:0:0:0:
256,192,238576,1,0,0:0:0:0:
256,192,238636,1,0,0:0:0:0:
256,192,238697,1,0,0:0:0:0:
256,192,238757,1,0,0:0:0:0:
256,192,238818,1,0,0:0:0:0:
256,192,238879,1,0,0:0:0:0:
256,192,238924,1,0,0:0:0:0:
256,192,238970,1,0,0:0:0:0:
256,192,239015,1,0,0:0:0:0:
256,192,239061,1,0,0:0:0:0:
256,192,239151,1,2,0:0:0:0:
256,192,239242,1,0,0:0:0:0:
256,192,239333,1,0,0:0:0:0:
256,192,239423,1,2,0:0:0:0:
256,192,239514,1,0,0:0:0:0:
256,192,239605,1,0,0:0:0:0:
256,192,239696,1,2,0:0:0:0:
256,192,239787,1,0,0:0:0:0:
256,192,239878,1,0,0:0:0:0:
256,192,239969,1,2,0:0:0:0:
256,192,240060,1,0,0:0:0:0:
256,192,240151,1,0,0:0:0:0:
256,192,240196,1,2,0:0:0:0:
256,192,240242,1,2,0:0:0:0:
256,192,240287,1,2,0:0:0:0:
256,192,240333,1,0,0:0:0:0:
256,192,240423,1,2,0:0:0:0:
256,192,240514,1,2,0:0:0:0:
256,192,240605,1,2,0:0:0:0:
256,192,240696,1,0,0:0:0:0:
256,192,240787,1,2,0:0:0:0:
256,192,240848,1,2,0:0:0:0:
256,192,240908,1,2,0:0:0:0:
256,192,240969,1,0,0:0:0:0:
256,192,241060,1,0,0:0:0:0:
256,192,241105,1,2,0:0:0:0:
256,192,241151,1,2,0:0:0:0:
256,192,241196,1,2,0:0:0:0:
256,192,241242,1,0,0:0:0:0:
256,192,241302,1,0,0:0:0:0:
256,192,241363,1,0,0:0:0:0:
256,192,241423,1,2,0:0:0:0:
256,192,241514,1,0,0:0:0:0:
256,192,241605,1,0,0:0:0:0:
256,192,241651,1,0,0:0:0:0:
256,192,241696,1,2,0:0:0:0:
256,192,241787,1,2,0:0:0:0:
256,192,241878,1,2,0:0:0:0:
256,192,241969,1,0,0:0:0:0:
256,192,242014,1,0,0:0:0:0:
256,192,242060,1,0,0:0:0:0:
256,192,242105,1,0,0:0:0:0:
256,192,242151,1,2,0:0:0:0:
256,192,242211,1,2,0:0:0:0:
256,192,242272,1,2,0:0:0:0:
256,192,242333,1,0,0:0:0:0:
256,192,242423,1,2,0:0:0:0:
256,192,242514,1,0,0:0:0:0:
256,192,242560,1,2,0:0:0:0:
256,192,242605,1,2,0:0:0:0:
256,192,242651,1,2,0:0:0:0:
256,192,242696,1,0,0:0:0:0:
256,192,242787,1,0,0:0:0:0:
256,192,242878,1,2,0:0:0:0:
256,192,242969,1,0,0:0:0:0:
256,192,243060,1,2,0:0:0:0:
256,192,243151,1,0,0:0:0:0:
256,192,243242,1,0,0:0:0:0:
256,192,243333,1,0,0:0:0:0:
256,192,243378,1,0,0:0:0:0:
256,192,243423,1,2,0:0:0:0:
256,192,243514,1,2,0:0:0:0:
256,192,243605,1,0,0:0:0:0:
256,192,243696,1,2,0:0:0:0:
256,192,243787,1,2,0:0:0:0:
256,192,243878,1,0,0:0:0:0:
256,192,243969,1,0,0:0:0:0:
256,192,244014,1,2,0:0:0:0:
256,192,244060,1,0,0:0:0:0:
256,192,244120,1,0,0:0:0:0:
256,192,244181,1,0,0:0:0:0:
256,192,244242,1,2,0:0:0:0:
256,192,244287,1,0,0:0:0:0:
256,192,244333,1,0,0:0:0:0:
256,192,244423,1,2,0:0:0:0:
256,192,244514,1,2,0:0:0:0:
256,192,244605,1,0,0:0:0:0:
256,192,244651,1,0,0:0:0:0:
256,192,244696,1,2,0:0:0:0:
256,192,244787,1,2,0:0:0:0:
256,192,244878,1,2,0:0:0:0:
256,192,244969,1,0,0:0:0:0:
256,192,245014,1,0,0:0:0:0:
256,192,245060,1,0,0:0:0:0:
256,192,245120,1,2,0:0:0:0:
256,192,245181,1,2,0:0:0:0:
256,192,245242,1,2,0:0:0:0:
256,192,245302,1,0,0:0:0:0:
256,192,245363,1,0,0:0:0:0:
256,192,245423,1,2,0:0:0:0:
256,192,245469,1,2,0:0:0:0:
256,192,245514,1,0,0:0:0:0:
256,192,245605,1,2,0:0:0:0:
256,192,245666,1,0,0:0:0:0:
256,192,245726,1,0,0:0:0:0:
256,192,245787,1,2,0:0:0:0:
256,192,245878,1,0,0:0:0:0:
256,192,245969,1,0,0:0:0:0:
256,192,246059,1,2,0:0:0:0:
256,192,246150,1,0,0:0:0:0:
256,192,246196,1,0,0:0:0:0:
256,192,246241,1,0,0:0:0:0:
256,192,246332,1,0,0:0:0:0:
256,192,246423,1,2,0:0:0:0:
256,192,246514,1,0,0:0:0:0:
256,192,246605,1,2,0:0:0:0:
256,192,246696,1,2,0:0:0:0:
256,192,246787,1,2,0:0:0:0:
256,192,246878,1,2,0:0:0:0:
256,192,246938,1,2,0:0:0:0:
256,192,246999,1,2,0:0:0:0:
256,192,247059,1,0,0:0:0:0:
256,192,247150,1,2,0:0:0:0:
256,192,247241,1,2,0:0:0:0:
256,192,247332,1,0,0:0:0:0:
256,192,247423,1,2,0:0:0:0:
256,192,247514,1,2,0:0:0:0:
256,192,247605,1,0,0:0:0:0:
256,192,247665,1,0,0:0:0:0:
256,192,247726,1,0,0:0:0:0:
256,192,247787,1,2,0:0:0:0:
256,192,247832,1,2,0:0:0:0:
256,192,247878,1,2,0:0:0:0:
256,192,247923,1,2,0:0:0:0:
256,192,247969,1,0,0:0:0:0:
256,192,248059,1,2,0:0:0:0:
256,192,248150,1,2,0:0:0:0:
256,192,248241,1,0,0:0:0:0:
256,192,248332,1,0,0:0:0:0:
256,192,248378,1,0,0:0:0:0:
256,192,248423,1,2,0:0:0:0:
256,192,248514,1,0,0:0:0:0:
256,192,248605,1,0,0:0:0:0:
256,192,248696,1,2,0:0:0:0:
256,192,248741,1,2,0:0:0:0:
256,192,248787,1,2,0:0:0:0:
256,192,248832,1,2,0:0:0:0:
256,192,248878,1,0,0:0:0:0:
256,192,248969,1,2,0:0:0:0:
256,192,249059,1,0,0:0:0:0:
256,192,249150,1,2,0:0:0:0:
256,192,249241,1,0,0:0:0:0:
256,192,249302,1,2,0:0:0:0:
256,192,249362,1,2,0:0:0:0:
256,192,249423,1,0,0:0:0:0:
256,192,249514,1,0,0:0:0:0:
256,192,249605,1,2,0:0:0:0:
256,192,249696,1,0,0:0:0:0:
256,192,249787,1,2,0:0:0:0:
256,192,249878,1,0,0:0:0:0:
256,192,249969,1,0,0:0:0:0:
256,192,250015,1,0,0:0:0:0:
256,192,250060,1,0,0:0:0:0:
256,192,250106,1,0,0:0:0:0:
256,192,250151,1,0,0:0:0:0:
256,192,250212,1,0,0:0:0:0:
256,192,250272,1,0,0:0:0:0:
256,192,250333,1,0,0:0:0:0:
256,192,250393,1,0,0:0:0:0:
256,192,250454,1,0,0:0:0:0:
256,192,250515,1,0,0:0:0:0:
256,192,250560,1,0,0:0:0:0:
256,192,250606,1,0,0:0:0:0:
256,192,250651,1,0,0:0:0:0:
256,192,250697,1,0,0:0:0:0:
256,192,250787,1,2,0:0:0:0:
256,192,250878,1,0,0:0:0:0:
256,192,250969,1,0,0:0:0:0:
256,192,251059,1,2,0:0:0:0:
256,192,251150,1,0,0:0:0:0:
256,192,251241,1,0,0:0:0:0:
256,192,251332,1,2,0:0:0:0:
256,192,251423,1,0,0:0:0:0:
256,192,251514,1,0,0:0:0:0:
256,192,251605,1,2,0:0:0:0:
256,192,251696,1,0,0:0:0:0:
256,192,251787,1,0,0:0:0:0:
256,192,251832,1,2,0:0:0:0:
256,192,251878,1,2,0:0:0:0:
256,192,251923,1,2,0:0:0:0:
256,192,251969,1,0,0:0:0:0:
256,192,252059,1,2,0:0:0:0:
256,192,252150,1,2,0:0:0:0:
256,192,252241,1,2,0:0:0:0:
256,192,252332,1,0,0:0:0:0:
256,192,252423,1,2,0:0:0:0:
256,192,252484,1,2,0:0:0:0:
256,192,252544,1,2,0:0:0:0:
256,192,252605,1,0,0:0:0:0:
256,192,252696,1,0,0:0:0:0:
256,192,252741,1,2,0:0:0:0:
256,192,252787,1,2,0:0:0:0:
256,192,252832,1,2,0:0:0:0:
256,192,252878,1,0,0:0:0:0:
256,192,252938,1,0,0:0:0:0:
256,192,252999,1,0,0:0:0:0:
256,192,253059,1,2,0:0:0:0:
256,192,253150,1,0,0:0:0:0:
256,192,253241,1,0,0:0:0:0:
256,192,253287,1,0,0:0:0:0:
256,192,253332,1,2,0:0:0:0:
256,192,253423,1,2,0:0:0:0:
256,192,253514,1,2,0:0:0:0:
256,192,253605,1,0,0:0:0:0:
256,192,253650,1,0,0:0:0:0:
256,192,253696,1,0,0:0:0:0:
256,192,253741,1,0,0:0:0:0:
256,192,253787,1,2,0:0:0:0:
256,192,253847,1,2,0:0:0:0:
256,192,253908,1,2,0:0:0:0:
256,192,253969,1,0,0:0:0:0:
256,192,254059,1,2,0:0:0:0:
256,192,254150,1,0,0:0:0:0:
256,192,254196,1,2,0:0:0:0:
256,192,254241,1,2,0:0:0:0:
256,192,254287,1,2,0:0:0:0:
256,192,254332,1,0,0:0:0:0:
256,192,254423,1,0,0:0:0:0:
256,192,254514,1,2,0:0:0:0:
256,192,254605,1,0,0:0:0:0:
256,192,254696,1,2,0:0:0:0:
256,192,254787,1,0,0:0:0:0:
256,192,254878,1,0,0:0:0:0:
256,192,254969,1,0,0:0:0:0:
256,192,255014,1,0,0:0:0:0:
256,192,255059,1,2,0:0:0:0:
256,192,255150,1,2,0:0:0:0:
256,192,255241,1,0,0:0:0:0:
256,192,255332,1,2,0:0:0:0:
256,192,255423,1,2,0:0:0:0:
256,192,255514,1,0,0:0:0:0:
256,192,255605,1,0,0:0:0:0:
256,192,255650,1,2,0:0:0:0:
256,192,255696,1,0,0:0:0:0:
256,192,255756,1,0,0:0:0:0:
256,192,255817,1,0,0:0:0:0:
256,192,255878,1,2,0:0:0:0:
256,192,255923,1,0,0:0:0:0:
256,192,255969,1,0,0:0:0:0:
256,192,256059,1,2,0:0:0:0:
256,192,256150,1,2,0:0:0:0:
256,192,256211,1,2,0:0:0:0:
256,192,256272,1,2,0:0:0:0:
256,192,256333,1,2,0:0:0:0:
256,192,256378,1,0,0:0:0:0:
256,192,256423,1,0,0:0:0:0:
256,192,256469,1,2,0:0:0:0:
256,192,256514,1,0,0:0:0:0:
