osu file format v14

[General]
AudioFilename: audio.mp3
AudioLeadIn: 0
PreviewTime: 48006
Countdown: 0
SampleSet: Soft
StackLeniency: 0.7
Mode: 0
LetterboxInBreaks: 0
WidescreenStoryboard: 0

[Editor]
DistanceSpacing: 0.8
BeatDivisor: 2
GridSize: 4
TimelineZoom: 0.6999998

[Metadata]
Title:Takarabako
TitleUnicode:タカラバコ
Artist:Sasanomaly
ArtistUnicode:ササノマリイ
Creator:Enrdus
Version:Normal
Source:夏目友人帳 伍
Tags:Natsume Yuujinchou Go
BeatmapID:1513613
BeatmapSetID:716436

[Difficulty]
HPDrainRate:4
CircleSize:3
OverallDifficulty:4
ApproachRate:5
SliderMultiplier:1.2
SliderTickRate:1

[Events]
//Background and Video events
Video,0,"Natsume Yuujinchou Go.avi"
0,0,"Background.jpg",0,0
//Break Periods
//Storyboard Layer 0 (Background)
//Storyboard Layer 1 (Fail)
//Storyboard Layer 2 (Pass)
//Storyboard Layer 3 (Foreground)
//Storyboard Sound Samples

[TimingPoints]
256,500,4,2,1,30,1,0
48006,-100,4,2,1,30,0,1
80756,-100,4,2,1,30,0,0

[Colours]
Combo1 : 255,0,0
Combo2 : 255,128,0
Combo3 : 239,194,61
Combo4 : 235,73,39

[HitObjects]
87,318,256,6,0,B|133:273|146:333|215:272,1,120
240,268,1006,1,0,0:0:0:0:
240,268,1256,2,0,L|212:120,1,120,2|0,0:0|0:0,0:0:0:0:
204,104,2006,1,0,0:0:0:0:
204,104,2256,6,0,P|268:100|328:80,1,120,2|0,0:0|0:0,0:0:0:0:
412,52,3256,2,4,P|464:24|484:12,2,60
412,148,4256,6,0,B|366:193|426:207|363:275,1,120
360,296,5006,1,0,0:0:0:0:
360,296,5256,2,0,L|220:296,1,120,2|0,0:0|0:0,0:0:0:0:
192,296,6006,1,0,0:0:0:0:
192,296,6256,6,0,P|172:248|172:132,1,120,2|0,0:0|0:0,0:0:0:0:
158,84,7256,2,4,P|162:36|178:8,2,60
252,68,8256,6,0,P|292:132|264:208,1,120
268,216,9006,1,4,0:0:0:0:
256,264,9256,2,0,P|255:322|291:369,1,120
340,288,10256,2,0,L|392:192,1,60
396,196,10756,2,0,L|360:104,1,60
352,96,11256,6,0,P|272:84|200:44,1,120
144,40,12256,1,4,0:0:0:0:
76,108,12756,1,0,0:0:0:0:
64,208,13256,2,0,P|100:268|160:276,1,120
192,276,14006,5,4,0:0:0:0:
276,228,14506,2,0,P|322:198|337:153,1,60
367,151,15006,6,0,B|422:123|369:92|431:58,1,120
468,28,15756,1,0,0:0:0:0:
276,41,16256,6,0,P|226:5|154:4,1,120
120,8,17006,1,0,0:0:0:0:
120,8,17256,1,0,0:0:0:0:
187,128,18006,5,0,0:0:0:0:
171,173,18256,2,0,B|115:215|171:239|119:276,1,120
78,304,19006,1,0,0:0:0:0:
78,304,19256,1,0,0:0:0:0:
221,313,20006,5,0,0:0:0:0:
266,328,20256,2,0,P|303:339|361:330,1,60
372,340,20756,1,4,0:0:0:0:
372,340,21006,1,0,0:0:0:0:
398,149,22006,5,0,0:0:0:0:
352,134,22256,2,0,B|287:105|294:166|236:139,1,120
192,137,23006,1,4,0:0:0:0:
158,102,23256,2,0,P|137:70|142:12,1,60
233,44,24006,5,4,0:0:0:0:
279,52,24256,2,0,L|414:66,1,120
445,71,25006,1,0,0:0:0:0:
445,71,25256,1,0,0:0:0:0:
458,166,25756,6,0,L|473:230,1,60
427,244,26256,2,0,L|398:306,1,60
423,340,26756,1,0,0:0:0:0:
327,352,27256,5,0,0:0:0:0:
280,352,27506,1,0,0:0:0:0:
232,352,27756,2,0,L|128:352,1,60
124,352,28256,1,0,0:0:0:0:
28,352,28756,5,0,0:0:0:0:
28,304,29006,1,0,0:0:0:0:
72,220,29506,1,0,0:0:0:0:
160,184,30006,1,0,0:0:0:0:
160,88,30506,6,0,P|244:136|256:192,1,120
268,200,31256,2,0,P|252:268|228:284,2,60
352,152,32256,6,0,L|472:224,1,120,2|0,0:0|0:0,0:0:0:0:
380,276,33256,2,0,L|268:328,1,120,2|0,0:0|0:0,0:0:0:0:
224,340,34006,1,0,0:0:0:0:
224,340,34256,1,0,0:0:0:0:
148,284,34756,6,0,P|112:264|100:196,1,60
84,204,35256,1,0,0:0:0:0:
224,172,36006,5,0,0:0:0:0:
260,140,36256,2,0,L|372:40,1,120
408,136,37256,2,0,L|476:240,1,120
384,272,38256,2,0,L|294:351,1,120
228,280,39256,5,4,0:0:0:0:
172,200,39756,1,4,0:0:0:0:
144,160,40006,1,0,0:0:0:0:
120,120,40256,2,0,L|76:40,2,60
212,92,41256,6,0,B|276:92|244:40|336:36,1,120
360,32,42006,1,0,0:0:0:0:
340,128,42506,6,0,P|356:164|324:228,2,60
304,92,43256,1,0,0:0:0:0:
252,172,43756,1,4,0:0:0:0:
156,176,44256,6,0,P|188:248|272:264,1,120
316,276,45256,1,0,0:0:0:0:
316,276,45506,1,4,0:0:0:0:
336,184,46006,6,8,L|484:228,2,120
288,172,47256,1,0,0:0:0:0:
288,172,47506,1,8,0:0:0:0:
300,76,48006,5,4,0:0:0:0:
252,72,48256,2,0,L|144:76,1,60
160,108,48756,2,0,L|188:192,1,60
196,208,49256,1,0,0:0:0:0:
196,352,50006,5,4,0:0:0:0:
236,328,50256,2,0,L|336:264,1,60
328,272,50756,2,0,L|404:224,1,60
420,216,51256,1,0,0:0:0:0:
420,216,51506,1,4,0:0:0:0:
332,172,52006,5,4,0:0:0:0:
300,136,52256,2,0,L|265:88,1,60
232,52,52756,2,0,L|136:108,1,60
136,104,53256,1,0,0:0:0:0:
160,248,54006,5,0,0:0:0:0:
188,212,54256,2,0,L|252:132,1,60
264,136,54756,2,0,L|364:136,1,60
372,136,55256,1,0,0:0:0:0:
372,136,55506,1,4,0:0:0:0:
424,216,56006,5,0,0:0:0:0:
424,216,56256,1,4,0:0:0:0:
352,280,56756,1,0,0:0:0:0:
352,280,57006,1,4,0:0:0:0:
256,276,57506,6,0,L|196:276,1,60
148,276,58006,1,4,0:0:0:0:
72,216,58506,2,0,L|72:156,1,60
72,108,59006,1,0,0:0:0:0:
168,128,59506,6,0,P|196:56|280:24,1,120
272,12,60256,1,4,0:0:0:0:
360,52,60756,1,0,0:0:0:0:
396,140,61256,1,0,0:0:0:0:
289,120,61756,5,0,0:0:0:0:
255,153,62006,2,0,L|171:237,1,60
176,227,62506,1,4,0:0:0:0:
73,328,63256,6,0,L|179:328,1,60
180,328,63756,1,4,0:0:0:0:
228,328,64006,1,4,0:0:0:0:
276,328,64256,2,0,L|376:328,1,60
384,328,64756,6,0,L|420:264,1,60
392,232,65256,2,0,L|364:168,1,60
376,128,65756,1,4,0:0:0:0:
284,100,66256,6,0,L|200:52,1,60
184,80,66756,2,0,L|100:32,1,60
84,56,67256,1,0,0:0:0:0:
84,56,67506,1,0,0:0:0:0:
44,144,68006,5,0,0:0:0:0:
48,188,68256,2,0,P|59:215|80:237,1,60
150,311,68756,2,0,P|197:323|235:310,1,60
256,316,69256,1,4,0:0:0:0:
364,220,70006,5,0,0:0:0:0:
332,184,70256,2,0,L|264:108,1,60
268,96,70756,2,0,L|336:20,1,60
344,16,71256,1,0,0:0:0:0:
344,16,71506,1,4,0:0:0:0:
412,84,72006,6,4,P|432:116|432:168,1,60
440,232,72756,2,4,P|432:260|415:285,1,60
344,352,73506,1,4,0:0:0:0:
308,320,73756,2,0,P|290:295|283:266,1,60
248,176,74506,1,4,0:0:0:0:
248,128,74756,2,0,P|255:99|272:74,1,60
364,52,75506,5,0,0:0:0:0:
396,88,75756,1,4,0:0:0:0:
428,124,76006,1,0,0:0:0:0:
364,192,76506,5,0,0:0:0:0:
328,224,76756,1,4,0:0:0:0:
288,252,77006,1,0,0:0:0:0:
116,172,78006,5,0,0:0:0:0:
164,172,78256,2,0,L|236:172,1,60
260,140,78756,2,4,L|332:140,1,60
356,108,79256,1,2,0:0:0:0:
440,152,79756,1,2,0:0:0:0:
440,200,80006,2,4,P|364:264|296:256,1,120
256,192,80756,12,2,88006,0:0:0:0:
